VERSION	0.00.00	1.04.00
FES_MODE	0
BPM_DEF	145.000	145.000	145.000	145.000
MET_DEF	4	4
RESOLUTION	384
CLK_DEF	384
COMPATIBLE_CODE	MA2

BPM	0	0	145.000
MET	0	0	4	4

NMHLD	1	0	2	192
NMHLD	1	0	3	3360
NMTTP	1	288	0	C	0	M1
NMHLD	2	0	2	192
NMTTP	2	288	0	C	0	M1
NMSTR	3	0	2
NMSCL	3	0	2	96	192	4
NMSTR	4	0	4
NMSCR	4	0	4	96	192	2
NMTAP	5	0	2
NMSTR	5	96	2
NMSI_	5	96	2	96	96	6
NMTAP	6	0	6
NMSTR	6	96	6
NMSI_	6	96	6	96	96	2
NMTAP	7	0	2
NMSTR	7	96	0
NMSCR	7	96	0	96	96	2
NMTAP	8	0	2
NMSTR	8	96	5
NMSCR	8	96	5	96	96	2
NMTAP	9	0	2
NMTAP	9	96	0
NMTAP	9	192	4
NMTAP	9	288	6
NMTAP	10	0	6
NMTAP	10	0	7
NMTAP	10	96	0
NMTAP	10	96	1
NMSTR	10	192	1
NMSUR	10	192	1	96	48	5
NMSTR	10	192	2
NMSI_	10	192	2	96	48	5
BRTAP	10	288	1
BRTAP	10	288	2
EXTAP	11	0	6
EXTAP	11	0	7
NMTAP	11	48	6
NMTAP	11	48	7
NMTAP	11	96	0
NMTAP	11	120	0
NMTAP	11	168	5
NMTAP	11	216	4
NMTAP	11	264	3
NMTAP	11	312	2
NMTAP	11	336	2
EXTAP	12	0	0
EXTAP	12	0	1
NMTAP	12	48	0
NMTAP	12	48	1
NMTAP	12	96	7
NMTAP	12	120	7
NMTAP	12	168	2
NMTAP	12	216	3
NMTAP	12	264	4
NMTAP	12	312	5
NMTAP	12	336	5
EXTAP	13	0	6
EXTAP	13	0	7
NMTAP	13	48	6
NMTAP	13	48	7
NMTAP	13	96	0
NMTAP	13	120	0
NMTAP	13	168	5
NMTAP	13	216	4
NMTAP	13	264	3
NMTAP	13	312	2
NMTAP	13	336	2
NMTAP	14	0	2
NMTAP	14	0	3
NMTAP	14	96	2
NMTAP	14	96	3
NMSTR	14	192	1
NMSUR	14	192	1	96	48	5
NMSTR	14	192	2
NMSI_	14	192	2	96	48	5
NMTAP	14	240	0
NMTAP	14	240	3
NMTAP	14	288	1
NMTAP	14	288	2
NMTAP	15	0	4
NMTAP	15	0	6
NMTAP	15	96	6
NMTAP	15	120	4
NMTAP	15	144	5
NMTAP	15	168	3
NMTAP	15	192	4
NMSTR	15	288	2
NMSI_	15	288	2	96	48	4
NMSTR	15	288	4
NMSI_	15	288	4	96	48	6
NMTAP	16	0	2
NMTAP	16	0	4
NMTAP	16	96	6
NMTAP	16	120	4
NMTAP	16	144	5
NMTAP	16	168	3
NMTAP	16	192	4
NMTAP	16	288	3
NMTAP	16	288	5
NMTAP	17	0	6
NMTAP	17	24	4
NMTAP	17	48	6
NMTAP	17	72	4
NMTAP	17	96	5
NMTAP	17	192	6
NMTAP	17	216	4
NMTAP	17	240	6
NMTAP	17	264	4
NMTAP	17	288	5
NMTAP	18	0	4
NMTAP	18	0	5
NMTAP	18	48	3
NMTAP	18	48	4
NMTAP	18	96	2
NMTAP	18	120	3
NMTAP	18	144	2
NMSTR	18	192	1
NMSI_	18	192	1	96	48	4
NMSTR	18	192	5
NMSI_	18	192	5	96	48	0
NMSTR	19	0	0
NMSI_	19	0	0	96	48	5
NMTAP	19	0	4
NMTAP	19	48	0
NMHLD	19	48	4	96
CNSI_	19	144	5	0	48	2
EXTAP	19	288	3
EXTAP	19	312	3
NMSTR	20	0	1
NMSI_	20	0	1	96	48	4
NMTAP	20	0	3
NMTAP	20	48	1
NMHLD	20	48	3	96
CNSI_	20	144	4	0	48	7
NMSTR	20	288	6
NMSCL	20	288	6	96	96	2
NMSTR	20	288	7
NMSCL	20	288	7	96	96	2
NMSTR	21	192	0
NMSI_	21	192	0	96	48	4
NMSTR	21	192	7
NMSI_	21	192	7	96	48	3
NMTAP	21	288	0
NMTAP	21	288	7
EXTAP	22	0	2
EXTAP	22	0	3
EXTAP	22	72	1
EXTAP	22	72	2
EXTAP	22	144	0
EXTAP	22	144	3
NMSTR	22	192	1
NMSUR	22	192	1	96	48	5
NMSTR	22	192	2
NMSI_	22	192	2	96	48	5
NMTAP	22	288	1
NMTAP	22	288	2
NMTTP	23	0	6	B	0	M1
NMTAP	23	96	1
NMTAP	23	144	3
NMTAP	23	168	3
NMTAP	23	192	2
NMTTP	23	288	4	B	0	M1
NMTTP	23	288	4	A	0	M1
NMTAP	24	0	1
NMTAP	24	0	3
NMTAP	24	96	2
NMTAP	24	144	4
NMTAP	24	168	4
NMTAP	24	192	3
NMTTP	24	288	5	B	0	M1
NMTTP	24	288	5	A	0	M1
NMTAP	25	0	2
NMTAP	25	24	3
NMTAP	25	48	2
NMTTP	25	96	2	E	0	M1
NMTTP	25	144	4	E	0	M1
NMTAP	25	192	2
NMTAP	25	216	3
NMTAP	25	240	2
NMTTP	25	288	2	E	0	M1
NMTTP	25	336	4	E	0	M1
NMTAP	26	0	2
NMTAP	26	0	3
NMTAP	26	48	2
NMTAP	26	48	3
NMTTP	26	96	1	B	0	M1
NMTTP	26	96	2	E	0	M1
NMTTP	26	144	4	B	0	M1
NMTTP	26	144	4	E	0	M1
NMTTP	26	192	0	C	0	M1
NMTTP	26	288	6	B	0	M1
NMTTP	26	288	7	B	0	M1
NMTTP	26	288	7	E	0	M1
NMTAP	27	0	0
NMSTR	27	0	1
NMSI_	27	0	1	96	48	4
NMHLD	27	48	0	96
NMTAP	27	48	1
CNSI_	27	144	4	0	48	6
EXTAP	27	288	7
EXTAP	27	312	7
NMSTR	28	0	6
NMSI_	28	0	6	96	48	3
NMTAP	28	0	7
NMTAP	28	48	6
NMHLD	28	48	7	96
CNSI_	28	144	3	0	48	1
NMSTR	28	288	0
NMSCR	28	288	0	96	96	5
NMSTR	28	288	1
NMSCR	28	288	1	96	96	5
NMSTR	29	192	0
NMSI_	29	192	0	96	48	4
NMSTR	29	192	7
NMSI_	29	192	7	96	48	3
NMTAP	29	288	0
NMTAP	29	288	7
EXTAP	30	0	2
EXTAP	30	0	3
EXTAP	30	72	1
EXTAP	30	72	2
EXTAP	30	144	0
EXTAP	30	144	3
NMSTR	30	192	1
NMSUR	30	192	1	96	48	5
NMSTR	30	192	2
NMSI_	30	192	2	96	48	5
NMTAP	30	288	1
NMTAP	30	288	2
EXSTR	31	0	6
NMSSL	31	0	6	96	96	2
NMSTR	31	96	2
NMSSL	31	96	2	96	96	6
NMTAP	31	192	6
NMTAP	31	288	7
NMTAP	32	0	4
NMTAP	32	0	5
NMTAP	32	96	5
NMTAP	32	96	6
NMSTR	32	192	5
NMSI_	32	192	5	96	48	2
NMSTR	32	192	6
NMSUL	32	192	6	96	48	2
NMTAP	32	240	4
NMTAP	32	240	7
NMTAP	32	288	5
NMTAP	32	288	6
NMSTR	33	0	1
NMSSR	33	0	1	96	96	5
NMSTR	33	96	5
NMSSR	33	96	5	96	96	1
NMTAP	33	192	1
NMTAP	33	288	0
NMTAP	34	0	2
NMTAP	34	0	3
NMTAP	34	96	1
NMTAP	34	96	2
NMSTR	34	192	1
NMSUR	34	192	1	96	48	5
NMSTR	34	192	2
NMSI_	34	192	2	96	48	5
NMTAP	34	240	0
NMTAP	34	240	3
NMTAP	34	288	1
NMTAP	34	288	2
EXSTR	35	0	4
NMSCR	35	0	4	96	48	6
EXTAP	35	0	5
NMTAP	35	96	3
NMTAP	35	96	4
NMTAP	35	192	4
NMSTR	35	192	5
NMSCL	35	192	5	96	48	3
NMTAP	35	288	5
NMTAP	35	288	6
NMTAP	36	0	2
NMSTR	36	0	3
NMSCL	36	0	3	96	48	1
NMTAP	36	96	3
NMTAP	36	96	4
NMTAP	36	192	1
NMSTR	36	192	2
NMSCL	36	192	2	96	48	0
NMTAP	36	288	2
NMTAP	36	288	3
NMSTR	37	0	1
NMSCR	37	0	1	96	96	3
NMSTR	37	0	5
NMSCL	37	0	5	96	96	3
CNSXL	37	192	3	0	96	6
CNSXR	37	192	3	0	96	0
NMTAP	37	336	1
NMTAP	37	336	5
BRTAP	38	0	1
BRTAP	38	0	5
NMSTR	38	192	0
NMSI_	38	192	0	96	48	4
NMSTR	38	192	7
NMSI_	38	192	7	96	48	3
NMTAP	38	288	0
NMTAP	38	288	7
NMTAP	39	0	2
EXSTR	39	0	3
NMSCR	39	0	3	96	48	6
NMTAP	39	48	2
NMTAP	39	96	2
NMTAP	39	96	3
NMTAP	39	144	2
NMTAP	39	192	2
NMSTR	39	192	3
NMSCR	39	192	3	96	48	6
NMTAP	39	240	2
NMTAP	39	288	2
NMTAP	39	288	3
NMTAP	39	336	2
BRSTR	40	0	3
NMSLR	40	0	3	96	96	7
NMSTR	40	96	7
NMSLR	40	96	7	96	96	3
NMSTR	40	192	3
NMSCR	40	192	3	96	96	7
NMTAP	40	288	7
NMTAP	41	0	3
NMSTR	41	96	6
NMSI_	41	96	6	96	48	3
NMSTR	41	144	7
NMSI_	41	144	7	96	48	2
NMTAP	41	192	6
NMTAP	41	240	7
NMTAP	41	288	6
NMTAP	41	336	7
NMTAP	42	0	0
NMTAP	42	0	1
NMTAP	42	48	2
NMTAP	42	96	3
NMTAP	42	96	4
NMTAP	42	144	5
NMHLD	42	192	6	48
NMHLD	42	192	7	48
NMSTR	42	288	1
NMSCR	42	288	1	96	48	4
NMSTR	42	288	5
NMSCR	42	288	5	96	48	0
NMTAP	43	0	1
NMTAP	43	0	5
NMHLD	43	96	0	288
NMSTR	43	96	5
NMSCL	43	96	5	96	48	1
NMTAP	43	144	5
NMSTR	43	288	5
NMSCL	43	288	5	96	48	1
NMTAP	43	336	5
NMTAP	44	96	0
NMTAP	44	96	1
NMTAP	44	144	2
NMTAP	44	144	3
NMTAP	44	192	2
NMTAP	44	240	4
NMTAP	44	264	4
NMTAP	44	288	3
NMTAP	44	336	5
NMSTR	45	0	4
NMSXR	45	0	4	96	96	4
NMSTR	45	96	4
NMSXL	45	96	4	96	96	4
NMSTR	45	288	3
NMSXL	45	288	3	96	144	3
NMSXR	45	288	3	96	144	3
EXTAP	46	192	2
EXTAP	46	192	4
NMTTP	46	288	0	C	1	M1
NMSTR	47	0	4
NMSCL	47	0	4	96	48	1
NMTAP	47	0	5
NMTAP	47	48	5
NMTAP	47	96	4
NMTAP	47	96	5
NMTAP	47	144	5
NMSTR	47	192	4
NMSCL	47	192	4	96	48	1
NMTAP	47	192	5
NMTAP	47	240	5
NMTAP	47	288	4
NMTAP	47	288	5
NMTAP	47	336	5
BRSTR	48	0	4
NMSLL	48	0	4	96	96	0
NMSTR	48	96	0
NMSLL	48	96	0	96	96	4
NMSTR	48	192	4
NMSCL	48	192	4	96	96	0
NMTAP	48	288	0
NMTAP	49	0	4
BRSTR	49	96	1
NMSI_	49	96	1	96	48	4
BRSTR	49	144	0
NMSI_	49	144	0	96	48	5
BRTAP	49	192	1
BRTAP	49	240	0
NMTAP	49	288	1
NMTAP	49	336	0
NMTAP	50	0	6
NMTAP	50	0	7
NMTAP	50	48	5
NMTAP	50	96	3
NMTAP	50	96	4
NMTAP	50	144	2
NMHLD	50	192	0	48
NMHLD	50	192	1	48
NMSTR	50	288	2
NMSCL	50	288	2	96	48	7
NMSTR	50	288	6
NMSCL	50	288	6	96	48	3
NMTAP	51	0	2
NMTAP	51	0	6
NMSTR	51	96	2
NMSCR	51	96	2	96	48	6
NMHLD	51	96	7	288
NMTAP	51	144	2
NMSTR	51	288	2
NMSCR	51	288	2	96	48	6
NMTAP	51	336	2
NMTAP	52	96	6
NMTAP	52	96	7
NMTAP	52	144	6
NMTAP	52	192	0
NMTAP	52	240	7
NMTAP	52	264	7
NMTAP	52	288	1
NMTAP	52	336	2
NMTAP	53	0	0
NMSTR	53	0	1
NMSI_	53	0	1	96	48	3
NMSTR	53	96	0
NMSI_	53	96	0	96	48	6
NMTAP	53	96	1
NMTAP	53	192	0
NMSTR	53	192	1
NMSI_	53	192	1	96	48	3
NMSTR	53	288	0
NMSF_	53	288	0	96	192	4
NMTAP	53	288	1
NMTAP	54	0	0
NMTTP	54	288	0	C	0	M1
NMTAP	55	0	4
NMSTR	55	0	5
NMSCR	55	0	5	96	384	3
NMTAP	55	192	4
NMTAP	55	288	4
NMSTR	56	0	4
NMSI_	56	0	4	96	192	0
NMTAP	56	192	7
NMTAP	56	288	7
NMTAP	57	0	0
NMSTR	57	0	7
NMSCL	57	0	7	96	384	1
NMTAP	57	192	0
NMTAP	57	288	0
NMSTR	58	0	0
NMSI_	58	0	0	96	192	4
NMTAP	58	192	5
NMTAP	58	288	5
NMTAP	59	0	4
NMSTR	59	0	5
NMSCR	59	0	5	96	384	3
NMTAP	59	192	4
NMTAP	59	288	4
NMSTR	60	0	4
NMSI_	60	0	4	96	96	7
NMTAP	60	192	6
NMTAP	60	288	6
BRHLD	60	288	7	720
NMSTR	61	0	0
NMSI_	61	0	0	96	48	5
NMTAP	61	96	0
NMSTR	61	192	0
NMSI_	61	192	0	96	48	5
NMTAP	61	288	0
NMHLD	62	0	5	240
EXTAP	62	288	0
EXTAP	62	300	1
EXTAP	62	312	2
EXTAP	62	324	3
EXTAP	62	336	4
EXTAP	62	348	5
EXTAP	62	360	6
EXTAP	62	372	7
BXTAP	63	0	0
NMSTR	63	96	6
NMSCL	63	96	6	96	48	2
NMTAP	63	96	7
NMTAP	63	144	7
NMTAP	63	192	6
NMTAP	63	192	7
NMTAP	63	240	7
NMSTR	63	288	6
NMSCL	63	288	6	96	48	2
NMTAP	63	288	7
NMTAP	63	336	7
NMTAP	64	0	6
NMTAP	64	0	7
NMTAP	64	48	7
BRSTR	64	96	7
NMSLL	64	96	7	96	96	3
NMSTR	64	192	3
NMSLL	64	192	3	96	96	7
NMTAP	64	288	7
NMTAP	65	0	3
NMSTR	65	96	6
NMSI_	65	96	6	96	48	3
NMSTR	65	144	7
NMSI_	65	144	7	96	48	2
NMTAP	65	192	6
NMTAP	65	240	7
NMTAP	65	288	6
NMTAP	65	336	7
NMTAP	66	0	0
NMTAP	66	0	1
NMTAP	66	48	2
NMTAP	66	96	3
NMTAP	66	96	4
NMTAP	66	144	5
NMSTR	66	192	1
NMSI_	66	192	1	96	48	4
NMSTR	66	192	5
NMSI_	66	192	5	96	48	0
NMSTR	66	288	1
NMSCL	66	288	1	96	48	6
NMSTR	66	288	5
NMSCL	66	288	5	96	48	2
NMSTR	67	96	2
NMSI_	67	96	2	96	48	7
NMSTR	67	96	3
NMSI_	67	96	3	96	48	6
NMTAP	67	144	1
NMTAP	67	144	4
EXSTR	67	288	6
NMSI_	67	288	6	96	48	3
EXSTR	67	288	7
NMSI_	67	288	7	96	48	2
NMTAP	67	336	0
NMTAP	67	336	5
NMTAP	68	96	0
NMTAP	68	96	1
NMTAP	68	144	2
NMTAP	68	144	3
NMTAP	68	192	2
NMTAP	68	240	4
NMTAP	68	264	4
NMTAP	68	288	3
NMTAP	68	336	5
NMSTR	69	0	4
NMSXR	69	0	4	96	96	4
NMSTR	69	96	4
NMSXL	69	96	4	96	96	4
NMSTR	69	288	3
NMSXL	69	288	3	96	96	3
NMSXR	69	288	3	96	96	3
NMSTR	70	0	3
NMSCL	70	0	3	96	144	5
NMTTP	70	288	0	C	1	M1
NMSTR	71	0	6
NMSCL	71	0	6	96	48	2
NMTAP	71	0	7
NMTAP	71	48	7
NMTAP	71	96	6
NMTAP	71	96	7
NMTAP	71	144	7
NMSTR	71	192	6
NMSCL	71	192	6	96	48	2
NMTAP	71	192	7
NMTAP	71	240	7
NMTAP	71	288	6
NMTAP	71	288	7
NMTAP	71	336	7
BRTAP	72	0	7
BRTAP	72	48	7
BRSTR	72	96	7
NMSLL	72	96	7	96	96	3
NMSTR	72	192	3
NMSLL	72	192	3	96	96	7
NMTAP	72	288	7
NMTAP	73	0	3
NMSTR	73	96	5
BRSCL	73	96	5	96	48	1
NMTAP	73	96	7
NMTAP	73	144	7
NMTAP	73	192	5
NMTAP	73	192	7
CNSCR	73	240	1	0	96	5
NMTAP	73	240	7
NMTAP	73	288	7
NMTAP	73	336	7
BRTAP	74	0	6
BRTAP	74	0	7
BRTAP	74	72	2
BRTAP	74	72	3
BRTAP	74	144	0
BRTAP	74	144	1
BRSTR	74	192	1
BRSI_	74	192	1	96	48	6
BRSTR	74	192	5
BRSI_	74	192	5	96	48	2
BRTAP	74	288	1
BRTAP	74	288	5
NMTAP	75	0	0
NMSTR	75	0	1
BRSCR	75	0	1	96	96	5
NMTAP	75	48	0
NMTAP	75	96	0
NMTAP	75	96	1
NMTAP	75	144	0
NMTAP	75	192	0
CNSCL	75	192	5	0	96	1
NMTAP	75	240	0
NMTAP	75	288	0
NMTAP	75	336	0
NMSTR	76	0	1
NMSLR	76	0	1	96	96	5
NMSTR	76	96	5
NMSLR	76	96	5	96	96	1
NMSTR	76	192	1
NMSCR	76	192	1	96	96	5
NMTAP	76	288	5
NMSTR	77	0	0
NMSI_	77	0	0	96	48	2
NMSI_	77	0	0	96	48	3
NMSTR	77	96	0
NMSI_	77	96	0	96	48	5
NMSI_	77	96	0	96	48	6
NMSTR	77	192	0
NMSI_	77	192	0	96	48	4
NMSTR	77	288	0
NMSF_	77	288	0	96	384	4
NMTAP	78	0	0
NMSTR	80	0	6
NMSCL	80	0	6	96	96	3
BRHLD	80	0	7	2832
NMTAP	80	288	3
NMSTR	81	0	3
NMSCR	81	0	3	96	96	6
NMTAP	81	288	6
NMTAP	82	0	6
NMSTR	82	96	6
NMSI_	82	96	6	96	96	2
NMTAP	83	0	2
NMSTR	83	96	2
NMSI_	83	96	2	96	96	6
NMTAP	84	0	6
NMTAP	84	96	0
NMTAP	84	192	2
NMTAP	84	288	6
NMTAP	85	0	6
NMTAP	85	96	3
NMTAP	85	192	0
NMTAP	85	288	6
NMSTR	86	0	6
NMSCR	86	0	6	96	192	5
NMHLD	87	0	0	144
NMSTR	87	192	0
NMSI_	87	192	0	96	48	3
NMSTR	87	192	7
NMSI_	87	192	7	96	48	4
NMTAP	87	288	0
NMTAP	87	288	7

T_REC_TAP	319
T_REC_BRK	16
T_REC_XTP	33
T_REC_BXX	1
T_REC_HLD	15
T_REC_XHO	0
T_REC_BHO	2
T_REC_BXH	0
T_REC_STR	110
T_REC_BST	8
T_REC_XST	5
T_REC_XBS	0
T_REC_TTP	22
T_REC_THO	0
T_REC_SLD	123
T_REC_BSL	4
T_REC_ALL	658
T_NUM_TAP	489
T_NUM_BRK	31
T_NUM_HLD	15
T_NUM_SLD	123
T_NUM_ALL	658
T_JUDGE_TAP	514
T_JUDGE_HLD	184
T_JUDGE_SLD	127
T_JUDGE_ALL	825
TTM_EACHPAIRS	135
TTM_SCR_TAP	244500
TTM_SCR_BRK	80600
TTM_SCR_HLD	15000
TTM_SCR_SLD	184500
TTM_SCR_ALL	524600
TTM_SCR_S	505900
TTM_SCR_SS	521500
TTM_RAT_ACV	10059

