VERSION	0.00.00	1.04.00
FES_MODE	0
BPM_DEF	145.000	145.000	145.000	145.000
MET_DEF	4	4
RESOLUTION	384
CLK_DEF	384
COMPATIBLE_CODE	MA2

BPM	0	0	145.000
MET	0	0	4	4

NMHLD	1	0	3	288
NMHLD	1	0	6	288
NMHLD	2	0	1	288
NMHLD	2	0	4	288
NMTTP	3	0	5	E	0	M1
NMTTP	3	96	5	B	0	M1
NMTTP	3	192	6	B	0	M1
NMTTP	4	0	3	E	0	M1
NMTTP	4	96	2	B	0	M1
NMTTP	4	192	1	B	0	M1
NMTTP	5	0	5	E	0	M1
NMTTP	5	96	5	B	0	M1
NMTTP	5	192	6	B	0	M1
NMTTP	5	288	7	B	0	M1
NMTTP	6	0	0	B	0	M1
NMTTP	6	96	1	B	0	M1
NMTTP	6	192	2	B	0	M1
NMTTP	6	192	3	E	0	M1
NMTTP	7	0	1	E	0	M1
NMTTP	7	96	1	B	0	M1
NMTTP	7	192	2	B	0	M1
NMTTP	8	0	7	E	0	M1
NMTTP	8	96	6	B	0	M1
NMTTP	8	192	5	B	0	M1
NMTHO	9	0	0	288	C	0	M1
NMTTP	9	0	3	B	0	M1
NMTTP	9	0	4	B	0	M1
EXSTR	10	0	0
NMSCR	10	0	0	96	96	3
EXSTR	10	0	7
NMSCL	10	0	7	96	96	4
NMTTP	10	288	4	E	0	M1
NMHLD	11	0	6	96
NMTAP	11	96	4
NMTAP	11	144	4
NMTAP	11	192	7
NMTAP	11	240	7
NMTAP	11	288	0
NMTAP	11	288	6
NMHLD	12	0	1	96
NMTAP	12	96	3
NMTAP	12	144	3
NMTAP	12	192	0
NMTAP	12	240	0
NMTAP	12	288	1
NMTAP	12	288	7
NMHLD	13	0	6	96
NMTAP	13	96	4
NMTAP	13	144	4
NMTAP	13	192	5
NMTAP	13	240	5
NMTAP	13	288	3
NMTTP	14	0	2	E	0	M1
NMTTP	14	96	0	C	0	M1
NMTTP	14	192	6	E	0	M1
NMTTP	14	288	0	A	0	M1
NMTTP	14	288	0	D	0	M1
NMTTP	14	288	7	A	0	M1
NMTAP	15	0	1
NMTAP	15	48	1
NMTAP	15	96	3
NMTAP	15	144	3
NMTAP	15	192	2
NMTAP	15	288	3
NMTAP	15	288	4
NMTAP	16	0	5
NMTAP	16	48	5
NMTAP	16	96	4
NMTAP	16	144	4
NMTAP	16	192	6
NMTAP	16	288	3
NMTAP	16	288	5
EXTAP	17	0	2
EXTAP	17	48	2
EXTAP	17	96	1
EXTAP	17	96	3
NMTAP	17	192	5
NMTAP	17	240	5
NMTAP	17	288	4
NMTAP	17	288	5
EXHLD	18	0	6	96
EXHLD	18	96	4	96
EXHLD	18	192	3	96
EXTAP	18	288	1
NMTAP	19	0	2
NMTAP	19	48	2
NMTAP	19	96	3
NMTAP	19	144	3
NMSTR	19	192	0
NMSI_	19	192	0	96	48	4
NMTAP	20	0	6
NMTAP	20	48	6
NMTAP	20	96	4
NMTAP	20	144	4
NMSTR	20	192	5
NMSI_	20	192	5	96	48	2
NMHLD	21	0	1	96
NMTAP	21	96	3
NMTAP	21	144	3
NMTAP	21	192	2
NMTAP	21	288	1
NMTAP	21	288	4
NMSTR	22	0	2
NMSUR	22	0	2	96	192	4
NMTTP	22	288	6	E	0	M1
NMTAP	23	0	6
NMTAP	23	48	6
NMTAP	23	96	0
NMTAP	23	144	0
NMTAP	23	192	5
NMTAP	23	288	2
NMTAP	23	288	4
NMTAP	24	0	1
NMTAP	24	48	1
NMTAP	24	96	7
NMTAP	24	144	7
EXTAP	24	192	0
NMTAP	24	288	1
NMTAP	24	288	3
NMSTR	25	0	4
NMSCR	25	0	4	96	48	7
NMSTR	25	192	0
NMSCR	25	192	0	96	48	3
NMTAP	26	0	6
NMSTR	26	96	3
NMSV_	26	96	3	96	96	0
NMSTR	26	96	5
NMSV_	26	96	5	96	96	0
NMTAP	27	0	1
NMTAP	27	48	1
NMTAP	27	96	3
NMSTR	27	192	0
NMSI_	27	192	0	96	48	4
NMSTR	27	192	1
NMSI_	27	192	1	96	48	5
NMTAP	28	0	6
NMTAP	28	48	6
NMTAP	28	96	4
NMSTR	28	192	6
BRSI_	28	192	6	96	48	4
NMSTR	28	192	7
BRSI_	28	192	7	96	48	3
NMHLD	29	0	1	96
NMTAP	29	96	3
NMTAP	29	144	3
NMTAP	29	192	2
NMTAP	29	288	1
NMTAP	29	288	4
NMSTR	30	0	2
NMSUR	30	0	2	96	192	4
NMTTP	30	288	6	E	0	M1
NMHLD	31	0	6	96
NMHLD	31	96	4	96
NMHLD	31	192	3	96
NMHLD	31	288	1	96
NMTAP	32	0	7
NMSTR	32	96	0
NMSI_	32	96	0	96	96	4
NMSTR	32	96	6
NMSI_	32	96	6	96	96	2
NMHLD	33	0	1	96
NMHLD	33	96	3	96
NMHLD	33	192	4	96
NMHLD	33	288	6	96
NMTAP	34	0	0
NMSTR	34	96	1
NMSI_	34	96	1	96	96	5
NMSTR	34	96	7
NMSI_	34	96	7	96	96	3
NMHLD	35	0	6	288
NMTAP	35	96	4
NMTAP	35	192	4
EXTAP	35	288	7
NMHLD	36	0	1	288
NMTAP	36	96	0
NMTAP	36	192	0
EXTAP	36	288	3
NMSTR	37	0	4
NMSI_	37	0	4	96	48	7
NMSTR	37	192	0
NMSI_	37	192	0	96	48	3
NMHLD	38	0	4	288
NMTTP	38	288	4	E	0	M1
BRTAP	39	0	2
BRTAP	39	0	6
EXSTR	39	96	1
NMSCR	39	96	1	96	96	4
EXSTR	39	96	5
NMSCR	39	96	5	96	96	0
EXSTR	40	0	2
NMSCR	40	0	2	96	96	5
EXSTR	40	0	6
NMSCR	40	0	6	96	96	1
NMTAP	40	288	3
NMTAP	40	288	7
NMTAP	41	0	4
NMTAP	41	0	6
NMTAP	41	96	1
NMTAP	41	144	1
NMTAP	41	192	0
NMTAP	41	192	2
NMTAP	41	288	6
NMTAP	41	336	6
NMTAP	42	0	5
NMTAP	42	0	7
NMTAP	42	96	2
NMTAP	42	144	2
NMTAP	42	192	1
NMTAP	42	192	3
NMTAP	42	288	4
NMTAP	42	288	6
NMTAP	43	0	1
NMTAP	43	0	3
NMSTR	43	96	3
NMSI_	43	96	3	96	48	1
NMSTR	43	96	5
NMSI_	43	96	5	96	48	7
NMSTR	43	288	2
NMSI_	43	288	2	96	48	0
NMSTR	43	288	4
NMSI_	43	288	4	96	48	6
NMTAP	44	96	3
NMTAP	44	96	5
NMTAP	44	192	2
NMTAP	44	240	2
NMTAP	44	288	1
NMTAP	44	288	3
NMTAP	45	0	0
NMTAP	45	0	1
NMSTR	45	96	0
NMSCL	45	96	0	96	48	5
NMSTR	45	96	1
NMSCR	45	96	1	96	48	4
NMSTR	45	288	6
NMSCL	45	288	6	96	48	3
NMSTR	45	288	7
NMSCR	45	288	7	96	48	2
NMSTR	46	96	0
NMSUR	46	96	0	96	96	7
NMTAP	46	96	1
NMTAP	47	0	1
NMTAP	47	0	5
EXSTR	47	96	2
NMSCL	47	96	2	96	96	7
EXSTR	47	96	6
NMSCL	47	96	6	96	96	3
EXSTR	48	0	1
NMSCL	48	0	1	96	96	6
EXSTR	48	0	5
NMSCL	48	0	5	96	96	2
NMTAP	48	288	0
NMTAP	48	288	4
NMTAP	49	0	1
NMTAP	49	0	3
NMTAP	49	96	6
NMTAP	49	144	6
NMTAP	49	192	5
NMTAP	49	192	7
NMTAP	49	288	2
NMTAP	50	0	0
NMTAP	50	0	1
NMTAP	50	96	6
NMTAP	50	96	7
NMTAP	50	192	4
NMTAP	50	192	5
NMTAP	50	288	2
NMTAP	50	288	3
BRTAP	51	0	1
BRTAP	51	0	4
NMSTR	51	96	2
NMSI_	51	96	2	96	48	0
NMSTR	51	96	4
NMSI_	51	96	4	96	48	6
NMSTR	51	288	3
NMSI_	51	288	3	96	48	1
NMSTR	51	288	5
NMSI_	51	288	5	96	48	7
NMTAP	52	96	2
NMTAP	52	96	4
NMTAP	52	192	0
NMTAP	52	192	1
NMSTR	52	288	0
NMSI_	52	288	0	96	48	4
NMSTR	52	288	1
NMSI_	52	288	1	96	48	4
NMSTR	53	96	6
NMSI_	53	96	6	96	48	3
NMSTR	53	96	7
NMSI_	53	96	7	96	48	3
NMTAP	53	288	0
NMSTR	53	288	1
NMSCR	53	288	1	96	144	5
NMTTP	54	0	0	C	1	M1
NMTTP	54	288	4	E	0	M1
NMHLD	55	0	6	384
NMTAP	55	192	4
NMTAP	55	288	3
NMHLD	56	0	2	384
NMTAP	56	192	0
NMTAP	56	288	7
NMHLD	57	0	6	384
NMTAP	57	192	4
NMTAP	57	288	3
NMTAP	58	0	2
NMTAP	58	96	1
NMTAP	58	96	5
NMTAP	58	192	0
NMSTR	58	192	4
NMSI_	58	192	4	96	96	7
NMHLD	59	0	1	384
NMTAP	59	192	3
NMTAP	59	288	4
NMHLD	60	0	5	288
NMTAP	60	192	7
NMTAP	60	288	0
NMTAP	60	336	0
NMTAP	61	48	1
NMTAP	61	48	4
NMTAP	61	144	2
NMTAP	61	144	3
NMTAP	61	240	0
NMTAP	61	240	1
NMSTR	61	288	0
NMSI_	61	288	0	96	48	4
NMSTR	61	288	1
NMSI_	61	288	1	96	48	5
BRTAP	62	288	7
NMSTR	63	0	2
NMSCR	63	0	2	96	48	4
NMSTR	63	96	6
NMSCR	63	96	6	96	48	0
NMSTR	63	192	2
NMSCR	63	192	2	96	48	4
NMSTR	63	288	6
NMSCR	63	288	6	96	48	0
NMSTR	64	0	2
NMSCR	64	0	2	96	48	4
NMSTR	64	96	6
NMSCR	64	96	6	96	48	0
NMTAP	64	192	2
NMTAP	64	288	2
NMTAP	65	0	0
NMTAP	65	0	1
NMTAP	65	96	6
NMTAP	65	144	6
NMTAP	65	192	5
NMTAP	65	192	7
NMTAP	65	288	1
NMTAP	65	336	1
NMTAP	66	0	0
NMTAP	66	0	2
NMTAP	66	96	5
NMTAP	66	144	5
NMTAP	66	192	4
NMTAP	66	192	6
BRTAP	66	288	1
BRTAP	66	288	7
BRTAP	67	0	0
BRTAP	67	0	6
NMSTR	67	96	2
NMSI_	67	96	2	96	48	0
NMSTR	67	96	4
NMSI_	67	96	4	96	48	6
NMSTR	67	288	3
NMSI_	67	288	3	96	48	1
NMSTR	67	288	5
NMSI_	67	288	5	96	48	7
NMTAP	68	96	2
NMTAP	68	96	4
NMTAP	68	192	5
NMTAP	68	240	5
NMTAP	68	288	4
NMTAP	68	288	6
NMTAP	69	0	6
NMTAP	69	0	7
NMSTR	69	96	6
NMSCL	69	96	6	96	48	3
NMSTR	69	96	7
NMSCR	69	96	7	96	48	2
NMSTR	69	288	0
NMSCL	69	288	0	96	48	5
NMSTR	69	288	1
NMSCR	69	288	1	96	48	4
NMTAP	70	96	6
NMSTR	70	96	7
BRSUL	70	96	7	96	96	0
NMTAP	71	0	2
NMTAP	71	0	6
EXSTR	71	96	1
NMSCR	71	96	1	96	48	3
EXSTR	71	96	5
NMSCR	71	96	5	96	48	7
EXSTR	71	288	1
NMSCR	71	288	1	96	48	3
EXSTR	71	288	5
NMSCR	71	288	5	96	48	7
EXTAP	72	96	1
EXTAP	72	96	5
NMTAP	72	192	2
NMTAP	72	240	2
NMTAP	72	288	4
NMTAP	73	0	3
NMTAP	73	0	5
EXSTR	73	96	2
NMSCL	73	96	2	96	48	0
EXSTR	73	96	6
NMSCL	73	96	6	96	48	4
EXTAP	73	288	2
EXTAP	73	288	6
NMTAP	74	0	1
NMTAP	74	0	3
NMTAP	74	72	3
NMTAP	74	72	4
NMTAP	74	144	4
NMTAP	74	144	6
NMTAP	74	192	4
NMTAP	74	192	6
NMTAP	74	288	0
NMTAP	74	288	7
BRTAP	75	0	2
BRTAP	75	0	4
EXSTR	75	96	1
NMSCR	75	96	1	96	48	3
EXSTR	75	96	5
NMSCR	75	96	5	96	48	7
EXSTR	75	288	1
NMSCR	75	288	1	96	48	3
EXSTR	75	288	5
NMSCR	75	288	5	96	48	7
EXTAP	76	96	1
EXTAP	76	96	5
NMTAP	76	192	0
NMTAP	76	240	0
NMSTR	76	288	7
NMSI_	76	288	7	96	48	3
NMSTR	77	96	2
NMSI_	77	96	2	96	48	0
NMSTR	77	96	4
NMSI_	77	96	4	96	48	6
NMHLD	77	288	3	768
NMSTR	77	288	5
NMSCL	77	288	5	96	192	7
CNSUL	78	192	7	0	192	6
NMHLD	80	0	4	96
NMHLD	80	96	5	96
NMHLD	80	192	6	96
NMHLD	81	0	3	96
NMHLD	81	96	2	96
NMHLD	81	192	1	96
NMHLD	82	0	4	96
NMHLD	82	96	5	96
NMHLD	82	192	6	96
NMHLD	82	288	7	96
NMHLD	83	0	0	96
NMHLD	83	96	1	192
NMHLD	83	192	3	96
NMHLD	84	0	0	96
NMHLD	84	96	1	96
NMHLD	84	192	2	96
NMHLD	85	0	7	96
NMHLD	85	96	6	96
NMHLD	85	192	5	96
NMHLD	86	0	3	288
NMHLD	86	0	4	288
NMTAP	87	0	2
NMTAP	87	0	5
NMTAP	87	72	1
NMTAP	87	72	6
NMTAP	87	144	0
NMTAP	87	144	7
NMSTR	87	192	0
NMSI_	87	192	0	96	48	4
NMSTR	87	192	7
NMSI_	87	192	7	96	48	3

T_REC_TAP	203
T_REC_BRK	11
T_REC_XTP	14
T_REC_BXX	0
T_REC_HLD	47
T_REC_XHO	3
T_REC_BHO	0
T_REC_BXH	0
T_REC_STR	60
T_REC_BST	0
T_REC_XST	20
T_REC_XBS	0
T_REC_TTP	34
T_REC_THO	1
T_REC_SLD	77
T_REC_BSL	3
T_REC_ALL	473
T_NUM_TAP	331
T_NUM_BRK	14
T_NUM_HLD	51
T_NUM_SLD	77
T_NUM_ALL	473
T_JUDGE_TAP	342
T_JUDGE_HLD	186
T_JUDGE_SLD	80
T_JUDGE_ALL	608
TTM_EACHPAIRS	97
TTM_SCR_TAP	165500
TTM_SCR_BRK	36400
TTM_SCR_HLD	51000
TTM_SCR_SLD	115500
TTM_SCR_ALL	368400
TTM_SCR_S	356000
TTM_SCR_SS	367000
TTM_RAT_ACV	10038

