VERSION	0.00.00	1.04.00
FES_MODE	0
BPM_DEF	150.000	150.000	150.000	150.000
MET_DEF	4	4
RESOLUTION	384
CLK_DEF	384
COMPATIBLE_CODE	MA2

BPM	0	0	150.000
MET	0	0	4	4

NMTTP	1	192	0	C	0	M1
NMTTP	2	0	7	A	0	M1
NMTTP	2	96	0	A	0	M1
NMSTR	2	288	2
NMSCR	2	288	2	96	48	5
NMSTR	2	288	6
NMSUL	2	288	6	96	48	1
NMTTP	3	0	2	B	0	M1
NMTTP	3	0	2	A	0	M1
NMTTP	3	0	2	D	0	M1
NMTTP	3	0	3	B	0	M1
NMTTP	3	0	3	E	0	M1
NMTTP	3	0	3	A	0	M1
NMTTP	3	0	3	D	0	M1
NMTTP	3	0	4	B	0	M1
NMTTP	3	0	4	E	0	M1
NMTTP	3	0	4	A	0	M1
NMTTP	3	0	4	D	0	M1
NMTTP	3	0	5	B	0	M1
NMTTP	3	0	5	E	0	M1
NMTTP	3	0	5	A	0	M1
NMTTP	3	0	5	D	0	M1
NMTTP	3	0	6	D	0	M1
BXHLD	3	96	0	48
BXTAP	3	96	7
NMSTR	3	192	6
BRSCL	3	192	6	96	24	5
NMTAP	3	240	7
NMTAP	3	264	7
CNSI_	3	312	5	0	24	2
BRSTR	4	0	0
NMSI_	4	0	0	96	48	3
BRTAP	4	0	1
BRTAP	4	96	0
BRSTR	4	96	7
NMSI_	4	96	7	96	48	4
BRSTR	4	192	6
BRSI_	4	192	6	96	48	2
BRTAP	4	192	7
NMTTP	4	288	1	E	0	M1
CNSI_	4	336	2	0	24	5
BRTAP	5	0	0
NMTAP	5	48	5
NMTAP	5	72	3
NMTAP	5	96	4
NMTAP	5	144	4
NMTAP	5	192	2
NMTAP	5	192	4
NMTAP	5	240	4
NMTAP	5	288	4
NMTAP	5	288	5
EXTAP	5	336	4
NMTAP	6	0	4
NMTAP	6	0	7
NMTAP	6	48	4
NMTAP	6	96	1
NMTAP	6	96	4
NMTAP	6	144	4
NMTAP	6	192	4
NMTAP	6	192	7
NMTAP	6	240	4
NMTAP	6	288	1
NMTAP	6	288	4
EXTAP	6	336	4
NMTAP	7	0	3
NMTAP	7	0	5
NMTAP	7	48	6
NMTAP	7	72	0
NMTAP	7	96	7
NMTAP	7	144	7
NMTAP	7	192	1
NMTAP	7	192	7
NMTAP	7	240	7
NMTAP	7	288	4
NMTAP	7	288	7
NMTAP	7	336	7
NMTAP	8	0	3
NMTAP	8	0	7
NMTAP	8	48	7
NMTAP	8	96	4
NMTAP	8	96	7
NMTAP	8	144	7
NMSTR	8	192	3
BRSXL	8	192	3	96	48	4
NMSTR	8	192	6
BRSXL	8	192	6	96	48	0
NMTAP	8	240	2
NMTAP	8	240	5
BXTAP	9	0	7
NMTAP	9	48	2
NMTAP	9	72	4
NMTAP	9	96	3
NMTAP	9	144	3
NMTAP	9	192	3
NMTAP	9	192	5
NMTAP	9	240	3
NMTAP	9	288	2
NMTAP	9	288	3
EXTAP	9	336	3
NMTAP	10	0	0
NMTAP	10	0	3
NMTAP	10	48	3
NMTAP	10	96	3
NMTAP	10	96	6
NMTAP	10	144	3
NMTAP	10	192	0
NMTAP	10	192	3
NMTAP	10	240	3
NMTAP	10	288	3
NMTAP	10	288	6
EXTAP	10	336	3
NMTAP	11	0	2
NMTAP	11	0	4
NMTAP	11	48	1
NMTAP	11	72	7
NMTAP	11	96	0
NMTAP	11	144	0
NMTAP	11	192	0
NMTAP	11	192	6
NMTAP	11	240	0
NMTAP	11	288	0
NMTAP	11	288	3
NMTAP	11	336	0
NMHLD	12	0	0	48
NMHLD	12	0	4	48
NMHLD	12	96	2	48
NMHLD	12	96	7	48
NMSTR	12	192	3
BRSV_	12	192	3	96	48	4
NMSTR	12	192	6
BRSV_	12	192	6	96	48	7
NMTAP	12	240	2
NMTAP	12	240	5
NMTAP	13	0	6
NMTAP	13	16	5
NMTAP	13	32	6
NMTAP	13	48	5
NMTAP	13	64	6
NMTAP	13	80	5
NMTAP	13	96	6
NMTAP	13	192	1
NMTAP	13	208	2
NMTAP	13	224	1
NMTAP	13	240	2
NMTAP	13	256	1
NMTAP	13	272	2
NMTAP	13	288	1
NMTAP	14	0	6
NMTAP	14	16	5
NMTAP	14	32	6
NMTAP	14	48	5
NMTAP	14	64	6
NMTAP	14	80	5
NMTAP	14	96	6
NMTAP	14	192	1
NMTAP	14	208	2
NMTAP	14	224	1
NMTAP	14	240	2
NMTAP	14	256	1
NMTAP	14	272	2
NMTAP	14	288	1
NMTAP	15	0	5
NMSTR	15	96	7
NMSXL	15	96	7	96	96	1
NMSXR	15	96	7	96	96	5
NMTHO	16	0	0	96	C	0	M1
EXSTR	16	192	1
NMSV_	16	192	1	96	48	4
EXSTR	16	192	6
NMSI_	16	192	6	96	48	1
EXTAP	16	240	0
EXTAP	16	240	7
NMTTP	16	288	6	A	1	M1
BRTAP	17	0	2
BRTAP	17	0	7
BRTAP	17	96	0
BRSTR	17	96	5
NMSXL	17	96	5	96	192	2
NMTAP	17	192	1
NMTAP	17	240	1
NMTAP	17	288	1
NMHLD	18	0	0	96
NMHLD	18	96	3	96
NMHLD	18	192	4	96
NMSTR	18	288	7
BRSCR	18	288	7	96	48	2
BRSV_	18	288	7	96	48	4
NMSTR	19	0	7
NMSCL	19	0	7	96	48	5
NMSTR	19	96	3
NMSXL	19	96	3	96	96	3
NMSTR	19	192	3
NMSI_	19	192	3	96	48	0
NMSI_	19	192	3	96	48	7
NMTTP	20	0	4	B	0	M1
NMTTP	20	0	4	A	0	M1
NMTTP	20	0	5	B	0	M1
NMTTP	20	0	5	E	0	M1
NMTTP	20	0	5	A	0	M1
NMTTP	20	0	5	D	1	M1
NMTTP	20	96	0	B	0	M1
NMTTP	20	96	0	A	0	M1
NMTTP	20	96	1	B	0	M1
NMTTP	20	96	1	E	0	M1
NMTTP	20	96	1	A	0	M1
NMTTP	20	96	1	D	1	M1
NMTTP	20	192	6	B	0	M1
NMTTP	20	192	6	A	0	M1
NMTTP	20	192	7	B	0	M1
NMTTP	20	192	7	E	0	M1
NMTTP	20	192	7	A	0	M1
NMTTP	20	192	7	D	1	M1
NMTTP	20	288	0	C	1	M1
NMTTP	20	288	2	B	0	M1
NMTTP	20	288	3	B	0	M1
NMTTP	20	288	4	B	0	M1
NMTTP	20	288	5	B	0	M1
NMTAP	21	0	0
NMTAP	21	96	6
NMTAP	21	192	4
NMTTP	21	288	1	B	0	M1
NMTTP	21	288	1	E	0	M1
NMTTP	21	288	2	B	0	M1
NMTTP	21	288	2	E	1	M1
NMTTP	21	288	3	E	0	M1
NMHLD	22	0	7	144
NMSTR	22	192	0
NMSI_	22	192	0	96	48	2
NMSTR	22	192	6
NMSI_	22	192	6	96	48	4
BRTAP	22	240	1
BRTAP	22	240	7
BRTAP	22	288	0
BRTAP	22	288	6
NMSTR	23	0	1
NMSV_	23	0	1	96	48	3
NMSTR	23	0	7
NMSI_	23	0	7	96	24	1
CNSI_	23	120	1	0	24	5
NMSTR	23	192	0
NMSV_	23	192	0	96	48	2
NMSTR	23	192	6
NMSI_	23	192	6	96	24	0
CNSI_	23	312	0	0	24	4
NMTAP	24	0	7
NMTAP	24	48	7
NMTAP	24	96	5
NMTAP	24	144	0
NMTAP	24	192	2
NMTTP	24	240	5	A	0	M1
NMTTP	24	256	4	A	0	M1
NMTTP	24	272	3	A	0	M1
NMTTP	24	288	2	A	0	M1
NMTAP	25	0	1
NMTAP	25	48	0
NMTAP	25	48	3
NMTAP	25	96	1
NMTAP	25	144	0
NMTAP	25	144	2
NMSTR	25	192	1
NMSI_	25	192	1	96	48	4
NMTAP	25	240	0
NMTAP	25	240	3
NMTAP	26	0	3
NMTAP	26	0	6
NMTAP	26	48	7
NMTAP	26	72	7
NMTAP	26	96	4
NMTAP	26	120	4
NMTAP	26	144	6
NMSTR	26	192	5
NMSI_	26	192	5	96	48	2
NMTAP	26	240	3
NMTAP	26	240	7
EXTAP	27	0	1
EXTAP	27	24	0
EXTAP	27	48	7
EXTAP	27	72	6
EXTAP	27	96	5
EXTAP	27	120	6
EXTAP	27	144	7
EXTAP	27	168	0
EXTAP	27	192	1
EXTAP	27	216	0
EXTAP	27	240	7
EXTAP	27	264	6
EXTAP	27	288	5
EXTAP	27	312	6
EXTAP	27	336	7
EXTAP	27	360	0
NMTTP	28	0	0	C	1	M1
EXTAP	28	0	1
NMSTR	28	192	1
NMSCR	28	192	1	96	48	3
NMSTR	28	192	6
NMSCL	28	192	6	96	48	4
NMTAP	28	240	0
NMTAP	28	240	7
EXTAP	28	288	1
NMTTP	28	288	6	A	1	M1
NMSTR	29	0	1
NMSI_	29	0	1	96	48	5
NMHLD	29	48	0	240
NMTAP	29	48	3
CNSI_	29	144	5	0	48	2
CNSI_	29	192	2	0	48	4
NMTAP	29	288	5
NMTAP	29	336	5
NMSTR	30	0	6
NMSI_	30	0	6	96	48	4
NMTAP	30	48	4
NMHLD	30	48	7	240
CNSI_	30	144	4	0	48	7
CNSI_	30	192	7	0	48	3
NMTTP	30	288	2	B	0	M1
NMSTR	31	0	0
NMSCR	31	0	0	96	48	3
NMSTR	31	0	6
NMSCL	31	0	6	96	48	3
NMTAP	31	48	7
NMTAP	31	72	7
NMSTR	31	192	1
NMSCR	31	192	1	96	48	3
NMSTR	31	192	5
NMSCL	31	192	5	96	48	3
NMTTP	31	240	0	C	0	M1
NMTAP	31	240	7
NMSTR	32	0	6
NMSCR	32	0	6	96	48	1
NMTAP	32	48	0
NMSTR	32	96	3
NMSI_	32	96	3	96	48	0
NMTAP	32	96	6
BRTAP	32	192	3
NMSTR	32	192	4
NMSI_	32	192	4	96	48	7
BRTAP	32	288	4
NMTTP	33	0	0	A	0	M1
NMTTP	33	0	1	B	0	M1
NMTTP	33	0	1	E	0	M1
NMTTP	33	0	1	A	0	M1
NMTTP	33	0	1	D	0	M1
NMTTP	33	0	2	B	0	M1
NMTTP	33	0	2	E	0	M1
NMTTP	33	0	2	A	0	M1
NMTTP	33	0	2	D	1	M1
NMTTP	33	0	3	E	0	M1
NMTTP	33	0	3	A	0	M1
NMTTP	33	0	3	D	0	M1
NMSTR	33	96	5
NMSI_	33	96	5	96	48	2
NMTAP	33	144	5
NMSTR	33	192	0
NMSCR	33	192	0	96	48	3
NMTAP	33	240	0
NMSTR	33	288	4
NMSCR	33	288	4	96	48	7
NMTAP	33	336	4
NMSTR	34	0	1
NMSUR	34	0	1	96	48	5
NMTAP	34	48	1
NMSTR	34	96	6
NMSLR	34	96	6	96	96	5
NMTAP	34	144	6
NMHLD	34	192	0	192
CNSI_	34	288	5	0	48	2
NMTAP	35	0	1
NMSTR	35	48	0
NMSUR	35	48	0	96	48	5
NMSTR	35	48	2
NMSI_	35	48	2	96	48	5
NMTAP	35	96	3
NMTAP	35	96	7
NMSTR	35	144	0
NMSLL	35	144	0	96	48	4
NMTAP	35	336	3
NMTAP	36	48	1
NMTAP	36	48	5
NMSTR	36	96	1
NMSCL	36	96	1	96	48	6
NMSTR	36	96	5
NMSCL	36	96	5	96	48	2
BRTAP	36	192	1
BRTAP	36	192	5
NMSTR	36	288	0
NMSI_	36	288	0	96	48	3
NMSTR	36	288	4
NMSV_	36	288	4	96	48	7
NMTAP	37	0	0
NMTAP	37	0	4
NMHLD	37	96	2	48
NMHLD	37	96	6	48
NMTAP	37	192	0
NMTAP	37	192	7
NMTAP	37	240	1
NMTAP	37	264	1
NMTAP	37	288	3
NMTAP	37	336	2
NMTAP	37	336	4
NMTAP	38	0	2
NMTAP	38	0	4
NMTAP	38	48	1
NMTAP	38	48	5
NMHLD	38	96	1	48
NMHLD	38	96	5	48
NMTAP	38	192	0
NMTAP	38	192	6
NMTAP	38	240	5
NMTAP	38	264	5
NMTAP	38	288	3
NMTAP	38	336	2
NMTAP	39	0	1
NMTAP	39	24	5
NMTAP	39	48	3
NMTAP	39	72	4
NMTAP	39	96	2
NMTAP	39	120	3
NMTAP	39	144	2
NMTAP	39	168	5
NMSTR	39	192	3
NMSI_	39	192	3	96	48	1
NMSI_	39	192	3	96	48	5
NMTAP	39	216	6
NMTAP	39	240	0
NMTTP	40	0	0	B	0	M1
NMTTP	40	0	0	E	0	M1
NMTTP	40	0	0	A	0	M1
NMTTP	40	0	0	D	0	M1
NMTTP	40	0	6	B	0	M1
NMTTP	40	0	6	A	0	M1
NMTTP	40	0	7	B	0	M1
NMTTP	40	0	7	E	0	M1
NMTTP	40	0	7	A	1	M1
NMTTP	40	0	7	D	0	M1
NMTTP	40	96	1	B	0	M1
NMTTP	40	96	1	A	0	M1
NMTTP	40	96	2	B	0	M1
NMTTP	40	96	2	E	0	M1
NMTTP	40	96	2	A	0	M1
NMTTP	40	96	2	D	1	M1
NMTTP	40	96	5	B	0	M1
NMTTP	40	96	5	E	0	M1
NMTTP	40	96	5	A	0	M1
NMTTP	40	96	5	D	0	M1
NMTTP	40	96	6	E	0	M1
NMTTP	40	96	6	D	0	M1
NMSTR	40	192	3
BRSI_	40	192	3	96	48	1
NMSTR	40	192	4
BRSI_	40	192	4	96	48	6
NMTTP	40	288	3	E	0	M1
NMTTP	40	288	3	A	0	M1
NMTTP	40	288	4	A	0	M1
NMTTP	40	288	4	D	1	M1
NMTTP	40	288	5	E	0	M1
BRHLD	41	0	0	240
BRTAP	41	0	7
NMTAP	41	240	3
NMTAP	41	336	6
NMTAP	42	0	4
NMHLD	42	96	7	96
NMTAP	42	192	4
NMSTR	42	288	3
NMSV_	42	288	3	96	96	6
CNSCL	43	96	6	0	48	5
CNSI_	43	144	5	0	24	3
CNSXR	43	168	3	0	48	1
CNSI_	43	216	1	0	72	3
CNSCR	43	288	3	0	48	4
NMSTR	44	0	7
NMSV_	44	0	7	96	48	2
NMSV_	44	0	7	96	48	4
NMTAP	44	192	1
NMTAP	44	192	5
EXTAP	44	240	6
EXTAP	44	264	0
EXTAP	44	288	3
NMHLD	45	0	4	1056
NMTHO	45	96	0	768	C	1	M1
NMTTP	46	0	0	B	0	M1
NMTTP	47	0	7	B	0	M1
EXSTR	47	192	0
NMSCR	47	192	0	96	96	3
NMTAP	48	0	5
NMTAP	48	96	6
NMSTR	48	192	4
BRSV_	48	192	4	96	48	1
NMSTR	48	192	6
BRSI_	48	192	6	96	48	1
NMTTP	48	288	4	A	1	M1
EXSTR	49	0	1
NMSI_	49	0	1	96	672	6
EXSTR	49	0	2
NMSI_	49	0	2	96	384	5
NMTAP	50	288	3
NMTAP	50	360	2
NMSTR	51	0	2
NMSI_	51	0	2	96	192	5
NMSTR	51	192	1
NMSI_	51	192	1	96	288	6
NMTAP	52	0	3
NMTAP	52	168	4
NMTAP	52	192	4
NMTAP	52	288	3
NMTAP	52	288	5
NMHLD	53	0	2	96
NMHLD	53	0	7	96
EXTAP	53	108	3
EXTAP	53	108	6
EXTAP	53	120	4
EXTAP	53	120	5
NMHLD	53	192	0	96
NMHLD	53	192	5	96
EXTAP	53	300	1
EXTAP	53	300	4
EXTAP	53	312	2
EXTAP	53	312	3
BRHLD	54	0	1	96
BRHLD	54	0	7	96
BXTAP	54	108	2
BXTAP	54	108	6
BXTAP	54	120	3
BXTAP	54	120	5
BXTAP	54	132	4
BRHLD	54	192	0	96
BRHLD	54	192	6	96
BXTAP	54	300	1
BXTAP	54	300	5
BXTAP	54	312	2
BXTAP	54	312	4
BXTAP	54	324	3
EXTAP	55	0	2
EXTAP	55	24	3
EXTAP	55	48	4
EXTAP	55	72	5
EXTAP	55	96	6
EXTAP	55	120	5
EXTAP	55	144	4
EXTAP	55	168	3
EXTAP	55	192	2
EXTAP	55	216	3
EXTAP	55	240	4
EXTAP	55	264	5
EXTAP	55	288	6
EXTAP	55	312	5
EXTAP	55	336	4
EXTAP	55	360	3
EXHLD	56	0	2	288
NMTTP	56	192	1	B	0	M1
NMSTR	57	0	7
NMSI_	57	0	7	96	192	3
BRTAP	58	0	1
NMTTP	58	0	5	B	1	M1
NMTTP	58	48	3	B	1	M1
BRTAP	58	48	7
BRTAP	58	96	0
NMTTP	58	96	4	B	1	M1
NMTTP	58	144	2	B	1	M1
BRTAP	58	144	6
BRSTR	58	192	1
NMSUR	58	192	1	96	48	5
BRTAP	58	192	5
BRTAP	58	240	0
BRTAP	58	240	6
NMTTP	58	288	0	E	0	M1
NMSTR	59	0	0
NMSI_	59	0	0	96	48	3
NMSTR	59	0	6
NMSI_	59	0	6	96	48	3
NMTAP	59	48	7
NMTAP	59	72	7
NMSTR	59	192	1
NMSI_	59	192	1	96	48	3
NMSTR	59	192	5
NMSI_	59	192	5	96	48	3
NMTTP	59	240	0	E	0	M1
NMTAP	59	240	6
NMSTR	60	0	2
NMSV_	60	0	2	96	48	7
NMSTR	60	0	3
NMSI_	60	0	3	96	48	6
NMTAP	60	48	1
NMTAP	60	48	4
NMSTR	60	96	2
NMSI_	60	96	2	96	48	0
BRTAP	60	192	2
NMSTR	60	192	4
NMSI_	60	192	4	96	48	7
BRTAP	60	240	5
BRTAP	60	288	4
NMTTP	61	0	0	A	0	M1
NMTTP	61	0	1	B	0	M1
NMTTP	61	0	1	E	0	M1
NMTTP	61	0	1	A	0	M1
NMTTP	61	0	1	D	0	M1
NMTTP	61	0	2	B	0	M1
NMTTP	61	0	2	E	0	M1
NMTTP	61	0	2	A	0	M1
NMTTP	61	0	2	D	1	M1
NMTTP	61	0	3	E	0	M1
NMTTP	61	0	3	A	0	M1
NMTTP	61	0	3	D	0	M1
NMSTR	61	96	5
NMSI_	61	96	5	96	48	2
NMTAP	61	144	6
NMSTR	61	192	0
NMSCR	61	192	0	96	48	3
NMTAP	61	240	7
NMSTR	61	288	4
NMSCR	61	288	4	96	48	7
NMTAP	61	336	5
NMSTR	62	0	1
NMSUR	62	0	1	96	48	5
NMTAP	62	48	0
NMSTR	62	96	6
NMSLR	62	96	6	96	96	5
NMTAP	62	144	7
NMHLD	62	192	0	192
CNSI_	62	288	5	0	48	2
NMTAP	63	0	1
NMSTR	63	48	0
NMSI_	63	48	0	96	48	5
NMSTR	63	48	2
NMSUL	63	48	2	96	48	5
NMTAP	63	96	3
NMTAP	63	96	7
NMSTR	63	144	0
NMSLR	63	144	0	96	48	4
NMTAP	63	336	7
NMTAP	64	48	2
NMTAP	64	48	6
NMSTR	64	96	2
NMSCR	64	96	2	96	48	5
NMSTR	64	96	6
NMSCR	64	96	6	96	48	1
BRTAP	64	192	2
BRTAP	64	192	6
NMSTR	64	288	3
NMSV_	64	288	3	96	48	0
NMSTR	64	288	7
NMSI_	64	288	7	96	48	4
NMSTR	65	0	3
NMSI_	65	0	3	96	48	1
NMTAP	65	0	7
NMTAP	65	96	3
NMTAP	65	96	5
NMTAP	65	168	7
NMSTR	65	192	2
NMSCR	65	192	2	96	48	5
NMSTR	65	192	7
NMSUR	65	192	7	96	48	3
NMTAP	65	288	2
NMTAP	65	288	7
NMTAP	66	0	4
NMTAP	66	48	3
NMTAP	66	48	5
NMTAP	66	96	1
NMTAP	66	96	7
NMTAP	66	144	4
NMTAP	66	144	6
BRHLD	66	192	5	48
BRHLD	66	192	6	48
BRHLD	66	288	1	48
BRHLD	66	288	2	48
EXSTR	67	0	0
NMSI_	67	0	0	96	48	4
NMTAP	67	48	7
NMTAP	67	72	0
NMSTR	67	96	6
NMSI_	67	96	6	96	48	3
NMTAP	67	144	5
NMSTR	67	192	2
NMSI_	67	192	2	96	48	0
NMTAP	67	240	1
NMTAP	67	288	5
NMTAP	67	336	5
NMSTR	68	0	4
NMSI_	68	0	4	96	48	0
NMTAP	68	48	2
NMTAP	68	96	2
NMSTR	68	96	4
BRSI_	68	96	4	96	48	6
NMSTR	68	144	3
BRSI_	68	144	3	96	48	1
NMSTR	68	192	4
BRSI_	68	192	4	96	48	0
NMSTR	68	240	3
BRSXR	68	240	3	96	144	7
NMTTP	68	288	4	A	1	M1
NMTTP	68	336	3	A	1	M1
NMSTR	69	96	0
NMSV_	69	96	0	96	48	5
NMSTR	69	144	0
NMSV_	69	144	0	96	48	3
NMSTR	69	288	6
NMSI_	69	288	6	96	48	1
NMTAP	69	336	6
NMTAP	70	0	2
CNSV_	70	48	1	0	48	3
NMTAP	70	48	2
NMTAP	70	96	0
NMTAP	70	144	0
NMSTR	70	192	1
NMSI_	70	192	1	96	48	6
NMSTR	70	192	5
NMSI_	70	192	5	96	48	2
NMTAP	70	240	3
NMTAP	70	240	7
NMTAP	70	288	1
NMTAP	70	288	5
NMSTR	71	0	0
NMSI_	71	0	0	96	48	6
NMSTR	71	48	0
NMSV_	71	48	0	96	48	3
NMTAP	71	192	5
NMTAP	71	288	5
NMTAP	71	288	6
NMSTR	71	336	5
NMSCL	71	336	5	96	96	2
NMTAP	71	336	6
NMTAP	72	48	6
NMTAP	72	96	7
NMTAP	72	144	0
NMSTR	72	192	1
NMSF_	72	192	1	96	48	5
EXTAP	72	264	2
EXTAP	72	288	1
NMHLD	73	0	3	384
BRHLD	73	0	7	768
NMTTP	75	0	2	A	0	M1
NMTTP	75	12	3	D	0	M1
NMTTP	75	24	3	A	0	M1
NMTTP	75	36	4	D	0	M1
NMTTP	75	48	4	A	0	M1
NMTTP	75	60	5	D	0	M1
NMTTP	75	72	5	A	0	M1
NMTTP	75	84	6	D	0	M1
NMTTP	75	96	6	A	0	M1
NMTTP	75	108	7	D	0	M1
NMTTP	75	120	7	A	0	M1
NMTTP	75	132	0	D	0	M1
NMTTP	75	144	0	A	0	M1
NMTTP	75	156	1	D	0	M1
NMTTP	75	168	1	A	0	M1
NMTTP	75	180	2	D	0	M1
NMTTP	75	192	2	A	0	M1
NMTTP	75	192	4	B	0	M1
NMTTP	75	192	4	A	0	M1
NMTTP	75	192	5	B	0	M1
NMTTP	75	192	5	E	0	M1
NMTTP	75	192	5	A	0	M1
NMTTP	75	192	5	D	0	M1
NMTTP	75	288	7	D	0	M1
NMTTP	75	300	6	A	0	M1
NMTTP	75	312	6	D	0	M1
NMTTP	75	324	5	A	0	M1
NMTTP	75	336	5	D	0	M1
NMTTP	75	348	4	A	0	M1
NMTTP	75	360	4	D	0	M1
NMTTP	75	372	3	A	0	M1
NMTTP	76	0	3	D	0	M1
NMTTP	76	12	2	A	0	M1
NMTTP	76	24	2	D	0	M1
NMTTP	76	36	1	A	0	M1
NMTTP	76	48	1	D	0	M1
NMTTP	76	60	0	A	0	M1
NMTTP	76	72	0	D	0	M1
NMTTP	76	84	7	A	0	M1
NMTTP	76	96	7	D	0	M1
NMTTP	76	108	6	A	0	M1
NMTTP	76	120	6	D	0	M1
NMTTP	76	132	5	A	0	M1
NMTTP	76	144	5	D	0	M1
NMTTP	76	156	4	A	0	M1
NMTTP	76	168	4	D	0	M1
NMTTP	76	180	3	A	0	M1
EXTAP	76	192	0
NMTTP	76	192	3	D	0	M1
NMTAP	76	264	0
NMTAP	76	264	7
NMSTR	76	336	4
NMSXR	76	336	4	96	144	3
NMTAP	76	336	6
NMTAP	77	0	4
NMTAP	77	0	6
NMTAP	77	48	5
NMTAP	77	96	7
CNSI_	77	192	3	0	96	7
NMTAP	77	192	5
NMTAP	77	288	6
CNSI_	77	288	7	0	96	1
NMTAP	77	336	6
CNSV_	78	0	1	0	144	0
NMTAP	78	48	4
NMTAP	78	96	4
NMTAP	78	192	3
NMSTR	78	240	0
NMSI_	78	240	0	96	48	3
NMSTR	78	240	4
NMSI_	78	240	4	96	48	7
NMTAP	78	336	0
NMTAP	78	336	4

T_REC_TAP	267
T_REC_BRK	28
T_REC_XTP	54
T_REC_BXX	12
T_REC_HLD	23
T_REC_XHO	1
T_REC_BHO	10
T_REC_BXH	1
T_REC_STR	95
T_REC_BST	5
T_REC_XST	6
T_REC_XBS	0
T_REC_TTP	168
T_REC_THO	2
T_REC_SLD	95
T_REC_BSL	16
T_REC_ALL	783
T_NUM_TAP	590
T_NUM_BRK	72
T_NUM_HLD	26
T_NUM_SLD	95
T_NUM_ALL	783
T_JUDGE_TAP	635
T_JUDGE_HLD	133
T_JUDGE_SLD	111
T_JUDGE_ALL	879
TTM_EACHPAIRS	119
TTM_SCR_TAP	295000
TTM_SCR_BRK	187200
TTM_SCR_HLD	26000
TTM_SCR_SLD	142500
TTM_SCR_ALL	650700
TTM_SCR_S	624200
TTM_SCR_SS	643500
TTM_RAT_ACV	10111

