VERSION	0.00.00	1.04.00
FES_MODE	0
BPM_DEF	150.000	150.000	150.000	150.000
MET_DEF	4	4
RESOLUTION	384
CLK_DEF	384
COMPATIBLE_CODE	MA2

BPM	0	0	150.000
MET	0	0	4	4

NMTTP	3	0	0	B	0	M1
NMTTP	3	0	0	C	1	M1
NMTTP	3	0	1	B	0	M1
NMTTP	3	0	2	B	0	M1
NMTTP	3	0	3	B	0	M1
NMTTP	3	0	4	B	0	M1
NMTTP	3	0	5	B	0	M1
NMTTP	3	0	6	B	0	M1
NMTTP	3	0	7	B	0	M1
NMTTP	3	96	1	D	1	M1
NMTTP	3	192	0	D	1	M1
NMTTP	3	288	7	D	1	M1
NMTAP	4	0	4
NMTAP	4	0	5
NMTAP	4	96	2
NMTAP	4	96	3
NMTAP	4	192	0
NMTAP	4	192	1
BXTAP	4	288	2
BXTAP	4	288	7
NMTAP	5	0	4
NMTAP	5	0	6
NMTAP	5	96	3
NMTAP	5	96	5
NMTAP	5	192	2
NMTAP	5	240	2
NMTAP	5	288	3
NMTAP	6	0	2
NMTAP	6	48	2
NMTAP	6	96	3
NMTAP	6	144	3
NMTAP	6	192	4
NMTAP	6	288	3
NMTAP	6	288	5
NMTAP	7	0	4
NMTAP	7	0	6
NMTAP	7	96	3
NMTAP	7	96	5
NMTAP	7	192	5
NMTAP	7	240	5
NMTAP	7	288	4
NMTAP	8	0	5
NMTAP	8	48	5
NMTAP	8	96	6
NMTAP	8	144	6
NMTAP	8	192	7
BRTAP	8	288	0
BRTAP	8	288	7
NMTAP	9	0	5
NMTAP	9	0	7
NMTAP	9	96	0
NMTAP	9	96	6
NMTAP	9	192	1
NMTAP	9	240	1
NMTAP	9	288	0
NMTAP	10	0	1
NMTAP	10	48	1
NMTAP	10	96	0
NMTAP	10	144	0
NMTAP	10	192	7
NMTAP	10	288	0
NMTAP	10	288	6
NMTAP	11	0	6
NMTAP	11	0	7
NMTAP	11	96	0
NMTAP	11	96	5
NMTAP	11	192	1
NMTAP	11	192	4
NMTAP	11	240	1
NMTAP	11	240	4
NMTAP	11	288	1
NMTAP	11	288	4
NMTAP	12	0	2
NMTAP	12	0	3
NMTAP	12	96	4
NMTAP	12	96	5
NMTAP	12	192	6
NMTAP	12	192	7
NMTAP	12	288	2
NMTAP	12	288	3
NMHLD	13	0	2	480
NMSTR	13	96	1
NMSCL	13	96	1	96	480	4
NMHLD	15	0	5	480
NMSTR	15	96	3
NMSCR	15	96	3	96	192	7
CNSUL	16	0	7	0	192	2
NMTTP	16	288	0	E	1	M1
NMTAP	17	0	5
NMHLD	17	0	6	576
NMTAP	17	96	5
NMTAP	17	192	4
NMTAP	17	288	5
NMTTP	18	0	5	E	0	M1
NMTTP	18	96	4	E	0	M1
NMTTP	18	192	0	C	0	M1
NMTTP	18	288	1	E	0	M1
NMTAP	19	0	0
NMHLD	19	0	1	288
NMTAP	19	96	0
NMTAP	19	192	2
NMTAP	19	288	0
NMTAP	20	0	0
NMTAP	20	0	1
NMTAP	20	96	4
NMTAP	20	96	5
NMTAP	20	192	6
NMTAP	20	192	7
BRTAP	20	288	0
BRTAP	20	288	5
NMTAP	21	0	0
NMTAP	21	0	5
NMTAP	21	144	6
NMTAP	21	192	7
NMTTP	21	288	4	B	0	M1
NMTTP	21	288	4	A	0	M1
NMTTP	21	288	5	B	0	M1
NMTTP	21	288	5	E	0	M1
NMTTP	21	288	5	A	0	M1
NMTTP	21	288	5	D	1	M1
NMTAP	22	0	2
NMTAP	22	0	7
NMTAP	22	144	1
NMTAP	22	192	0
BXTAP	22	240	2
BXTAP	22	240	3
BXTAP	22	288	2
BXTAP	22	288	3
NMHLD	23	0	4	96
NMHLD	23	0	6	96
NMHLD	23	192	1	96
NMHLD	23	192	3	96
NMHLD	24	0	1	48
NMHLD	24	0	2	48
NMHLD	24	96	0	48
NMHLD	24	96	3	48
NMHLD	24	192	1	96
NMHLD	24	192	2	96
NMTAP	25	0	1
NMTAP	25	48	1
NMTAP	25	96	3
NMTAP	25	144	2
NMTAP	25	192	4
NMTAP	25	240	4
NMTAP	25	288	3
NMTAP	25	288	5
NMTAP	26	0	6
NMTAP	26	48	6
NMTAP	26	96	4
NMTAP	26	144	5
NMTAP	26	192	3
NMTAP	26	240	3
NMTAP	26	288	2
NMTAP	26	288	4
NMTHO	27	0	0	384	C	0	M1
NMTTP	28	96	6	E	0	M1
NMTTP	28	192	0	E	0	M1
NMTTP	28	288	2	E	0	M1
NMHLD	29	0	0	288
NMTAP	29	0	1
NMTAP	29	96	4
NMTAP	29	192	6
NMTAP	29	288	2
NMTAP	30	0	6
NMHLD	30	0	7	288
NMTAP	30	96	3
NMTAP	30	192	1
NMTAP	30	288	5
NMTAP	31	0	0
NMTAP	31	0	1
NMTAP	31	96	5
NMTAP	31	96	6
NMTAP	31	192	2
NMTAP	31	192	3
NMTTP	31	288	4	E	0	M1
NMTAP	32	0	6
NMTAP	32	48	6
NMTAP	32	96	7
BRTAP	32	192	0
BRTAP	32	192	1
BRTAP	32	288	6
BRTAP	32	288	7
NMTTP	33	0	0	C	1	M1
NMTTP	33	0	1	B	0	M1
NMTTP	33	0	2	B	0	M1
NMTTP	33	0	2	E	0	M1
NMTTP	33	0	3	B	0	M1
NMTTP	33	0	3	E	0	M1
NMTTP	33	0	4	B	0	M1
NMTTP	33	0	4	E	0	M1
NMTTP	33	0	5	B	0	M1
NMTTP	33	0	5	E	0	M1
NMTTP	33	0	6	B	0	M1
NMTTP	33	0	6	E	0	M1
EXSTR	33	192	7
NMSI_	33	192	7	96	48	3
NMTAP	33	288	0
NMSTR	34	0	1
NMSI_	34	0	1	96	48	4
NMTAP	34	96	5
NMTAP	34	192	6
NMTAP	34	288	4
NMTAP	34	288	6
NMHLD	35	0	5	48
NMHLD	35	48	4	48
NMHLD	35	96	3	48
NMTAP	35	144	2
NMTAP	35	240	1
NMTAP	35	288	1
EXTAP	35	336	0
EXTAP	35	336	2
EXTAP	36	48	1
EXTAP	36	48	7
NMTAP	36	96	1
NMTAP	36	96	7
BRTAP	36	192	0
BRTAP	36	192	6
NMSTR	36	288	5
NMSI_	36	288	5	96	48	3
NMSTR	36	288	7
NMSI_	36	288	7	96	48	3
NMHLD	37	192	1	48
NMHLD	37	192	5	48
NMHLD	37	288	1	48
NMHLD	37	288	5	48
NMHLD	38	0	0	48
NMHLD	38	0	4	48
NMHLD	38	96	3	48
NMHLD	38	96	7	48
NMHLD	38	192	2	48
NMHLD	38	192	6	48
NMHLD	38	288	2	48
NMHLD	38	288	6	48
NMHLD	39	0	3	48
NMHLD	39	0	7	48
NMSTR	39	96	3
NMSI_	39	96	3	96	48	6
NMSTR	39	96	7
NMSI_	39	96	7	96	48	2
NMTAP	39	288	2
NMTAP	39	288	6
NMTTP	40	0	0	A	0	M1
NMTTP	40	0	1	A	0	M1
NMTTP	40	0	1	D	1	M1
NMTTP	40	96	6	A	0	M1
NMTTP	40	96	7	A	0	M1
NMTTP	40	96	7	D	1	M1
NMTTP	40	192	4	A	0	M1
NMTTP	40	192	5	A	0	M1
NMTTP	40	192	5	D	1	M1
NMTTP	40	288	3	B	0	M1
NMTTP	40	288	4	B	0	M1
NMTTP	40	288	4	E	1	M1
NMHLD	41	0	1	576
NMHLD	41	0	2	192
NMTTP	41	288	4	E	0	M1
NMHLD	42	0	5	576
NMTTP	42	288	0	E	0	M1
NMHLD	43	0	7	576
NMTTP	43	288	4	E	0	M1
BRHLD	44	0	2	960
NMTTP	44	288	1	E	0	M1
NMSTR	45	0	1
NMSUL	45	0	1	96	192	5
BRHLD	46	0	5	960
NMSTR	46	288	2
NMSUL	46	288	2	96	288	1
CNSUL	47	288	1	0	288	7
BRTAP	48	288	7
NMSTR	49	96	6
NMSCR	49	96	6	96	192	5
NMSTR	50	0	1
NMSCL	50	0	1	96	192	2
NMSTR	51	0	2
NMSXR	51	0	2	96	192	7
NMSTR	51	0	3
NMSXL	51	0	3	96	192	6
EXHLD	52	0	0	192
EXHLD	52	0	5	192
NMTAP	52	288	0
NMTAP	52	288	5
NMHLD	53	0	6	288
NMTTP	53	96	6	E	0	M1
NMTTP	53	192	4	A	0	M1
NMTTP	53	288	3	E	0	M1
BRHLD	54	0	1	288
NMTTP	54	96	1	E	0	M1
NMTTP	54	192	7	A	0	M1
NMTTP	54	288	6	E	0	M1
NMTHO	55	0	0	384	C	0	M1
NMTTP	56	96	1	B	0	M1
NMTTP	56	96	1	A	0	M1
NMTTP	56	192	0	E	0	M1
NMTTP	56	192	0	D	0	M1
NMTTP	56	288	6	B	0	M1
NMTTP	56	288	6	A	0	M1
NMSTR	57	0	0
NMSI_	57	0	0	96	96	5
CNSI_	57	192	5	0	96	2
BRTAP	58	0	0
BRTAP	58	0	1
BRTAP	58	48	0
BRTAP	58	48	1
BRTAP	58	96	0
BRTAP	58	96	1
BRTAP	58	144	0
BRTAP	58	144	1
BRSTR	58	192	0
BRSI_	58	192	0	96	48	5
BRSTR	58	192	1
BRSI_	58	192	1	96	48	4
NMTAP	59	0	6
NMTAP	59	0	7
NMTAP	59	96	1
NMTAP	59	96	2
NMTAP	59	192	4
NMTAP	59	192	5
NMTTP	59	288	4	E	0	M1
NMTAP	60	0	1
NMTAP	60	48	1
NMTAP	60	96	0
BRTAP	60	192	6
BRTAP	60	192	7
BRTAP	60	288	0
BRTAP	60	288	1
NMTTP	61	0	2	B	0	M1
NMTTP	61	0	3	B	0	M1
NMTTP	61	0	3	E	0	M1
NMTTP	61	0	3	A	0	M1
NMTTP	61	0	3	D	0	M1
NMTTP	61	0	4	B	0	M1
NMTTP	61	0	4	E	1	M1
NMTTP	61	0	4	A	0	M1
NMTTP	61	0	4	D	0	M1
NMTTP	61	0	5	B	0	M1
NMTTP	61	0	5	E	0	M1
NMTTP	61	0	5	D	0	M1
EXSTR	61	192	1
NMSI_	61	192	1	96	48	4
NMTAP	61	288	0
NMSTR	62	0	6
NMSI_	62	0	6	96	48	3
NMTAP	62	96	2
NMTAP	62	192	1
NMTAP	62	288	1
NMTAP	62	288	3
NMHLD	63	0	2	48
NMHLD	63	48	3	48
NMHLD	63	96	4	48
NMTAP	63	144	5
NMTAP	63	240	6
NMTAP	63	288	6
EXTAP	63	336	5
EXTAP	63	336	7
EXTAP	64	48	0
EXTAP	64	48	6
NMTAP	64	96	0
NMTAP	64	96	6
NMTAP	64	192	1
NMTAP	64	192	7
NMSTR	64	288	6
NMSI_	64	288	6	96	48	2
NMSTR	64	288	7
NMSI_	64	288	7	96	48	3
NMTAP	65	96	1
NMTAP	65	96	4
NMHLD	65	192	1	96
BRHLD	65	192	2	864
BRTAP	66	0	5
BRTAP	66	48	5
BRTAP	66	96	5
BRTAP	66	144	5
BRSTR	66	192	5
NMSI_	66	192	5	96	48	0
BRTAP	67	0	7
BRTAP	67	48	7
BRTAP	67	96	7
BRTAP	67	192	6
BRTAP	67	240	6
BRTAP	67	288	6
NMHLD	68	0	0	48
NMHLD	68	0	6	48
NMTAP	68	96	0
NMTAP	68	96	6
NMTAP	68	192	4
NMTAP	68	192	5
NMSTR	68	288	2
NMSI_	68	288	2	96	48	0
NMSTR	68	288	3
NMSI_	68	288	3	96	48	5
NMTAP	69	96	0
NMTAP	69	96	5
NMSTR	69	192	6
NMSI_	69	192	6	96	48	3
NMTAP	69	288	2
NMSTR	70	0	1
NMSI_	70	0	1	96	48	4
NMTAP	70	96	5
NMTAP	70	192	6
NMTAP	70	288	4
NMTAP	70	288	6
NMTAP	71	0	5
NMTAP	71	48	5
NMTAP	71	96	4
NMTAP	71	144	4
NMTAP	71	192	3
BRTAP	71	288	2
BRTAP	71	288	4
EXTAP	71	336	3
EXTAP	71	336	5
EXTAP	72	48	3
EXTAP	72	48	5
NMTAP	72	96	4
NMTAP	72	96	6
NMTAP	72	192	4
NMSTR	72	192	6
NMSI_	72	192	6	96	48	1
NMTAP	72	288	3
BRHLD	73	0	1	2256
BRHLD	73	0	2	768
NMSTR	76	0	0
NMSV_	76	0	0	96	192	3
CNSUR	76	288	3	0	192	6
CNSCL	77	96	6	0	96	4
CNSUL	77	192	4	0	192	7
NMTHO	78	96	0	240	C	0	M1

T_REC_TAP	176
T_REC_BRK	35
T_REC_XTP	12
T_REC_BXX	6
T_REC_HLD	44
T_REC_XHO	2
T_REC_BHO	6
T_REC_BXH	0
T_REC_STR	23
T_REC_BST	3
T_REC_XST	2
T_REC_XBS	0
T_REC_TTP	80
T_REC_THO	3
T_REC_SLD	26
T_REC_BSL	2
T_REC_ALL	420
T_NUM_TAP	293
T_NUM_BRK	52
T_NUM_HLD	49
T_NUM_SLD	26
T_NUM_ALL	420
T_JUDGE_TAP	337
T_JUDGE_HLD	292
T_JUDGE_SLD	28
T_JUDGE_ALL	657
TTM_EACHPAIRS	95
TTM_SCR_TAP	146500
TTM_SCR_BRK	135200
TTM_SCR_HLD	49000
TTM_SCR_SLD	39000
TTM_SCR_ALL	369700
TTM_SCR_S	353600
TTM_SCR_SS	364500
TTM_RAT_ACV	10142

