VERSION	0.00.00	1.04.00
FES_MODE	0
BPM_DEF	227.000	227.000	227.000	227.000
MET_DEF	4	4
RESOLUTION	384
CLK_DEF	384
COMPATIBLE_CODE	MA2

BPM	0	0	227.000
MET	0	0	4	4

BRTAP	3	0	5
NMTAP	3	48	4
NMTAP	3	96	3
NMHLD	3	144	2	240
NMTAP	4	0	5
NMTAP	4	48	4
NMTAP	4	96	3
NMHLD	4	144	2	240
NMTAP	5	0	5
NMTAP	5	48	4
NMTAP	5	96	3
NMHLD	5	144	2	336
NMHLD	6	0	3	96
NMHLD	6	192	1	96
NMHLD	6	192	2	96
NMSTR	7	0	0
NMSCR	7	0	0	96	720	7
NMTAP	7	0	1
NMTTP	8	0	4	E	0	M1
NMTTP	8	144	5	E	0	M1
NMTTP	8	288	6	E	0	M1
NMHLD	10	0	5	96
NMHLD	10	96	4	96
NMHLD	10	192	3	96
NMHLD	10	288	2	96
BRTAP	11	0	0
NMTAP	11	96	1
NMTAP	11	144	1
NMTAP	11	192	3
NMTAP	11	240	2
NMHLD	11	288	5	96
NMTAP	12	0	4
NMTAP	12	48	3
NMTAP	12	96	2
NMTAP	12	144	3
NMTAP	12	192	4
NMTAP	12	240	5
NMTAP	12	288	2
NMTAP	12	288	6
BRHLD	13	0	0	96
NMHLD	13	144	3	96
NMHLD	13	144	5	96
NMTTP	13	288	0	C	1	M1
NMTAP	14	192	1
NMTAP	14	192	7
NMTAP	14	288	2
NMTAP	14	336	3
NMHLD	15	0	4	96
NMTAP	15	96	3
NMHLD	15	144	5	96
NMTAP	15	240	4
NMTAP	15	288	3
NMTAP	15	288	6
NMHLD	16	0	0	96
NMTAP	16	0	7
NMTAP	16	96	7
NMHLD	16	144	1	96
NMTAP	16	240	0
NMSTR	16	288	2
NMSI_	16	288	2	96	96	5
EXTAP	17	0	3
CNSI_	17	96	5	0	96	1
CNSI_	17	192	1	0	96	4
NMTAP	17	288	7
NMSTR	17	336	7
NMSSR	17	336	7	96	240	3
NMHLD	19	0	2	96
NMHLD	19	0	4	96
NMHLD	19	144	4	96
NMHLD	19	144	6	96
NMHLD	19	288	0	96
NMHLD	19	288	6	96
NMHLD	20	48	2	96
NMHLD	20	48	3	96
NMTAP	20	192	1
NMTAP	20	216	0
NMTAP	20	240	1
NMTAP	20	264	0
NMSTR	20	288	1
NMSCR	20	288	1	96	192	6
BRTAP	21	0	7
NMTAP	21	96	7
NMTAP	21	192	7
NMTAP	21	288	7
NMTAP	22	0	4
NMHLD	22	0	6	96
NMTAP	22	96	4
NMHLD	22	192	2	96
NMTAP	22	192	4
NMTAP	22	288	4
NMTAP	23	0	4
NMHLD	23	0	6	96
NMTAP	23	96	4
NMTAP	23	144	3
NMTAP	23	192	2
NMTAP	23	192	4
NMTAP	23	288	0
NMTAP	23	288	4
NMSTR	24	0	1
NMSI_	24	0	1	96	96	7
NMTAP	24	0	4
NMTAP	24	96	4
NMTAP	24	192	3
CNSI_	24	192	7	0	96	5
NMTAP	24	288	3
CNSI_	24	288	5	0	96	0
NMHLD	25	0	3	96
NMTTP	25	96	1	E	0	M1
NMTTP	25	144	4	E	0	M1
NMTTP	25	192	2	E	0	M1
NMTTP	25	240	5	E	0	M1
NMTHO	25	288	0	192	C	0	M1
NMTAP	26	0	7
NMTAP	26	96	7
NMTAP	26	192	6
NMTAP	26	192	7
NMTAP	26	240	6
NMTAP	26	240	7
NMTAP	26	288	6
NMTAP	26	288	7
NMTAP	27	0	0
NMTAP	27	0	5
NMTAP	27	96	1
NMTAP	27	144	4
NMHLD	27	192	2	96
NMTAP	27	288	3
NMTAP	28	0	3
NMTAP	28	0	5
NMTAP	28	96	2
NMTAP	28	96	6
NMHLD	28	144	2	96
NMHLD	28	144	6	96
NMTAP	28	288	1
NMTAP	28	312	7
NMTAP	28	336	1
NMTAP	28	360	7
BRSTR	29	0	1
NMSCR	29	0	1	96	96	4
NMTAP	29	96	6
NMTAP	29	192	6
NMTAP	29	288	5
NMTAP	30	0	4
NMHLD	30	0	5	96
NMTAP	30	96	4
NMTAP	30	144	3
NMHLD	30	192	2	96
NMTAP	30	192	4
NMTAP	30	288	4
NMTAP	30	336	5
NMTAP	31	0	4
NMHLD	31	0	6	96
NMTAP	31	96	4
NMTAP	31	144	3
NMTAP	31	192	2
NMTAP	31	192	4
NMTAP	31	240	5
NMTAP	31	288	4
NMHLD	31	288	6	96
NMTAP	32	0	4
NMSTR	32	96	4
NMSLL	32	96	4	96	192	0
NMTAP	32	96	5
EXTAP	32	192	6
EXTAP	32	288	6
NMTAP	33	0	7
NMTAP	33	96	7
NMTAP	33	144	0
NMTAP	33	192	6
NMTAP	33	240	7
NMSTR	33	288	5
NMSCL	33	288	5	96	96	2
NMTAP	34	0	1
NMTAP	34	96	1
NMTAP	34	192	1
NMTAP	34	240	0
NMTAP	34	288	2
NMHLD	34	288	7	96
NMTTP	35	0	3	B	0	M1
NMTTP	35	12	4	E	0	M1
EXTAP	35	96	6
EXSTR	35	144	6
NMSCL	35	144	6	96	96	3
NMTAP	35	240	0
NMTAP	35	288	0
NMTAP	36	0	0
NMTAP	36	24	1
NMTAP	36	48	2
NMTAP	36	72	3
NMTAP	36	96	7
NMTAP	36	120	6
NMTAP	36	144	5
NMTAP	36	168	4
NMTAP	36	192	1
NMTAP	36	216	2
NMTAP	36	240	3
NMTAP	36	264	4
NMTAP	36	288	5
NMTAP	36	312	6
NMTAP	36	336	7
NMTAP	36	360	0
NMHLD	37	0	1	48
NMHLD	37	0	4	48
NMTAP	37	96	2
NMTAP	37	120	3
NMTAP	37	144	2
NMTAP	37	192	5
NMTAP	37	240	2
NMTAP	37	264	3
NMTAP	37	288	2
NMTAP	37	336	6
NMTAP	38	0	2
NMTAP	38	24	3
NMTAP	38	48	2
NMTAP	38	96	7
NMHLD	38	144	7	48
NMTAP	38	192	5
NMHLD	38	240	5	48
NMTAP	38	288	4
NMTAP	38	336	4
BRTAP	39	0	2
BRSTR	39	0	3
NMSI_	39	0	3	96	48	7
NMTAP	39	96	0
BRSTR	39	144	1
NMSI_	39	144	1	96	48	4
BRSTR	39	240	6
NMSCL	39	240	6	96	48	3
BRTAP	39	336	7
NMTAP	40	48	0
NMTAP	40	96	1
NMHLD	40	144	2	96
NMTAP	40	240	4
NMTAP	40	288	3
NMTAP	40	288	5
NMTAP	41	0	6
NMTAP	41	24	4
NMTAP	41	48	6
NMTAP	41	72	4
NMTAP	41	96	5
NMTAP	41	144	2
NMTAP	41	144	3
NMTAP	41	192	2
NMTAP	41	192	3
NMTAP	41	240	0
NMTAP	41	240	1
NMTAP	41	288	0
NMTAP	41	288	7
EXTAP	41	336	6
EXTAP	41	336	7
NMTAP	42	48	3
NMTAP	42	48	4
NMTAP	42	144	1
NMTAP	42	168	0
NMTAP	42	192	1
NMTAP	42	216	0
NMTAP	42	240	1
NMTAP	42	288	2
NMTAP	42	288	7
NMTAP	43	0	3
NMTAP	43	0	4
NMSTR	43	48	3
NMSI_	43	48	3	96	48	6
NMTAP	43	48	4
NMHLD	43	144	5	144
NMTAP	43	288	7
NMSTR	43	336	7
NMSI_	43	336	7	96	48	2
NMTAP	44	48	3
NMTAP	44	96	3
NMTAP	44	192	0
NMTAP	44	192	4
NMTAP	44	240	0
NMTAP	44	240	4
NMTAP	44	288	0
NMTAP	44	288	4
NMTAP	45	0	1
NMTAP	45	0	5
NMTAP	45	48	1
NMSTR	45	48	5
NMSI_	45	48	5	96	48	1
NMHLD	45	144	3	144
NMTAP	45	288	0
NMSTR	45	336	0
NMSI_	45	336	0	96	48	5
NMTAP	46	48	3
NMTAP	46	96	3
NMTAP	46	192	2
NMTAP	46	192	6
NMTAP	46	240	2
NMTAP	46	240	6
NMTAP	46	288	2
NMTAP	46	288	6
BRSTR	47	0	0
NMSCL	47	0	0	96	96	5
BRTAP	47	0	4
NMSTR	47	96	5
NMSCL	47	96	5	96	96	2
NMSTR	47	192	2
NMSCL	47	192	2	96	96	7
NMSTR	47	288	7
NMSCL	47	288	7	96	96	4
NMSTR	48	0	4
NMSCL	48	0	4	96	96	1
NMSTR	48	96	1
NMSCL	48	96	1	96	96	6
NMSTR	48	192	6
NMSCL	48	192	6	96	96	3
NMSTR	48	288	3
NMSXR	48	288	3	96	240	7
NMTAP	49	0	7
NMTAP	49	192	5
NMSTR	49	288	5
NMSCR	49	288	5	96	144	1
NMHLD	50	0	4	96
NMTAP	50	192	3
NMSTR	50	288	3
NMSCL	50	288	3	96	144	7
NMTAP	50	288	6
NMHLD	51	0	4	96
EXTAP	51	144	5
EXHLD	51	192	5	96
NMSTR	51	288	7
NMSI_	51	288	7	96	96	3
NMHLD	52	0	6	96
NMTAP	52	144	7
NMHLD	52	192	7	96
NMTAP	52	288	3
NMTAP	53	0	2
NMTAP	53	48	4
NMTAP	53	96	2
NMTAP	53	144	6
NMTAP	53	192	4
NMTAP	53	240	6
NMTAP	53	288	0
NMTAP	53	336	1
NMTAP	54	0	2
NMTAP	54	0	3
NMTAP	54	96	3
NMTAP	54	96	6
NMTAP	54	144	5
NMTAP	54	168	4
NMTAP	54	192	5
BRTAP	54	240	3
BRTAP	54	240	6
NMHLD	54	336	7	48
NMTAP	55	0	1
NMTAP	55	24	0
NMTAP	55	48	1
NMTAP	55	72	0
BRSTR	55	96	2
NMSI_	55	96	2	96	48	7
NMTAP	55	192	5
BRSTR	55	240	5
NMSI_	55	240	5	96	48	2
NMTAP	55	336	0
BRSTR	56	0	0
NMSI_	56	0	0	96	48	5
NMTAP	56	96	3
BRTAP	56	144	3
NMTAP	56	240	4
NMTAP	56	240	5
NMTAP	56	288	4
NMTAP	56	288	5
NMTAP	57	0	6
NMTAP	57	24	7
NMTAP	57	48	6
NMTAP	57	72	7
BRSTR	57	96	5
NMSI_	57	96	5	96	48	0
NMTAP	57	192	2
BRSTR	57	240	2
NMSI_	57	240	2	96	48	5
NMTAP	57	336	7
BRSTR	58	0	7
NMSI_	58	0	7	96	48	3
NMTAP	58	96	1
BRHLD	58	144	1	96
NMTAP	58	240	0
NMSTR	58	288	0
NMSI_	58	288	0	96	96	2
BXHLD	59	0	3	2496
CNSI_	59	96	2	0	96	4
CNSI_	59	192	4	0	96	6
CNSI_	59	288	6	0	96	0
CNSCR	60	0	0	0	288	0
CNSCR	60	288	0	0	384	7
NMTTP	63	0	6	E	0	M1
NMTTP	64	0	7	E	0	M1
NMTTP	65	0	0	E	0	M1
NMHLD	65	192	1	192
NMHLD	66	0	2	192
NMSTR	66	192	3
NMSI_	66	192	3	96	48	7
BRTAP	67	0	0
NMSTR	67	96	1
NMSCR	67	96	1	96	48	4
NMTAP	67	144	0
NMTAP	67	192	1
NMTAP	67	240	7
NMSTR	67	288	6
NMSI_	67	288	6	96	48	3
NMTAP	68	0	0
NMTAP	68	0	6
NMTAP	68	96	7
NMSTR	68	144	0
NMSI_	68	144	0	96	48	4
NMSTR	68	192	1
NMSI_	68	192	1	96	48	3
NMTAP	68	240	0
NMTAP	68	288	1
EXTAP	68	336	7
NMTAP	69	48	0
NMTAP	69	48	6
NMTAP	69	96	0
NMSTR	69	96	6
NMSUL	69	96	6	96	96	2
NMTAP	69	192	7
NMSTR	69	288	0
NMSI_	69	288	0	96	48	3
NMSTR	70	0	0
NMSI_	70	0	0	96	48	5
NMSTR	70	96	0
NMSI_	70	96	0	96	48	4
NMSTR	70	192	0
NMSCL	70	192	0	96	48	5
NMTAP	70	288	0
BRTAP	71	0	2
BRTAP	71	0	4
NMSTR	71	96	1
NMSI_	71	96	1	96	48	3
NMTAP	71	144	3
NMSTR	71	192	1
NMSI_	71	192	1	96	48	5
NMTAP	71	240	7
NMTAP	71	288	1
NMSTR	72	0	6
NMSI_	72	0	6	96	48	0
NMSTR	72	96	6
NMSI_	72	96	6	96	48	4
NMTAP	72	144	4
NMSTR	72	192	6
NMSI_	72	192	6	96	48	2
NMTAP	72	240	7
NMTAP	72	288	6
NMHLD	72	336	0	144
NMTAP	73	48	3
NMTAP	73	96	3
NMSTR	73	192	0
NMSCL	73	192	0	96	48	5
NMTAP	73	192	1
NMSTR	73	288	3
NMSI_	73	288	3	96	48	1
NMSTR	74	0	3
NMSI_	74	0	3	96	48	5
NMSTR	74	96	3
NMSI_	74	96	3	96	48	7
NMSTR	74	192	3
NMSCR	74	192	3	96	48	6
NMTAP	74	288	3
BXTAP	75	0	1
BXTAP	75	0	7
NMSTR	75	96	2
NMSCL	75	96	2	96	96	6
NMSTR	75	192	6
NMSCR	75	192	6	96	96	2
NMTAP	75	288	3
NMHLD	76	0	4	96
NMTAP	76	96	2
NMTAP	76	144	4
NMTAP	76	192	0
NMTAP	76	240	6
NMSTR	76	288	4
NMSCL	76	288	4	96	48	1
BRTAP	77	0	4
BRTAP	77	0	5
NMTAP	77	96	6
NMSTR	77	144	6
NMSLL	77	144	6	96	96	0
NMTAP	77	240	2
BRTAP	77	288	2
NMTTP	77	289	0	C	1	M1
EXTAP	78	96	1
EXTAP	78	96	7
NMTAP	78	192	2
NMTAP	78	240	3
NMTAP	78	288	4
NMTAP	78	336	5
NMSTR	79	0	6
NMSCR	79	0	6	96	96	2
NMSTR	79	96	2
NMSUR	79	96	2	96	96	6
NMTAP	79	144	3
NMTAP	79	192	4
NMTAP	79	288	0
NMSTR	80	0	1
NMSCL	80	0	1	96	96	5
NMSTR	80	96	5
NMSUL	80	96	5	96	96	1
NMTAP	80	144	4
NMTAP	80	192	3
NMSTR	80	288	7
NMSI_	80	288	7	96	48	3
EXTAP	81	0	7
NMSTR	81	96	2
NMSI_	81	96	2	96	48	6
NMSTR	81	192	5
NMSI_	81	192	5	96	48	3
NMTAP	81	288	0
NMHLD	81	336	0	240
CNSI_	81	336	3	0	48	1
CNSI_	82	0	1	0	48	7
EXTAP	82	192	6
NMTAP	82	288	1
NMTAP	82	288	3
NMTAP	82	336	2
NMTAP	82	336	4
NMSTR	83	0	5
NMSI_	83	0	5	96	48	0
NMTAP	83	48	5
NMSTR	83	96	4
NMSI_	83	96	4	96	48	1
NMTAP	83	144	4
NMSTR	83	192	6
NMSI_	83	192	6	96	48	3
NMTAP	83	240	6
NMTAP	83	288	0
NMSTR	84	0	1
NMSI_	84	0	1	96	48	4
NMTAP	84	48	1
NMSTR	84	96	0
NMSI_	84	96	0	96	48	5
NMTAP	84	144	0
NMSTR	84	192	2
NMSI_	84	192	2	96	48	7
NMTAP	84	240	2
NMTAP	84	288	4
NMTAP	85	0	3
NMTAP	85	0	5
NMTAP	85	48	4
NMTAP	85	96	3
NMTAP	85	144	2
NMTAP	85	144	4
NMSTR	85	192	3
NMSCL	85	192	3	96	48	0
NMTAP	85	240	5
NMSTR	85	288	6
NMSCL	85	288	6	96	48	3
EXTAP	86	0	7
NMTAP	86	96	1
NMTAP	86	96	2
NMHLD	86	144	1	96
NMTAP	86	144	2
NMTAP	86	240	0
NMTAP	86	288	2
NMTAP	86	288	7
NMSTR	87	0	5
NMSI_	87	0	5	96	48	3
NMTAP	87	48	0
NMTAP	87	96	5
NMSTR	87	144	1
NMSI_	87	144	1	96	48	4
NMTAP	87	192	0
NMTAP	87	240	1
NMTAP	87	288	7
NMTAP	87	336	7
NMSTR	88	0	6
NMSCL	88	0	6	96	48	3
NMTAP	88	48	0
NMTAP	88	96	6
NMSTR	88	144	7
NMSCR	88	144	7	96	48	2
NMTAP	88	192	5
NMTAP	88	240	7
NMHLD	88	288	3	96
BRTAP	89	0	1
NMTAP	89	96	5
BRTAP	89	144	4
BRTAP	89	144	6
NMTAP	89	240	0
NMTAP	89	240	1
BRTAP	89	288	2
BRTAP	89	288	7
NMTAP	90	0	4
NMTAP	90	0	6
NMTAP	90	48	3
NMTAP	90	48	5
BRTAP	90	96	2
BRTAP	90	96	4
NMTAP	90	192	0
NMTAP	90	192	7
BRTAP	90	240	1
BRTAP	90	240	6
NMTAP	90	336	4
NMTAP	90	336	5
BRTAP	91	0	3
BRHLD	91	0	6	384
NMTTP	92	0	2	A	0	M1
NMTTP	92	8	3	E	0	M1
NMTTP	92	16	3	B	0	M1
NMTTP	92	24	4	B	0	M1
NMTTP	92	32	5	E	0	M1
NMTTP	92	40	5	A	0	M1
NMHLD	92	288	0	480
NMTAP	92	288	7
NMTTP	93	0	0	C	1	M1
NMHLD	94	0	1	384
NMSTR	95	0	2
NMSCR	95	0	2	96	576	1
NMHLD	97	0	3	384
NMHLD	98	0	4	384
NMSTR	99	0	5
NMSCR	99	0	5	96	576	4
NMTAP	101	0	3
NMHLD	101	0	5	96
NMTAP	101	96	4
NMTAP	101	192	3
NMHLD	101	192	6	96
NMTAP	101	288	4
NMTAP	101	336	4
NMTAP	102	0	5
NMTAP	102	48	2
NMTAP	102	96	3
NMTAP	102	192	1
NMTAP	102	192	4
NMTAP	102	288	2
NMTAP	102	288	3
NMHLD	103	0	1	96
NMTAP	103	96	3
NMHLD	103	192	2	96
NMTAP	103	192	4
NMTAP	103	288	3
NMTAP	103	336	3
NMTAP	104	0	2
NMTAP	104	48	5
NMTAP	104	96	4
NMHLD	104	192	6	96
NMTAP	104	288	4
NMTAP	105	0	3
NMHLD	105	0	5	96
NMTAP	105	96	3
NMTAP	105	192	2
NMTAP	105	192	4
NMTAP	105	288	2
NMTAP	105	336	3
NMHLD	106	0	1	96
NMTAP	106	96	2
NMTAP	106	192	2
NMTAP	106	192	3
NMTAP	106	288	3
NMSTR	106	288	4
NMSCR	106	288	4	96	384	3
BRHLD	107	0	2	576
NMTAP	108	192	3
NMSTR	108	288	0
NMSCR	108	288	0	96	48	3
NMTAP	108	336	7
BRSTR	109	0	0
NMSI_	109	0	0	96	48	4
NMSTR	109	48	5
NMSI_	109	48	5	96	48	0
NMTAP	109	96	0
NMTAP	109	144	5
NMTAP	109	192	3
NMTAP	109	240	7
NMSTR	109	288	1
NMSCR	109	288	1	96	48	4
NMTAP	109	336	0
BRSTR	110	0	1
NMSI_	110	0	1	96	48	5
NMSTR	110	48	6
NMSI_	110	48	6	96	48	0
NMTAP	110	96	1
NMTAP	110	144	6
NMSTR	110	192	2
NMSI_	110	192	2	96	48	7
NMSTR	110	240	3
NMSI_	110	240	3	96	48	6
NMTAP	110	288	2
NMTAP	110	336	3
BRTAP	111	0	0
NMTAP	111	24	1
NMTAP	111	48	2
NMTAP	111	72	3
NMTAP	111	96	6
NMTAP	111	120	5
NMTAP	111	144	4
NMTAP	111	168	3
NMTAP	111	192	1
NMTAP	111	216	2
NMTAP	111	240	3
NMTAP	111	264	4
NMTAP	111	288	5
NMTAP	111	312	6
NMTAP	111	336	7
NMTAP	111	360	0
NMTAP	112	0	1
NMTAP	112	0	6
NMTAP	112	24	5
NMTAP	112	48	4
NMTAP	112	72	3
NMTAP	112	96	0
NMTAP	112	120	1
NMTAP	112	144	2
NMTAP	112	168	3
BRTAP	112	192	7
NMSTR	112	288	6
NMSCL	112	288	6	96	48	3
NMTAP	112	336	0
NMSTR	113	0	6
NMSI_	113	0	6	96	48	0
NMSTR	113	48	1
NMSI_	113	48	1	96	48	3
NMTAP	113	96	6
NMTAP	113	144	1
NMSTR	113	192	4
NMSI_	113	192	4	96	48	6
NMSTR	113	240	0
NMSI_	113	240	0	96	48	4
NMTAP	113	288	4
NMTAP	113	336	0
NMSTR	114	0	7
NMSI_	114	0	7	96	48	1
NMSTR	114	48	3
NMSI_	114	48	3	96	48	5
NMTAP	114	96	7
NMTAP	114	144	3
NMSTR	114	192	7
NMSI_	114	192	7	96	48	3
NMTAP	114	240	1
NMTAP	114	288	7
NMTAP	114	336	0
NMSTR	115	0	5
NMSI_	115	0	5	96	48	3
NMTAP	115	48	7
NMTAP	115	96	5
NMSTR	115	144	1
NMSI_	115	144	1	96	48	5
NMTAP	115	192	0
NMTAP	115	240	1
NMTAP	115	288	7
NMTAP	116	0	0
NMTAP	116	0	6
NMTAP	116	48	1
NMTAP	116	48	5
NMTAP	116	96	2
NMSTR	116	96	4
NMSF_	116	96	4	96	48	0
NMTAP	116	192	4
EXTAP	116	288	2
EXTAP	116	288	6
BRSTR	117	0	7
NMSI_	117	0	7	96	48	3
NMSTR	117	48	2
NMSI_	117	48	2	96	48	7
NMTAP	117	96	7
NMTAP	117	144	2
NMTAP	117	192	4
NMTAP	117	240	0
NMSTR	117	288	6
NMSCL	117	288	6	96	48	3
NMTAP	117	336	7
BRSTR	118	0	6
NMSI_	118	0	6	96	48	2
NMSTR	118	48	1
NMSI_	118	48	1	96	48	7
NMTAP	118	96	6
NMTAP	118	144	1
NMSTR	118	192	5
NMSI_	118	192	5	96	48	0
NMSTR	118	240	4
NMSI_	118	240	4	96	48	1
NMTAP	118	288	5
NMTAP	118	336	4
BXTAP	119	0	7
NMTAP	119	24	6
NMTAP	119	48	5
NMTAP	119	72	4
NMTAP	119	96	1
NMTAP	119	120	2
NMTAP	119	144	3
NMTAP	119	168	4
NMTAP	119	192	6
NMTAP	119	216	5
NMTAP	119	240	4
NMTAP	119	264	3
NMTAP	119	288	2
NMTAP	119	312	1
NMTAP	119	336	0
NMTAP	119	360	7
NMTAP	120	0	1
NMTAP	120	0	6
NMTAP	120	24	2
NMTAP	120	48	3
NMTAP	120	72	4
NMTAP	120	96	0
NMTAP	120	120	1
NMTAP	120	144	2
NMTAP	120	168	3
NMTAP	120	192	0
NMTAP	120	216	7
NMTAP	120	240	6
NMTAP	120	264	5
NMTAP	120	288	4
NMTAP	120	312	3
NMTAP	120	336	2
NMTAP	120	360	1
BRSTR	121	0	0
NMSI_	121	0	0	96	48	4
BRTAP	121	0	7
NMTAP	121	96	7
BRSTR	121	144	6
NMSCR	121	144	6	96	48	1
NMTAP	121	240	4
BRSTR	121	288	3
NMSCR	121	288	3	96	48	6
NMTAP	122	0	1
BRSTR	122	48	0
NMSCR	122	48	0	96	48	3
NMTAP	122	144	6
BRSTR	122	192	5
NMSI_	122	192	5	96	48	0
NMSTR	122	288	1
NMSI_	122	288	1	96	48	5
NMTAP	122	288	5
BRTAP	123	0	1
NMHLD	123	0	7	384
NMTAP	124	0	0
NMTAP	124	24	6
NMTAP	124	48	0
NMTAP	124	72	6
NMTAP	124	96	1
NMTAP	124	120	5
NMTAP	124	144	1
NMTAP	124	168	5
BRTAP	124	192	3
BRTAP	124	240	2
BRTAP	124	240	4
NMTAP	125	0	4
NMTAP	125	0	5
NMTAP	125	48	3
NMSTR	125	48	6
NMSI_	125	48	6	96	48	3
NMTAP	125	144	2
NMTAP	125	144	6
NMSTR	125	192	1
NMSI_	125	192	1	96	48	4
NMTAP	125	288	1
NMTAP	125	288	6
NMSTR	125	336	7
NMSI_	125	336	7	96	48	3
NMTAP	126	48	1
NMTAP	126	48	7
NMSTR	126	96	0
NMSI_	126	96	0	96	48	4
NMTAP	126	192	0
NMTAP	126	192	5
NMSTR	126	240	6
NMSI_	126	240	6	96	48	3
NMTAP	126	336	4
NMTAP	126	336	6
NMSTR	127	0	2
NMSI_	127	0	2	96	48	5
NMTAP	127	96	2
NMTAP	127	96	7
NMSTR	127	144	6
NMSI_	127	144	6	96	48	1
NMTAP	127	240	4
NMTAP	127	240	6
NMSTR	127	288	3
NMSI_	127	288	3	96	48	6
NMTAP	128	0	2
NMTAP	128	0	3
NMHLD	128	48	1	96
NMTAP	128	144	7
NMTAP	128	192	7
NMTAP	128	240	4
NMTAP	128	240	6
NMTAP	128	288	3
NMTAP	128	288	5
NMSTR	128	336	2
NMSI_	128	336	2	96	48	6
NMTAP	128	336	4
NMTAP	129	48	2
BRTAP	129	48	3
BRSTR	129	96	4
NMSI_	129	96	4	96	48	0
BRTAP	129	192	0
NMTAP	129	192	4
BRSTR	129	240	1
NMSI_	129	240	1	96	48	5
BRTAP	129	336	0
NMTAP	129	336	1
BRSTR	130	0	7
NMSI_	130	0	7	96	48	3
BRTAP	130	96	0
NMTAP	130	96	7
BRSTR	130	144	2
NMSI_	130	144	2	96	48	5
NMTAP	130	240	2
BRTAP	130	240	4
BRHLD	130	288	6	96
BRTAP	131	0	5
BRSTR	131	48	4
NMSCR	131	48	4	96	48	7
BRTAP	131	144	2
NMTAP	131	144	4
BRSTR	131	192	1
NMSCR	131	192	1	96	48	4
NMTAP	131	288	1
BRTAP	131	288	7
BRHLD	131	336	6	96
NMTAP	132	48	5
NMTAP	132	96	3
NMTAP	132	96	4
NMTAP	132	144	2
NMTAP	132	144	3
NMTAP	132	192	1
NMTAP	132	192	4
NMTAP	132	240	2
NMTAP	132	240	5
NMTAP	132	288	3
NMTAP	132	288	6
NMHLD	132	336	4	816
NMTAP	132	336	7
BRSTR	134	0	7
NMSCR	134	0	7	96	1440	7
NMTTP	134	12	7	B	0	M1
NMTTP	134	24	0	C	1	M1
NMTTP	134	36	3	B	0	M1
NMTTP	134	48	3	A	0	M1
NMTTP	136	0	5	E	0	M1
NMTTP	136	16	4	E	0	M1
NMTTP	136	32	3	E	0	M1

T_REC_TAP	501
T_REC_BRK	40
T_REC_XTP	15
T_REC_BXX	3
T_REC_HLD	70
T_REC_XHO	1
T_REC_BHO	6
T_REC_BXH	1
T_REC_STR	100
T_REC_BST	27
T_REC_XST	1
T_REC_XBS	0
T_REC_TTP	28
T_REC_THO	1
T_REC_SLD	128
T_REC_BSL	0
T_REC_ALL	922
T_NUM_TAP	645
T_NUM_BRK	77
T_NUM_HLD	72
T_NUM_SLD	128
T_NUM_ALL	922
T_JUDGE_TAP	715
T_JUDGE_HLD	289
T_JUDGE_SLD	128
T_JUDGE_ALL	1132
TTM_EACHPAIRS	129
TTM_SCR_TAP	322500
TTM_SCR_BRK	200200
TTM_SCR_HLD	72000
TTM_SCR_SLD	192000
TTM_SCR_ALL	786700
TTM_SCR_S	755650
TTM_SCR_SS	779000
TTM_RAT_ACV	10098

