VERSION	0.00.00	1.04.00
FES_MODE	0
BPM_DEF	227.000	227.000	227.000	227.000
MET_DEF	4	4
RESOLUTION	384
CLK_DEF	384
COMPATIBLE_CODE	MA2

BPM	0	0	227.000
MET	0	0	4	4

BRTAP	3	0	0
BRHLD	3	0	7	3072
NMTTP	4	0	1	E	0	M1
NMTTP	5	0	2	E	0	M1
NMTTP	6	0	3	E	0	M1
NMTTP	7	0	4	E	0	M1
NMTTP	8	0	5	E	0	M1
NMTTP	9	0	6	E	0	M1
NMTTP	10	0	7	E	0	M1
BRSTR	11	0	0
NMSCR	11	0	0	96	192	5
NMSTR	12	0	7
NMSCL	12	0	7	96	192	2
EXTAP	13	0	0
EXTAP	13	0	1
EXTAP	13	144	3
EXTAP	13	144	4
EXTAP	13	288	1
EXSTR	13	288	5
NMSUR	13	288	5	96	288	7
NMHLD	15	0	1	384
NMTAP	15	144	0
NMTAP	15	288	7
NMHLD	16	0	7	288
NMTAP	16	144	0
NMTAP	16	288	1
NMHLD	17	0	1	192
NMHLD	17	0	7	192
NMTAP	17	288	2
NMTAP	17	288	6
NMSTR	17	336	2
NMSXL	17	336	2	96	240	4
NMSTR	17	336	6
NMSXR	17	336	6	96	240	4
NMTAP	19	0	1
EXTAP	19	0	3
EXTAP	19	144	0
NMTAP	19	144	7
EXTAP	19	288	4
NMTAP	19	288	6
NMTAP	20	48	0
EXTAP	20	48	7
BRTAP	20	192	1
BRTAP	20	192	5
NMTAP	21	0	2
NMHLD	21	0	3	1248
NMTAP	21	96	2
NMTAP	21	192	1
NMTAP	21	288	1
NMTAP	22	0	0
NMTAP	22	96	0
NMTAP	22	192	7
NMTAP	22	288	7
NMTAP	23	0	0
NMTAP	23	96	0
NMTAP	23	192	1
NMTAP	23	288	1
NMTAP	24	0	2
NMTAP	24	96	2
NMTAP	24	192	2
NMTAP	24	192	3
NMTAP	24	288	3
NMTAP	24	288	4
NMHLD	25	0	4	1152
NMTAP	25	0	5
NMTAP	25	96	5
NMTAP	25	192	6
NMTAP	25	288	6
NMTAP	26	0	7
NMTAP	26	96	7
NMTAP	26	192	0
NMTAP	26	288	0
NMTAP	27	0	7
NMTAP	27	96	7
NMTAP	27	192	6
NMTAP	27	288	6
NMSTR	28	0	5
NMSXR	28	0	5	96	192	4
BRHLD	29	0	2	192
BRTAP	29	0	6
NMTAP	29	96	0
NMHLD	29	192	7	192
NMTAP	29	288	0
NMHLD	30	0	1	192
NMTAP	30	96	0
NMHLD	30	192	6	192
NMTAP	30	288	7
NMHLD	31	0	0	192
NMTAP	31	96	7
NMHLD	31	192	5	192
NMTAP	31	288	7
NMTAP	32	0	1
NMTAP	32	96	0
NMTAP	32	96	5
NMTAP	32	192	1
NMTAP	32	192	6
NMTAP	32	288	2
NMTAP	32	288	7
NMHLD	33	0	3	192
NMTAP	33	96	1
NMHLD	33	192	4	192
NMTAP	33	288	6
NMHLD	34	0	2	192
NMTAP	34	96	0
NMHLD	34	192	5	192
NMTAP	34	288	7
NMHLD	35	0	1	96
NMHLD	35	96	2	96
NMHLD	35	192	3	96
NMSTR	35	288	4
NMSCR	35	288	4	96	288	3
BRTAP	37	0	0
BRTAP	37	0	7
NMTAP	37	96	1
NMTAP	37	144	1
NMTAP	37	192	0
NMTAP	37	240	0
NMTAP	37	288	2
NMTAP	38	0	6
NMTAP	38	48	6
NMTAP	38	96	7
NMTAP	38	144	7
NMTAP	38	192	5
NMTAP	38	288	4
NMTAP	38	288	5
NMHLD	39	0	2	96
NMHLD	39	0	3	96
NMTAP	39	144	2
NMTAP	39	144	3
NMTAP	39	240	0
NMTAP	39	240	5
NMTAP	39	336	2
NMTAP	39	336	7
NMTAP	40	48	4
NMTAP	40	48	6
NMSTR	40	96	4
NMSUL	40	96	4	96	96	0
NMTAP	40	96	6
NMTAP	41	0	6
NMTAP	41	0	7
NMTAP	41	96	3
NMTAP	41	96	4
NMTAP	41	192	2
NMTAP	41	240	2
NMTAP	41	288	3
NMTAP	41	336	1
NMTAP	42	48	6
NMTAP	42	48	7
NMTAP	42	144	0
NMTAP	42	144	1
NMTAP	42	240	2
NMTAP	42	240	6
NMTAP	42	288	2
NMTAP	42	288	6
NMTAP	43	0	4
NMTAP	43	0	5
NMTAP	43	48	4
NMTAP	43	48	5
NMTAP	43	144	1
NMTAP	43	144	7
NMTAP	43	288	2
NMTAP	43	288	3
NMTAP	43	336	2
NMTAP	43	336	3
NMSTR	44	48	0
NMSUL	44	48	0	96	144	2
NMSTR	44	48	6
NMSCL	44	48	6	96	144	3
NMTAP	45	0	0
NMTAP	45	0	1
NMTAP	45	48	0
NMTAP	45	48	1
NMTAP	45	144	4
NMTAP	45	144	6
NMTAP	45	288	6
NMTAP	45	288	7
NMTAP	45	336	6
NMTAP	45	336	7
NMTAP	46	48	1
NMSTR	46	48	3
NMSF_	46	48	3	96	144	7
BRTAP	47	0	1
BRTAP	47	0	5
NMTAP	47	96	1
NMTAP	47	96	5
NMTAP	47	192	6
NMSTR	47	288	6
NMSI_	47	288	6	96	48	2
NMTAP	48	0	0
NMSTR	48	96	0
NMSI_	48	96	0	96	48	4
NMTAP	48	192	7
NMSTR	48	288	7
NMSI_	48	288	7	96	48	3
NMTAP	49	0	2
NMSTR	49	96	2
NMSI_	49	96	2	96	48	7
NMTAP	49	192	5
NMSTR	49	288	5
NMSI_	49	288	5	96	48	0
NMTAP	50	0	1
NMTAP	50	96	1
NMTAP	50	192	0
NMTAP	50	192	1
NMTAP	50	288	2
NMTAP	50	288	7
NMHLD	51	0	3	96
NMHLD	51	0	6	96
NMSTR	51	144	3
NMSCL	51	144	3	96	336	5
NMSTR	51	144	6
NMSUL	51	144	6	96	336	4
NMTAP	53	0	2
NMTAP	53	48	2
NMTAP	53	96	3
NMTAP	53	192	1
NMTAP	53	240	0
NMTAP	53	240	1
NMTAP	53	336	6
NMTAP	54	0	6
NMTAP	54	0	7
NMTAP	54	96	5
NMTAP	54	144	4
NMTAP	54	144	5
NMTAP	54	240	3
NMTAP	54	288	3
NMTAP	54	288	4
EXSTR	55	96	1
NMSI_	55	96	1	96	48	5
EXSTR	55	240	6
NMSI_	55	240	6	96	48	0
EXSTR	56	0	2
NMSI_	56	0	2	96	48	4
EXSTR	56	144	5
NMSUL	56	144	5	96	144	3
EXSTR	57	96	2
NMSI_	57	96	2	96	48	6
EXSTR	57	240	5
NMSI_	57	240	5	96	48	3
EXSTR	58	0	1
NMSI_	58	0	1	96	48	7
EXSTR	58	144	6
NMSI_	58	144	6	96	48	3
EXSTR	58	288	0
NMSCR	58	288	0	96	1152	7
NMTTP	59	0	0	C	1	M1
NMTTP	63	0	0	C	0	M1
NMTTP	63	0	2	E	0	M1
NMTTP	63	0	6	E	0	M1
NMTTP	64	0	3	E	0	M1
NMTTP	64	0	7	E	0	M1
NMTHO	65	0	0	384	C	0	M1
BRTAP	67	0	0
BRTAP	67	0	7
NMTAP	67	96	4
NMTAP	67	96	5
NMSTR	67	144	4
NMSCL	67	144	4	96	48	1
NMTAP	67	144	5
EXTAP	67	240	7
EXTAP	67	288	7
NMTAP	68	0	0
NMTAP	68	0	6
NMTAP	68	96	2
NMTAP	68	96	3
NMTAP	68	144	2
NMSTR	68	144	3
NMSI_	68	144	3	96	48	6
EXTAP	68	240	0
EXSTR	68	288	0
NMSCR	68	288	0	96	288	7
NMHLD	70	0	0	96
NMHLD	70	96	2	96
NMHLD	70	192	4	96
NMTAP	70	288	6
NMTAP	71	0	0
NMTAP	71	0	7
NMTAP	71	96	2
NMTAP	71	96	3
NMTAP	71	144	2
NMSTR	71	144	3
NMSCR	71	144	3	96	48	6
EXTAP	71	240	0
EXTAP	71	288	0
NMTAP	72	0	1
NMTAP	72	0	7
NMTAP	72	96	4
NMTAP	72	96	5
NMSTR	72	144	4
NMSI_	72	144	4	96	48	1
NMTAP	72	144	5
EXTAP	72	240	7
EXSTR	72	288	7
NMSCL	72	288	7	96	288	0
NMHLD	74	0	7	96
NMHLD	74	96	5	96
NMHLD	74	192	3	96
NMTAP	74	288	1
NMTAP	75	0	0
NMTAP	75	0	7
NMTAP	75	96	1
NMHLD	75	144	1	96
NMTAP	75	240	3
NMTAP	75	288	3
NMTAP	76	0	2
NMTAP	76	0	4
NMTAP	76	96	6
NMHLD	76	144	6	96
NMTAP	76	240	4
NMTAP	76	288	4
BRTAP	77	0	1
BRTAP	77	0	7
BRTAP	77	144	4
BRTAP	77	144	5
BRSTR	77	288	1
NMSXR	77	288	1	96	288	4
BRTAP	77	288	3
NMTAP	78	288	5
EXSTR	79	0	4
NMSCL	79	0	4	96	48	1
NMTAP	79	0	6
NMSTR	79	144	0
NMSCL	79	144	0	96	48	5
NMTAP	79	288	2
NMTAP	80	0	2
NMSTR	80	0	3
NMSCR	80	0	3	96	48	6
NMSTR	80	144	7
NMSCR	80	144	7	96	48	2
NMTAP	80	288	5
NMHLD	81	0	4	192
NMHLD	81	0	5	192
NMTAP	81	288	3
NMTAP	81	288	6
NMSTR	81	336	3
NMSCL	81	336	3	96	144	0
NMSTR	81	336	6
NMSCL	81	336	6	96	144	3
NMTAP	82	288	0
NMSTR	83	0	1
NMSI_	83	0	1	96	48	4
NMTAP	83	96	5
NMTAP	83	144	5
NMTAP	83	240	3
NMTAP	83	240	7
NMTAP	83	288	3
NMTAP	83	288	7
NMSTR	84	0	6
NMSI_	84	0	6	96	48	3
NMTAP	84	96	2
NMTAP	84	144	2
NMTAP	84	240	0
NMTAP	84	240	1
NMTAP	84	288	0
NMTAP	84	288	1
NMSTR	85	0	2
NMSI_	85	0	2	96	48	7
NMTAP	85	96	6
NMTAP	85	144	6
NMTAP	85	240	0
NMTAP	85	240	4
NMTAP	85	288	0
NMTAP	85	288	4
NMSTR	86	0	5
NMSI_	86	0	5	96	48	0
NMTAP	86	96	1
NMTAP	86	144	1
NMTAP	86	240	2
NMTAP	86	240	3
NMTAP	86	288	2
NMTAP	86	288	3
NMSTR	87	0	1
NMSI_	87	0	1	96	48	5
NMTAP	87	96	7
NMTAP	87	144	7
NMTAP	87	240	4
NMTAP	87	240	6
NMTAP	87	288	4
NMTAP	87	288	6
NMSTR	88	0	7
NMSI_	88	0	7	96	48	3
NMTAP	88	96	1
NMTAP	88	144	1
NMTAP	88	240	2
NMTAP	88	240	4
NMTAP	88	288	2
NMTAP	88	288	4
NMTAP	89	0	1
NMHLD	89	48	1	96
NMTAP	89	144	3
NMHLD	89	192	3	96
NMTAP	89	288	5
NMHLD	89	336	5	96
NMTAP	90	48	7
NMTAP	90	96	7
NMTAP	90	192	4
NMTAP	90	192	6
NMTAP	90	288	1
NMTAP	90	288	3
BRSTR	91	0	0
NMSI_	91	0	0	96	96	6
BRTAP	91	0	7
CNSI_	91	192	6	0	96	2
CNSI_	91	288	2	0	96	4
NMTTP	92	0	0	B	0	M1
NMTTP	92	0	0	E	0	M1
NMTTP	92	0	7	B	0	M1
NMHLD	93	0	3	384
NMHLD	94	0	2	384
NMSTR	95	0	1
NMSUR	95	0	1	96	480	3
NMHLD	97	0	4	384
NMHLD	98	0	5	384
NMTAP	99	0	6
NMTAP	99	144	7
NMSTR	99	288	7
NMSSL	99	288	7	96	288	3
NMHLD	101	0	2	384
NMTTP	101	192	3	B	0	M1
NMTTP	101	192	3	A	0	M1
NMHLD	102	0	5	384
NMTTP	102	192	4	B	0	M1
NMTTP	102	192	4	A	0	M1
NMHLD	103	0	1	384
NMTTP	103	192	2	B	0	M1
NMTTP	103	192	2	A	0	M1
NMHLD	104	0	6	384
NMTTP	104	192	5	B	0	M1
NMTTP	104	192	5	A	0	M1
NMHLD	105	0	0	384
NMTTP	105	192	1	B	0	M1
NMTTP	105	192	1	A	0	M1
NMHLD	106	0	7	384
NMTTP	106	192	6	B	0	M1
NMTTP	106	192	6	A	0	M1
NMSTR	107	0	0
NMSXL	107	0	0	96	480	4
NMSXR	107	0	0	96	480	4
BRSTR	109	0	2
NMSI_	109	0	2	96	48	7
BRTAP	109	0	7
NMSTR	109	96	6
NMSI_	109	96	6	96	48	3
NMTAP	109	192	0
NMTAP	109	240	0
NMTAP	109	288	0
NMSTR	110	0	5
NMSI_	110	0	5	96	48	0
NMSTR	110	96	1
NMSI_	110	96	1	96	48	4
NMTAP	110	192	7
NMTAP	110	240	7
NMTAP	110	288	7
NMTAP	111	0	6
NMTAP	111	48	6
NMTAP	111	96	4
NMTAP	111	144	4
NMTAP	111	192	3
NMTAP	111	240	3
NMTAP	111	288	1
NMTAP	111	336	1
NMTAP	112	0	6
NMTAP	112	48	6
NMTAP	112	96	4
NMTAP	112	144	4
NMSTR	112	192	3
NMSI_	112	192	3	96	48	7
NMTAP	113	0	0
NMSTR	113	0	6
NMSI_	113	0	6	96	48	3
NMSTR	113	96	2
NMSI_	113	96	2	96	48	7
NMTAP	113	192	4
NMTAP	113	240	4
NMTAP	113	288	4
NMSTR	114	0	1
NMSI_	114	0	1	96	48	4
NMSTR	114	96	5
NMSI_	114	96	5	96	48	0
NMTAP	114	192	3
NMTAP	114	240	3
NMTAP	114	288	3
NMTAP	115	0	2
NMTAP	115	48	2
NMTAP	115	96	0
NMTAP	115	144	0
NMTAP	115	192	7
NMTAP	115	240	7
NMTAP	115	288	5
NMTAP	115	336	5
NMTAP	116	0	3
NMTAP	116	48	3
NMTAP	116	96	4
NMTAP	116	192	2
NMTAP	116	192	5
BRTAP	116	288	0
BRTAP	116	288	7
NMSTR	117	0	0
NMSI_	117	0	0	96	48	5
NMSTR	117	0	1
NMSV_	117	0	1	96	48	4
NMTAP	117	192	3
NMTAP	117	240	3
NMTAP	117	288	4
NMSTR	118	0	6
NMSV_	118	0	6	96	48	3
NMSTR	118	0	7
NMSI_	118	0	7	96	48	2
NMTAP	118	192	4
NMTAP	118	240	4
NMTAP	118	288	3
NMSTR	119	0	0
NMSI_	119	0	0	96	48	4
NMSTR	119	0	1
NMSI_	119	0	1	96	48	5
NMSTR	119	192	6
NMSI_	119	192	6	96	48	2
NMSTR	119	192	7
NMSI_	119	192	7	96	48	3
NMSTR	120	0	4
NMSI_	120	0	4	96	48	0
NMSTR	120	0	5
NMSI_	120	0	5	96	48	1
NMSTR	120	192	2
NMSI_	120	192	2	96	48	6
NMSTR	120	192	3
NMSI_	120	192	3	96	48	7
NMTAP	121	0	1
NMHLD	121	48	1	96
NMTAP	121	144	7
NMHLD	121	192	7	96
NMTAP	121	288	5
NMHLD	121	336	5	96
NMTAP	122	48	6
NMTAP	122	96	6
NMTAP	122	192	5
NMTAP	122	192	7
NMTAP	122	288	0
NMTAP	122	288	2
BRSTR	123	0	3
NMSCL	123	0	3	96	192	0
BRSTR	123	0	4
NMSCR	123	0	4	96	192	7
EXTAP	124	0	0
EXTAP	124	32	7
EXTAP	124	64	0
EXTAP	124	96	7
EXTAP	124	128	0
EXTAP	124	160	7
BXTAP	124	192	0
NMTAP	125	0	2
NMTAP	125	0	3
NMTAP	125	48	2
NMTAP	125	48	3
NMTAP	125	144	0
NMTAP	125	144	1
NMTAP	125	192	0
NMTAP	125	192	1
NMTAP	125	288	4
NMTAP	125	288	5
NMTAP	125	336	4
NMTAP	125	336	5
NMTAP	126	48	6
NMTAP	126	48	7
NMTAP	126	96	6
NMTAP	126	96	7
NMTAP	126	192	2
NMTAP	126	192	3
NMTAP	126	240	2
NMTAP	126	240	3
NMTAP	126	336	4
NMTAP	126	336	5
NMTAP	127	0	4
NMTAP	127	0	5
NMTAP	127	96	0
NMTAP	127	96	1
NMTAP	127	144	0
NMTAP	127	144	1
NMTAP	127	240	6
NMTAP	127	240	7
NMTAP	127	288	6
NMTAP	127	288	7
NMTAP	128	0	3
NMTAP	128	0	4
NMTAP	128	48	3
NMTAP	128	48	4
NMTAP	128	144	0
NMTAP	128	144	1
NMTAP	128	192	0
NMTAP	128	192	1
NMTAP	128	240	2
NMTAP	128	240	7
NMTAP	128	288	2
NMTAP	128	288	7
NMTAP	128	336	2
NMTAP	128	336	7
BRTAP	129	48	4
NMTAP	129	48	5
BRTAP	129	96	4
NMTAP	129	96	5
NMTAP	129	192	0
BRTAP	129	192	6
NMTAP	129	240	0
BRTAP	129	240	6
BRTAP	129	336	2
NMTAP	129	336	3
BRTAP	130	0	2
NMTAP	130	0	3
NMTAP	130	96	1
BRTAP	130	96	7
NMTAP	130	144	1
BRTAP	130	144	7
BRTAP	130	240	5
NMTAP	130	240	6
BRTAP	130	288	5
NMTAP	130	288	6
NMTAP	131	0	1
BRTAP	131	0	3
NMTAP	131	48	1
BRTAP	131	48	3
BRTAP	131	144	0
NMTAP	131	144	7
BRTAP	131	192	0
NMTAP	131	192	7
NMTAP	131	288	3
BRTAP	131	288	5
NMTAP	131	336	3
BRTAP	131	336	5
BRTAP	132	48	2
NMTAP	132	48	4
BRTAP	132	96	2
NMTAP	132	96	4
NMTAP	132	144	1
BRTAP	132	144	5
NMTAP	132	192	1
BRTAP	132	192	5
BRTAP	132	240	0
NMTAP	132	240	6
BRTAP	132	288	0
NMTAP	132	288	6
BRTAP	132	336	0
BRHLD	132	336	6	432
BRSTR	134	0	7
NMSUL	134	0	7	96	672	6
CNSCL	136	0	6	0	768	0

T_REC_TAP	349
T_REC_BRK	42
T_REC_XTP	21
T_REC_BXX	1
T_REC_HLD	48
T_REC_XHO	0
T_REC_BHO	3
T_REC_BXH	0
T_REC_STR	54
T_REC_BST	7
T_REC_XST	13
T_REC_XBS	0
T_REC_TTP	28
T_REC_THO	1
T_REC_SLD	75
T_REC_BSL	0
T_REC_ALL	642
T_NUM_TAP	465
T_NUM_BRK	53
T_NUM_HLD	49
T_NUM_SLD	75
T_NUM_ALL	642
T_JUDGE_TAP	515
T_JUDGE_HLD	323
T_JUDGE_SLD	75
T_JUDGE_ALL	913
TTM_EACHPAIRS	152
TTM_SCR_TAP	232500
TTM_SCR_BRK	137800
TTM_SCR_HLD	49000
TTM_SCR_SLD	112500
TTM_SCR_ALL	531800
TTM_SCR_S	510750
TTM_SCR_SS	526500
TTM_RAT_ACV	10100

