VERSION	0.00.00	1.04.00
FES_MODE	0
BPM_DEF	227.000	227.000	227.000	227.000
MET_DEF	4	4
RESOLUTION	384
CLK_DEF	384
COMPATIBLE_CODE	MA2

BPM	0	0	227.000
MET	0	0	4	4

NMHLD	3	0	2	384
NMHLD	4	0	3	384
NMHLD	5	0	4	384
NMTAP	6	0	5
NMHLD	7	0	5	384
NMHLD	8	0	4	384
NMHLD	9	0	3	384
NMTAP	10	0	2
NMTAP	11	0	2
NMTAP	11	192	2
NMTAP	12	0	1
NMTAP	12	192	1
NMTAP	13	0	0
NMTAP	13	192	0
NMTAP	14	0	6
NMTAP	14	0	7
NMTAP	15	0	5
NMTAP	15	192	5
NMTAP	16	0	6
NMTAP	16	192	6
NMTAP	17	0	7
NMTAP	17	192	7
NMTAP	18	0	0
NMTAP	18	0	1
NMHLD	19	0	0	384
NMHLD	19	0	7	384
NMTTP	21	0	0	B	0	L1
NMTTP	21	0	1	B	0	L1
NMTTP	21	192	2	B	0	L1
NMTTP	21	192	3	B	0	L1
NMTTP	22	0	4	B	0	L1
NMTTP	22	0	5	B	0	L1
NMTTP	22	192	6	B	0	L1
NMTTP	22	192	7	B	0	L1
NMTTP	23	0	1	B	0	L1
NMTTP	23	96	2	B	0	L1
NMTTP	23	192	3	B	0	L1
NMTTP	24	0	6	B	0	L1
NMTTP	24	96	5	B	0	L1
NMTTP	24	192	4	B	0	L1
NMTTP	25	0	2	B	0	L1
NMTTP	25	0	3	E	0	L1
NMTTP	25	192	0	B	0	L1
NMTTP	25	192	1	E	0	L1
NMTTP	26	0	6	B	0	L1
NMTTP	26	0	7	E	0	L1
NMTTP	26	192	4	B	0	L1
NMTTP	26	192	5	E	0	L1
NMTTP	27	0	1	B	0	L1
NMTTP	27	96	2	B	0	L1
NMTTP	27	192	3	B	0	L1
NMTTP	27	288	4	B	0	L1
NMTTP	28	0	0	C	0	L1
NMTAP	29	0	1
NMTAP	29	96	1
NMTAP	29	192	1
NMTAP	30	0	2
NMTAP	30	96	2
NMTAP	30	192	2
NMTAP	31	0	3
NMTAP	31	96	3
NMTAP	31	192	3
NMTAP	32	0	4
NMTAP	32	0	5
NMTAP	33	0	6
NMTAP	33	96	6
NMTAP	33	192	6
NMTAP	34	0	5
NMTAP	34	96	5
NMTAP	34	192	5
NMTAP	35	0	4
NMTAP	35	96	4
NMTAP	35	192	4
NMTAP	36	0	2
NMTAP	36	0	3
NMTAP	37	0	1
NMTAP	37	96	1
NMTAP	37	192	0
NMTAP	37	192	1
NMTAP	38	0	2
NMTAP	38	96	2
NMTAP	38	192	2
NMTAP	38	192	3
NMTAP	39	0	4
NMTAP	39	96	4
NMTAP	39	192	4
NMTAP	39	192	5
NMTAP	40	0	6
NMTAP	40	0	7
NMTAP	40	96	6
NMTAP	40	96	7
NMTAP	40	192	6
NMTAP	40	192	7
NMTAP	41	0	5
NMTAP	41	96	5
NMTAP	41	192	4
NMTAP	41	192	5
NMTAP	42	0	3
NMTAP	42	96	3
NMTAP	42	192	3
NMTAP	42	192	4
NMSTR	43	0	5
NMSUL	43	0	5	96	480	3
NMSTR	45	0	2
NMSUR	45	0	2	96	480	4
BXTAP	47	0	6
NMTAP	47	96	6
NMTAP	47	192	6
NMTAP	47	288	6
NMTAP	48	0	5
NMTAP	48	96	5
NMTAP	48	192	5
NMTAP	48	288	5
NMTAP	49	0	4
NMTAP	49	96	4
NMTAP	49	192	4
NMTAP	49	288	4
NMTAP	50	0	2
NMTAP	50	0	3
NMTAP	51	0	1
NMTAP	51	96	1
NMTAP	51	192	1
NMTAP	51	288	1
NMTAP	52	0	2
NMTAP	52	96	2
NMTAP	52	192	2
NMTAP	52	288	2
NMTAP	53	0	3
NMTAP	53	96	3
NMTAP	53	192	3
NMTAP	53	288	3
NMTAP	54	0	4
NMTAP	54	0	5
EXSTR	55	0	6
NMSI_	55	0	6	96	288	3
EXSTR	55	0	7
NMSI_	55	0	7	96	288	2
EXSTR	57	0	0
NMSI_	57	0	0	96	288	5
EXSTR	57	0	1
NMSI_	57	0	1	96	288	4
NMSTR	59	0	6
NMSXL	59	0	6	96	1056	3
NMTAP	63	0	2
NMTAP	64	0	3
NMHLD	65	0	3	384
NMHLD	65	0	4	384
BXTAP	67	0	5
NMTAP	67	96	5
NMTAP	67	192	6
NMTAP	67	288	6
NMTAP	68	0	7
NMTAP	68	96	7
NMTAP	68	192	0
NMTAP	68	192	1
NMTAP	69	0	2
NMTAP	69	96	2
NMTAP	69	192	1
NMTAP	69	288	1
NMTAP	70	0	0
NMTAP	70	96	0
NMTAP	70	192	6
NMTAP	70	192	7
NMTAP	71	0	6
NMTAP	71	96	6
NMTAP	71	192	5
NMTAP	71	288	5
NMTAP	72	0	4
NMTAP	72	96	4
NMTAP	72	192	2
NMTAP	72	192	3
NMTAP	73	0	1
NMTAP	73	96	1
NMTAP	73	192	2
NMTAP	73	288	2
NMTAP	74	0	3
NMTAP	74	96	3
NMTAP	74	192	4
NMTAP	74	192	5
NMTAP	75	0	5
NMTAP	75	96	5
NMTAP	75	192	4
NMTAP	75	288	4
NMTAP	76	0	3
NMTAP	76	96	3
NMTAP	76	192	2
NMTAP	76	192	4
EXTAP	77	0	3
EXTAP	77	0	5
EXTAP	77	144	3
EXTAP	77	144	5
EXTAP	77	288	3
EXTAP	77	288	5
EXTAP	78	192	3
EXTAP	78	192	4
NMTAP	79	0	2
NMTAP	79	96	2
NMTAP	79	192	0
NMTAP	79	192	1
NMTAP	79	288	0
NMTAP	79	288	1
NMTAP	80	0	7
NMTAP	80	96	7
NMTAP	80	192	6
NMTAP	80	192	7
NMTAP	81	0	5
NMTAP	81	96	5
NMTAP	81	192	6
NMTAP	81	192	7
NMTAP	81	288	6
NMTAP	81	288	7
NMTAP	82	0	0
NMTAP	82	96	0
NMTAP	82	192	0
NMTAP	82	192	1
NMTAP	83	0	1
NMTAP	83	96	1
NMTAP	83	192	2
NMTAP	83	192	3
NMTAP	83	288	2
NMTAP	83	288	3
NMTAP	84	0	4
NMTAP	84	96	4
NMTAP	84	192	4
NMTAP	84	192	5
NMTAP	85	0	6
NMTAP	85	96	6
NMTAP	85	192	4
NMTAP	85	192	5
NMTAP	85	288	4
NMTAP	85	288	5
NMTAP	86	0	3
NMTAP	86	96	3
NMTAP	86	192	2
NMTAP	86	192	3
NMTAP	87	0	4
NMTAP	87	96	4
NMTAP	87	192	5
NMTAP	87	288	5
NMTAP	88	0	6
NMTAP	88	96	6
NMTAP	88	192	7
NMTAP	88	288	7
NMTAP	89	0	0
NMTAP	89	96	0
NMTAP	89	192	1
NMTAP	89	288	1
NMTAP	90	0	2
NMTAP	90	96	2
NMTAP	90	192	3
NMTAP	90	192	4
NMHLD	91	0	3	384
NMHLD	91	0	4	384
NMSTR	93	0	2
NMSI_	93	0	2	96	288	5
NMSTR	95	0	6
NMSI_	95	0	6	96	288	2
NMSTR	97	0	1
NMSI_	97	0	1	96	288	5
NMSTR	99	0	6
NMSI_	99	0	6	96	288	3
NMHLD	101	0	2	192
NMTAP	101	192	3
NMTAP	102	0	2
NMTAP	102	0	3
NMTAP	102	192	2
NMTAP	102	192	3
NMHLD	103	0	1	192
NMTAP	103	192	0
NMTAP	104	0	0
NMTAP	104	0	1
NMTAP	104	192	0
NMTAP	104	192	7
NMHLD	105	0	6	192
NMTAP	105	192	7
NMTAP	106	0	6
NMTAP	106	0	7
NMTAP	106	192	6
NMTAP	106	192	7
NMHLD	107	0	5	192
NMTAP	107	192	4
NMTAP	108	0	4
NMTAP	108	0	5
BRTAP	109	0	5
NMTAP	109	96	5
NMTAP	109	192	4
NMTAP	109	192	5
NMTAP	109	288	4
NMTAP	109	288	5
NMTAP	110	0	6
NMTAP	110	96	6
NMTAP	110	192	6
NMTAP	110	192	7
NMTAP	110	288	6
NMTAP	110	288	7
NMTAP	111	0	0
NMTAP	111	96	0
NMTAP	111	192	0
NMTAP	111	192	1
NMTAP	111	288	0
NMTAP	111	288	1
NMTAP	112	0	2
NMTAP	112	96	2
NMTAP	112	192	2
NMTAP	112	192	3
NMTAP	113	0	2
NMTAP	113	96	2
NMTAP	113	192	2
NMTAP	113	192	3
NMTAP	113	288	2
NMTAP	113	288	3
NMTAP	114	0	1
NMTAP	114	96	1
NMTAP	114	192	0
NMTAP	114	192	1
NMTAP	114	288	0
NMTAP	114	288	1
NMTAP	115	0	7
NMTAP	115	96	7
NMTAP	115	192	6
NMTAP	115	192	7
NMTAP	115	288	6
NMTAP	115	288	7
NMTAP	116	0	5
NMTAP	116	96	5
NMTAP	116	192	4
NMTAP	116	192	5
NMTAP	117	0	5
NMTAP	117	48	5
NMTAP	117	96	5
NMTAP	117	192	6
NMTAP	117	192	7
NMTAP	117	288	6
NMTAP	117	288	7
NMTAP	118	0	0
NMTAP	118	96	1
NMTAP	118	192	2
NMTAP	118	192	3
NMTAP	119	0	2
NMTAP	119	48	2
NMTAP	119	96	2
NMTAP	119	192	0
NMTAP	119	192	1
NMTAP	119	288	0
NMTAP	119	288	1
NMTAP	120	0	7
NMTAP	120	96	6
NMTAP	120	192	4
NMTAP	120	192	5
NMTAP	121	0	6
NMTAP	121	48	6
NMTAP	121	96	6
NMTAP	121	192	4
NMTAP	121	192	5
NMTAP	121	288	4
NMTAP	121	288	5
NMTAP	122	0	3
NMTAP	122	96	2
NMTAP	122	192	0
NMTAP	122	192	1
NMTAP	123	0	1
NMTAP	123	48	1
NMTAP	123	96	1
NMTAP	123	192	2
NMTAP	123	192	3
NMTAP	123	288	2
NMTAP	123	288	3
NMTAP	124	0	4
NMTAP	124	96	5
NMTAP	124	192	6
NMTAP	124	192	7
NMTAP	125	0	7
NMTAP	125	96	6
NMTAP	125	192	5
NMTAP	125	288	4
NMTAP	126	0	3
NMTAP	126	96	2
NMTAP	126	192	0
NMTAP	126	192	1
NMTAP	127	0	0
NMTAP	127	96	1
NMTAP	127	192	2
NMTAP	127	288	3
NMTAP	128	0	4
NMTAP	128	96	5
NMTAP	128	192	6
NMTAP	128	192	7
NMTAP	129	0	7
NMTAP	129	96	6
NMTAP	129	192	5
NMTAP	129	288	4
NMTAP	130	0	3
NMTAP	130	96	2
NMTAP	130	192	1
NMTAP	130	288	0
NMTAP	131	0	7
NMTAP	131	96	6
NMTAP	131	192	5
NMTAP	131	288	4
NMTAP	132	0	3
NMTAP	132	96	2
NMTAP	132	192	1
NMHLD	132	288	0	288
NMHLD	132	288	7	288
BXTAP	134	0	1
BXTAP	134	0	6

T_REC_TAP	326
T_REC_BRK	1
T_REC_XTP	8
T_REC_BXX	4
T_REC_HLD	18
T_REC_XHO	0
T_REC_BHO	0
T_REC_BXH	0
T_REC_STR	7
T_REC_BST	0
T_REC_XST	4
T_REC_XBS	0
T_REC_TTP	27
T_REC_THO	0
T_REC_SLD	11
T_REC_BSL	0
T_REC_ALL	406
T_NUM_TAP	372
T_NUM_BRK	5
T_NUM_HLD	18
T_NUM_SLD	11
T_NUM_ALL	406
T_JUDGE_TAP	377
T_JUDGE_HLD	124
T_JUDGE_SLD	11
T_JUDGE_ALL	512
TTM_EACHPAIRS	78
TTM_SCR_TAP	186000
TTM_SCR_BRK	13000
TTM_SCR_HLD	18000
TTM_SCR_SLD	16500
TTM_SCR_ALL	233500
TTM_SCR_S	226050
TTM_SCR_SS	233000
TTM_RAT_ACV	10021

