VERSION	0.00.00	1.04.00
FES_MODE	0
BPM_DEF	200.000	200.000	200.000	 80.000
MET_DEF	4	4
RESOLUTION	384
CLK_DEF	384
COMPATIBLE_CODE	MA2

BPM	0	0	200.000
BPM	33	0	188.000
BPM	34	0	177.000
BPM	34	192	169.000
BPM	34	288	165.000
BPM	35	0	160.000
BPM	35	96	155.000
BPM	35	192	150.000
BPM	35	288	145.000
BPM	36	0	140.000
BPM	36	96	135.000
BPM	36	192	132.000
BPM	45	0	140.000
BPM	49	0	150.000
BPM	69	0	160.000
BPM	77	0	 80.000
BPM	79	0	170.000
BPM	83	0	180.000
BPM	87	0	200.000
MET	0	0	4	4

NMTAP	1	0	1
NMTAP	1	0	4
NMTAP	1	96	2
NMTAP	1	192	3
NMTAP	1	192	6
NMTAP	1	288	5
NMTAP	1	336	4
NMTAP	2	48	2
NMTAP	2	96	3
NMTAP	2	192	1
NMTAP	2	192	4
NMTAP	2	288	3
NMTAP	2	288	6
NMTAP	3	0	4
NMTAP	3	0	5
NMTAP	3	96	3
NMTAP	3	96	4
NMTAP	3	192	2
NMTAP	3	192	3
NMTAP	3	288	1
NMTAP	3	336	0
NMTAP	4	48	6
NMTAP	4	96	7
BXTAP	4	192	0
BXTAP	4	192	5
NMTAP	5	0	1
NMTAP	5	0	3
NMTAP	5	96	2
NMTAP	5	192	4
NMTAP	5	192	6
NMTAP	5	288	5
NMTAP	5	336	4
NMTAP	6	48	1
NMTAP	6	96	3
NMTAP	6	192	0
NMTAP	6	192	4
NMTAP	6	288	1
NMTAP	6	288	5
NMTAP	7	0	2
NMTAP	7	0	6
NMTAP	7	96	7
NMTAP	7	144	7
NMTAP	7	192	1
NMTAP	7	240	1
NMTAP	7	288	5
NMTAP	7	336	5
NMSTR	8	0	3
BRSV_	8	0	3	96	96	0
NMSTR	8	0	4
BRSXL	8	0	4	96	96	4
BXTAP	8	288	1
BXTAP	8	288	5
NMTAP	9	0	2
NMTAP	9	48	3
NMTAP	9	96	1
NMTAP	9	96	4
NMTAP	9	144	2
NMTAP	9	192	3
NMTAP	9	240	2
NMTAP	9	288	1
NMTAP	9	288	4
NMTAP	9	336	3
NMTAP	10	0	2
NMTAP	10	48	3
NMTAP	10	96	1
NMTAP	10	96	4
NMTAP	10	144	2
NMTAP	10	192	3
NMTAP	10	240	2
NMTAP	10	288	1
NMTAP	10	288	4
EXTAP	11	0	2
EXTAP	11	0	3
EXTAP	11	48	3
EXTAP	11	48	4
EXTAP	11	96	4
EXTAP	11	96	5
NMTAP	11	192	5
NMTAP	11	240	4
NMTAP	11	288	3
NMTAP	11	288	6
NMTAP	11	336	5
NMTAP	12	0	4
NMTAP	12	48	5
NMTAP	12	96	3
NMTAP	12	96	6
NMTAP	12	144	4
NMTAP	12	192	5
NMTAP	12	240	4
NMSTR	12	288	3
NMSI_	12	288	3	96	48	0
NMTAP	12	288	6
NMSTR	13	0	7
NMSI_	13	0	7	96	48	4
NMSTR	13	96	1
NMSI_	13	96	1	96	48	6
NMSTR	13	192	5
NMSI_	13	192	5	96	48	2
NMSTR	13	288	3
NMSI_	13	288	3	96	48	0
NMSTR	14	0	7
NMSI_	14	0	7	96	48	4
NMTAP	14	96	2
NMTAP	14	192	1
NMTAP	14	240	1
NMTAP	14	288	3
NMTAP	14	336	2
NMSTR	15	0	4
NMSI_	15	0	4	96	48	7
NMSTR	15	96	0
NMSI_	15	96	0	96	48	3
NMTAP	15	192	6
NMTAP	15	240	6
NMTAP	15	288	4
NMTAP	15	336	5
NMSTR	16	0	3
NMSSR	16	0	3	96	96	7
EXTAP	16	288	0
EXTAP	16	288	7
NMTTP	17	0	3	E	0	M1
NMTAP	17	0	5
NMTAP	17	96	7
NMTTP	17	144	5	E	0	M1
NMTAP	17	144	7
NMHLD	17	240	2	96
NMHLD	17	336	0	96
NMHLD	18	48	7	96
NMTAP	18	144	5
NMHLD	18	192	5	96
NMTTP	18	288	0	E	0	M1
NMTAP	19	0	1
NMTAP	19	48	3
NMTAP	19	96	2
NMTAP	19	144	4
NMHLD	19	192	3	96
EXTAP	19	240	5
EXTAP	19	264	6
EXTAP	19	288	7
NMTAP	19	336	3
NMTAP	20	0	2
NMTAP	20	48	1
NMTAP	20	96	0
NMTAP	20	144	7
NMTTP	20	192	3	B	0	M1
NMTTP	20	192	4	B	0	M1
NMTTP	20	192	4	E	0	M1
NMTAP	20	192	6
NMSTR	20	288	6
NMSI_	20	288	6	96	48	4
EXSTR	21	0	7
NMSI_	21	0	7	96	48	3
NMSTR	21	96	6
NMSI_	21	96	6	96	48	2
EXSTR	21	192	7
NMSI_	21	192	7	96	48	1
NMTAP	21	288	6
NMSTR	21	336	6
NMSLL	21	336	6	96	96	2
NMTAP	22	48	0
NMSTR	22	96	0
NMSI_	22	96	0	96	48	4
NMTAP	22	192	7
BRTAP	22	240	7
NMTAP	23	0	1
NMTAP	23	48	1
NMTAP	23	96	7
NMTAP	23	144	7
NMTAP	23	192	5
NMTAP	23	240	5
NMSTR	23	288	3
BRSI_	23	288	3	96	96	6
BRTAP	24	0	0
CNSI_	24	96	6	0	48	4
CNSI_	24	144	4	0	144	0
NMHLD	25	0	1	384
NMHLD	26	0	3	384
NMHLD	27	0	4	384
NMHLD	28	0	6	192
NMTTP	28	192	0	C	0	M1
NMHLD	29	0	6	384
NMTTP	29	192	5	B	0	M1
NMHLD	30	0	4	384
NMTTP	30	192	4	E	0	M1
NMHLD	31	0	3	384
NMTTP	31	192	3	E	0	M1
NMHLD	32	0	1	320
EXTAP	32	192	2
EXSTR	32	256	2
NMSCR	32	256	2	96	320	1
EXTAP	32	320	2
CNSLL	33	288	1	0	256	5
CNSI_	34	160	5	0	224	3
CNSUL	35	0	3	0	576	2
EXSTR	36	288	0
NMSCL	36	288	0	96	48	5
NMSCR	36	288	0	96	48	3
EXTAP	37	0	0
NMTAP	37	96	2
NMTAP	37	96	6
NMTAP	37	144	1
NMTAP	37	144	5
NMSTR	37	192	0
NMSI_	37	192	0	96	48	4
NMSTR	37	192	4
NMSI_	37	192	4	96	48	6
NMTAP	38	0	3
NMTAP	38	0	5
NMTAP	38	48	2
NMTAP	38	48	4
NMTAP	38	96	1
NMTAP	38	96	3
NMTAP	38	144	2
NMTAP	38	144	4
NMSTR	38	192	3
NMSI_	38	192	3	96	48	0
NMSI_	38	192	3	96	48	6
NMTAP	38	192	5
BRTAP	39	0	1
NMTAP	39	0	5
NMTAP	39	96	0
NMTAP	39	96	6
NMTAP	39	144	1
NMTAP	39	144	7
NMTAP	39	192	2
NMTAP	39	192	3
NMTAP	39	240	3
NMTAP	39	240	4
NMTAP	39	288	4
NMTAP	39	288	5
EXTAP	40	0	3
EXTAP	40	0	6
NMTAP	40	48	2
NMTAP	40	48	5
EXTAP	40	96	1
EXTAP	40	96	4
NMTAP	40	144	2
NMTAP	40	144	5
EXSTR	40	192	3
NMSI_	40	192	3	96	24	1
EXSTR	40	192	6
NMSI_	40	192	6	96	48	4
NMSTR	41	0	0
NMSCR	41	0	0	96	96	4
NMSTR	41	96	4
NMSCR	41	96	4	96	96	0
NMSTR	41	192	0
NMSCR	41	192	0	96	96	4
NMTAP	41	288	4
NMSTR	42	0	7
NMSCL	42	0	7	96	96	3
NMSTR	42	96	3
NMSCL	42	96	3	96	96	7
NMSTR	42	192	7
NMSCL	42	192	7	96	96	3
NMTAP	42	288	3
NMSTR	43	0	0
NMSCR	43	0	0	96	96	3
NMSTR	43	96	3
NMSCR	43	96	3	96	96	6
NMSTR	43	192	6
NMSCR	43	192	6	96	96	1
NMSTR	43	288	1
NMSCR	43	288	1	96	96	4
NMSTR	44	0	4
NMSI_	44	0	4	96	96	0
NMTAP	44	96	7
NMTAP	44	192	5
BXTAP	44	288	2
BXTAP	44	288	6
NMHLD	45	0	1	48
NMTAP	45	0	5
NMTAP	45	48	4
NMTAP	45	72	4
NMHLD	45	96	1	48
NMTAP	45	144	3
NMHLD	45	192	1	48
NMTAP	45	240	2
NMTAP	45	264	2
NMHLD	45	288	1	48
NMTAP	45	336	3
NMHLD	46	0	1	48
NMTAP	46	0	4
NMTAP	46	48	5
NMTAP	46	72	5
NMHLD	46	96	1	48
NMTAP	46	144	7
NMHLD	46	192	1	48
NMTAP	46	240	0
NMTAP	46	288	2
NMTAP	46	288	7
NMTAP	47	0	3
NMHLD	47	0	6	48
NMTAP	47	48	4
NMTAP	47	72	4
NMHLD	47	96	6	48
NMTAP	47	144	5
NMHLD	47	192	6	48
NMTAP	47	240	4
NMTAP	47	264	4
NMHLD	47	288	6	48
NMTAP	47	336	3
NMTAP	48	0	2
NMHLD	48	0	6	48
NMTAP	48	48	1
NMTAP	48	96	0
NMHLD	48	96	6	48
NMTAP	48	144	7
NMTAP	48	192	6
NMTAP	48	192	7
NMTAP	48	240	0
NMTAP	48	240	5
BRTAP	48	288	1
BRTAP	48	288	4
BRTAP	48	336	1
BRTAP	48	336	4
NMTAP	49	0	2
NMTAP	49	0	3
NMTAP	49	48	2
NMTAP	49	72	3
NMTAP	49	96	2
NMTAP	49	144	4
NMTAP	49	168	3
NMTAP	49	192	4
NMTAP	49	240	1
NMTAP	49	264	2
NMTAP	49	288	1
NMTAP	49	336	4
NMTAP	49	360	3
NMTAP	50	0	4
NMTAP	50	48	1
NMTAP	50	72	2
NMTAP	50	96	1
NMTAP	50	120	2
NMTAP	50	144	1
NMTAP	50	168	2
NMTAP	50	192	1
NMTAP	50	216	2
NMTAP	50	240	1
NMTAP	50	288	0
NMTAP	50	288	4
NMTAP	51	0	2
NMTAP	51	24	3
NMTAP	51	48	2
NMTAP	51	72	3
NMTAP	51	96	2
NMTAP	51	120	4
NMTAP	51	144	2
NMTAP	51	168	4
NMTAP	51	192	3
NMTAP	51	216	4
NMTAP	51	240	3
NMTAP	51	264	4
NMTAP	51	288	3
NMTAP	51	312	5
NMTAP	51	336	3
NMTAP	51	360	5
BXSTR	52	0	4
NMSUL	52	0	4	96	96	0
NMSUR	52	0	4	96	96	0
NMSTR	52	288	1
NMSI_	52	288	1	96	48	7
NMSTR	52	288	6
NMSI_	52	288	6	96	48	3
BXSTR	53	0	1
NMSI_	53	0	1	96	48	4
BXTAP	53	0	6
NMTAP	53	96	1
NMSTR	53	96	5
NMSI_	53	96	5	96	48	0
NMSTR	53	192	1
NMSI_	53	192	1	96	48	5
NMTAP	53	192	5
NMSTR	53	288	1
NMSI_	53	288	1	96	48	3
NMSTR	53	288	4
NMSI_	53	288	4	96	48	0
BRTAP	54	0	1
BRTAP	54	0	4
NMTAP	54	96	2
NMTAP	54	96	6
NMTAP	54	192	4
NMTAP	54	192	5
NMTAP	54	240	7
NMTAP	54	288	2
NMTAP	54	288	3
NMTAP	54	336	0
BRSTR	55	0	6
NMSI_	55	0	6	96	48	3
BRTAP	55	0	7
NMSTR	55	96	2
NMSI_	55	96	2	96	48	7
NMTAP	55	96	6
NMTAP	55	192	2
NMSTR	55	192	4
NMSI_	55	192	4	96	48	0
NMSTR	55	288	1
NMSI_	55	288	1	96	48	4
NMTAP	55	288	4
BRTAP	56	0	1
BRTAP	56	0	5
NMTAP	56	48	6
NMTAP	56	96	3
NMTAP	56	96	7
NMTAP	56	192	2
NMTAP	56	192	6
NMTAP	56	240	0
NMTAP	56	264	7
EXTAP	56	288	1
EXTAP	56	288	6
NMSTR	57	0	1
BRSI_	57	0	1	96	48	4
NMTAP	57	24	0
NMTAP	57	48	2
NMTAP	57	72	0
BRTAP	57	96	1
NMSTR	57	192	6
BRSI_	57	192	6	96	48	3
NMTAP	57	216	7
NMTAP	57	240	5
NMTAP	57	264	7
BRTAP	57	288	6
NMTAP	58	0	1
NMTAP	58	24	0
NMTAP	58	48	3
NMTAP	58	72	6
NMSTR	58	96	2
NMSI_	58	96	2	96	48	7
NMTAP	58	120	7
NMSTR	58	144	4
NMSI_	58	144	4	96	48	0
NMTAP	58	168	5
NMTAP	58	192	2
NMTAP	58	240	4
BRTAP	58	288	2
NMTAP	59	0	3
NMTAP	59	0	7
NMTAP	59	48	5
NMTAP	59	96	0
NMTAP	59	96	4
NMTAP	59	144	2
NMTAP	59	192	3
NMTAP	59	192	6
NMTAP	59	240	5
NMTAP	59	264	4
NMSTR	59	288	6
NMSI_	59	288	6	96	48	2
NMSTR	60	0	1
NMSI_	60	0	1	96	48	5
NMTAP	60	0	6
NMTAP	60	96	1
NMSTR	60	96	7
NMSI_	60	96	7	96	48	2
NMSI_	60	96	7	96	48	4
NMTAP	60	192	7
BRSTR	60	288	1
NMSCR	60	288	1	96	96	5
BRTAP	60	288	5
NMSTR	61	0	5
NMSUL	61	0	5	96	96	0
NMSTR	61	96	0
NMSUL	61	96	0	96	96	4
NMTAP	61	192	4
NMSTR	61	288	6
NMSCL	61	288	6	96	96	2
NMSTR	62	0	2
NMSUR	62	0	2	96	96	7
NMSTR	62	96	7
NMSUR	62	96	7	96	96	3
EXTAP	62	192	0
NMSTR	62	288	1
NMSCL	62	288	1	96	96	6
NMSTR	63	0	6
NMSUR	63	0	6	96	96	2
NMSTR	63	96	2
NMSUL	63	96	2	96	96	4
NMTAP	63	192	4
EXTAP	63	288	6
NMTAP	64	0	2
NMTAP	64	0	4
NMTAP	64	96	3
NMTAP	64	144	3
NMTAP	64	192	2
NMTAP	64	192	4
NMTAP	64	240	5
NMTAP	64	264	3
NMTAP	64	288	5
NMTAP	64	336	2
NMTAP	64	336	6
NMSTR	65	0	1
NMSV_	65	0	1	96	48	2
NMTAP	65	0	7
EXTAP	65	96	7
CNSI_	65	144	2	0	48	4
NMSTR	65	192	5
NMSV_	65	192	5	96	48	6
EXTAP	65	288	3
CNSI_	65	336	6	0	48	0
NMSTR	66	0	1
NMSV_	66	0	1	96	48	3
EXTAP	66	96	6
CNSI_	66	144	3	0	48	5
NMHLD	66	192	7	192
NMTTP	66	288	4	E	0	M1
NMTTP	66	312	3	E	0	M1
NMTTP	66	336	2	E	0	M1
NMTTP	66	360	1	E	0	M1
EXSTR	67	0	0
NMSSL	67	0	0	96	96	4
EXTAP	67	96	7
NMSTR	67	192	6
NMSSL	67	192	6	96	96	2
EXTAP	67	288	0
EXSTR	68	0	1
NMSI_	68	0	1	96	48	3
NMTAP	68	96	7
CNSI_	68	144	3	0	48	0
CNSI_	68	192	0	0	96	4
NMTAP	68	192	7
NMTAP	68	240	6
NMTAP	68	288	5
BRTAP	69	0	3
BRTAP	69	0	6
NMTAP	69	96	1
NMTAP	69	96	4
NMTAP	69	144	1
NMTAP	69	144	4
NMTAP	69	192	2
NMTAP	69	216	3
NMTAP	69	240	2
NMTAP	69	264	3
NMTAP	69	288	1
NMTAP	69	336	4
NMTAP	70	0	3
NMTAP	70	0	5
NMTAP	70	48	6
NMTAP	70	96	2
NMTAP	70	96	4
NMTAP	70	144	1
NMTAP	70	192	3
NMTAP	70	192	5
NMTAP	70	240	6
NMSTR	70	288	7
NMSI_	70	288	7	96	48	3
BRTAP	71	0	0
BRTAP	71	0	7
BRTAP	71	96	1
BRTAP	71	96	5
NMTAP	71	192	2
NMTAP	71	192	4
NMTAP	71	240	1
NMTAP	71	288	3
NMTAP	71	288	5
NMTAP	71	336	6
NMTAP	72	0	2
NMTAP	72	0	4
NMTAP	72	48	1
NMTAP	72	72	5
NMTAP	72	96	2
NMTAP	72	120	6
NMTAP	72	144	3
NMTAP	72	168	7
EXTAP	72	240	4
EXTAP	72	240	6
EXTAP	72	312	3
EXTAP	72	312	4
NMTAP	73	0	1
NMTAP	73	0	3
NMTAP	73	72	2
NMTAP	73	96	3
NMTAP	73	144	1
NMTAP	73	144	4
NMSTR	73	192	6
NMSI_	73	192	6	96	48	4
NMTAP	73	216	4
NMTAP	73	264	4
NMTAP	73	288	6
NMTAP	73	336	2
NMTAP	74	0	2
NMTAP	74	0	3
NMTAP	74	72	5
NMTAP	74	96	4
NMTAP	74	144	3
NMTAP	74	144	6
NMSTR	74	192	1
NMSI_	74	192	1	96	48	3
NMTAP	74	216	3
NMTAP	74	264	3
NMTAP	74	288	1
NMTAP	74	336	5
NMTAP	75	0	4
NMTAP	75	0	5
NMTAP	75	72	2
NMTAP	75	96	3
NMTAP	75	144	1
NMTAP	75	144	4
NMSTR	75	192	0
NMSI_	75	192	0	96	48	4
NMTAP	75	216	5
NMTAP	75	264	5
NMTAP	75	288	0
NMTAP	76	0	3
NMTAP	76	0	6
NMTAP	76	48	2
NMTAP	76	96	1
NMTAP	76	96	5
NMTAP	76	144	6
NMTAP	76	192	0
NMTAP	76	192	7
NMTTP	76	288	0	C	0	M1
NMSTR	77	0	1
NMSCR	77	0	1	96	48	4
NMHLD	77	0	6	96
NMTAP	77	48	0
NMTAP	77	96	1
NMHLD	77	192	2	96
NMSTR	77	192	7
NMSCL	77	192	7	96	48	4
NMTAP	77	240	0
NMTAP	77	288	7
NMSTR	78	0	1
NMSCR	78	0	1	96	48	4
NMTAP	78	0	5
NMTAP	78	48	3
NMTAP	78	96	1
NMSTR	78	96	5
NMSCR	78	96	5	96	48	0
NMTAP	78	144	7
NMTAP	78	192	1
NMTAP	78	192	5
NMTAP	78	240	2
NMTAP	78	288	3
NMTAP	78	288	4
BRTAP	78	336	2
BRTAP	78	336	5
NMHLD	79	0	6	48
NMHLD	79	0	7	48
NMHLD	79	96	4	48
NMHLD	79	96	5	48
NMTAP	79	192	2
NMTAP	79	192	3
NMHLD	79	240	2	48
NMHLD	79	240	3	48
NMHLD	79	336	0	48
NMHLD	79	336	1	48
NMTAP	80	48	6
NMTAP	80	48	7
NMHLD	80	96	6	48
NMHLD	80	96	7	48
NMHLD	80	192	1	48
NMHLD	80	192	2	48
NMHLD	80	288	3	48
NMHLD	80	288	4	48
NMHLD	81	0	5	48
NMHLD	81	0	6	48
NMHLD	81	96	0	48
NMHLD	81	96	7	48
NMTAP	81	192	6
NMTAP	81	240	4
NMTAP	81	288	3
BXHLD	81	336	1	96
NMHLD	82	48	2	0
NMHLD	82	96	3	0
NMHLD	82	144	4	0
NMHLD	82	192	5	0
NMHLD	82	240	6	0
NMHLD	82	288	0	0
NMHLD	82	288	7	0
NMTAP	83	0	2
NMTAP	83	0	6
NMTAP	83	48	1
NMTAP	83	72	1
NMTAP	83	96	0
NMTAP	83	144	2
NMTAP	83	168	3
NMTAP	83	192	2
NMTAP	83	216	3
NMTAP	83	240	2
NMTAP	83	288	1
NMTAP	83	288	4
NMTAP	84	0	3
NMTAP	84	0	6
NMTAP	84	48	5
NMTAP	84	72	5
NMTAP	84	96	4
NMTAP	84	144	6
NMTAP	84	168	7
NMTAP	84	192	6
NMTAP	84	216	7
NMTAP	84	240	6
NMTAP	84	288	0
NMTAP	84	288	5
NMTAP	85	0	1
NMTAP	85	24	1
NMTAP	85	48	3
NMTAP	85	96	2
NMTAP	85	96	4
NMTAP	85	144	5
NMTAP	85	168	5
NMTAP	85	192	4
NMTAP	85	240	3
NMTAP	85	240	5
NMTAP	85	288	2
NMTAP	85	288	6
NMTAP	86	0	6
NMTAP	86	24	6
NMTAP	86	48	4
NMTAP	86	96	3
NMTAP	86	96	5
NMTAP	86	144	2
NMTAP	86	168	2
NMTAP	86	192	3
NMTAP	86	240	2
NMTAP	86	240	4
BRTAP	86	288	1
BRTAP	86	288	5
NMSTR	87	0	3
NMSCL	87	0	3	96	480	4
NMTAP	87	0	7
CNSUL	88	192	4	0	768	3
NMSTR	91	0	1
NMSUR	91	0	1	96	192	5
NMSTR	92	0	6
NMSUL	92	0	6	96	192	2
NMSTR	93	0	0
NMSSL	93	0	0	96	192	4
NMTAP	94	0	5
NMTAP	94	24	4
NMTAP	94	72	2
NMTAP	94	96	3
NMTAP	94	144	6
NMTAP	94	168	7
NMTAP	94	192	6
BRTAP	94	288	0
BRTAP	94	288	5
NMSTR	95	0	1
NMSV_	95	0	1	96	48	4
NMTAP	95	48	1
NMSTR	95	96	7
NMSI_	95	96	7	96	48	3
NMTAP	95	144	7
NMSTR	95	192	2
NMSI_	95	192	2	96	48	7
NMTAP	95	240	2
NMTAP	95	288	6
NMSTR	95	336	6
NMSLL	95	336	6	96	96	2
NMTAP	96	48	2
NMTAP	96	96	1
NMTAP	96	144	0
NMSTR	96	192	7
NMSI_	96	192	7	96	48	3
NMTAP	96	288	3
NMTAP	96	288	7
NMTAP	97	0	1
NMTAP	97	0	4
NMTAP	97	48	2
NMTAP	97	96	3
NMTAP	97	96	5
NMTAP	97	144	6
NMTAP	97	192	2
NMTAP	97	192	7
NMTAP	97	240	1
NMTAP	97	264	0
NMTAP	97	288	1
NMTAP	97	336	2
NMTAP	97	336	7
NMSTR	98	0	6
NMSI_	98	0	6	96	48	3
NMSTR	98	48	0
NMSI_	98	48	0	96	48	4
NMSTR	98	96	6
NMSCR	98	96	6	96	120	5
NMTAP	98	144	0
BXTAP	98	192	6
NMSTR	99	0	6
NMSV_	99	0	6	96	48	3
NMTAP	99	48	6
NMSTR	99	96	0
NMSI_	99	96	0	96	48	4
NMTAP	99	144	0
NMSTR	99	192	5
NMSI_	99	192	5	96	48	0
NMTAP	99	240	5
NMTAP	99	288	1
NMSTR	99	336	1
NMSLR	99	336	1	96	96	5
NMTAP	100	48	5
NMTAP	100	96	6
NMTAP	100	144	7
NMSTR	100	192	0
NMSI_	100	192	0	96	48	4
NMTAP	100	288	0
NMTAP	100	288	4
NMTAP	101	0	3
NMTAP	101	0	6
NMTAP	101	48	5
NMTAP	101	96	2
NMTAP	101	96	4
NMTAP	101	144	1
NMTAP	101	192	0
NMTAP	101	192	5
NMTAP	101	240	6
NMTAP	101	264	7
NMTAP	101	288	6
NMTAP	101	336	1
NMTAP	101	336	5
BRSTR	102	0	1
BRSLL	102	0	1	96	96	2
BRSTR	102	0	5
BRSLL	102	0	5	96	96	6
NMSTR	102	288	0
NMSI_	102	288	0	96	48	4
EXTAP	102	288	4
NMSTR	103	0	3
NMSI_	103	0	3	96	48	6
NMTAP	103	48	3
NMSTR	103	96	7
NMSV_	103	96	7	96	48	2
NMTAP	103	144	7
NMSTR	103	192	5
NMSI_	103	192	5	96	48	0
NMTAP	103	240	5
NMTAP	103	288	1
NMSTR	103	336	1
NMSXR	103	336	1	96	144	6
NMTAP	104	48	6
NMTAP	104	96	5
NMTAP	104	144	4
NMSTR	104	192	3
NMSI_	104	192	3	96	48	7
NMTAP	104	288	0
NMTAP	104	288	3
NMTAP	105	0	4
NMTAP	105	0	6
NMTAP	105	48	5
NMTAP	105	96	1
NMTAP	105	96	3
NMTAP	105	144	0
NMTAP	105	192	6
NMTAP	105	192	7
NMTAP	105	240	5
NMTAP	105	264	4
NMTAP	105	288	5
NMTAP	105	336	2
NMTAP	105	336	6
NMSTR	106	0	1
NMSCR	106	0	1	96	48	4
NMSTR	106	48	5
NMSCR	106	48	5	96	48	0
NMSTR	106	96	1
NMSI_	106	96	1	96	48	5
NMTAP	106	144	5
BRTAP	106	192	1
EXSTR	106	288	7
BRSI_	106	288	7	96	48	3
NMSTR	107	0	4
NMSI_	107	0	4	96	48	1
NMTAP	107	48	4
NMSTR	107	96	0
NMSV_	107	96	0	96	48	5
NMTAP	107	144	0
NMSTR	107	192	2
NMSI_	107	192	2	96	48	7
NMTAP	107	240	2
NMTAP	107	288	6
NMSTR	107	336	6
NMSXL	107	336	6	96	144	1
NMTAP	108	48	1
NMTAP	108	96	2
NMTAP	108	144	3
NMSTR	108	192	4
NMSI_	108	192	4	96	48	0
NMTAP	108	288	4
NMTAP	108	288	7
EXTAP	109	0	1
EXTAP	109	24	0
NMTAP	109	48	2
NMTAP	109	72	7
NMTAP	109	96	3
NMTAP	109	120	6
NMTAP	109	144	4
NMTAP	109	168	5
NMTAP	109	192	2
NMTAP	109	216	3
NMTAP	109	240	1
NMTAP	109	264	4
NMTAP	109	288	0
NMTAP	109	312	5
NMTAP	109	336	7
NMTAP	109	360	6
EXTAP	110	0	0
NMTAP	110	24	1
NMTAP	110	48	2
NMTAP	110	72	3
NMTAP	110	96	7
NMTAP	110	120	6
NMTAP	110	144	5
NMTAP	110	168	4
EXTAP	110	192	0
NMTAP	110	204	1
NMTAP	110	216	2
NMTAP	110	228	3
NMTAP	110	240	4
NMTAP	110	252	5
NMTAP	110	264	6
NMTAP	110	276	7
NMTAP	110	288	0
NMTTP	110	288	0	C	1	M1
NMHLD	111	0	1	576
NMSTR	111	0	7
NMSI_	111	0	7	96	192	1
CNSI_	111	288	1	0	192	5
CNSI_	112	96	5	0	96	3
NMTAP	112	288	2
NMTAP	112	288	4
NMSTR	113	0	3
NMSI_	113	0	3	96	96	5
NMHLD	113	0	5	576
CNSI_	113	192	5	0	96	1
CNSCR	113	288	1	0	72	2
CNSI_	113	360	2	0	216	7
NMTHO	114	288	0	96	C	1	M1
NMTTP	114	288	2	B	0	M1
NMTTP	114	288	2	E	0	M1
NMTTP	114	288	3	E	0	M1
NMTTP	114	288	6	B	0	M1
NMTTP	114	288	6	E	0	M1
NMTTP	114	288	7	E	0	M1

T_REC_TAP	527
T_REC_BRK	29
T_REC_XTP	36
T_REC_BXX	8
T_REC_HLD	56
T_REC_XHO	0
T_REC_BHO	0
T_REC_BXH	1
T_REC_STR	99
T_REC_BST	4
T_REC_XST	9
T_REC_XBS	2
T_REC_TTP	22
T_REC_THO	1
T_REC_SLD	110
T_REC_BSL	8
T_REC_ALL	912
T_NUM_TAP	693
T_NUM_BRK	52
T_NUM_HLD	57
T_NUM_SLD	110
T_NUM_ALL	912
T_JUDGE_TAP	736
T_JUDGE_HLD	147
T_JUDGE_SLD	118
T_JUDGE_ALL	1001
TTM_EACHPAIRS	159
TTM_SCR_TAP	346500
TTM_SCR_BRK	135200
TTM_SCR_HLD	57000
TTM_SCR_SLD	165000
TTM_SCR_ALL	703700
TTM_SCR_S	677550
TTM_SCR_SS	698500
TTM_RAT_ACV	10074

