VERSION	0.00.00	1.04.00
FES_MODE	0
BPM_DEF	200.000	200.000	200.000	 80.000
MET_DEF	4	4
RESOLUTION	384
CLK_DEF	384
COMPATIBLE_CODE	MA2

BPM	0	0	200.000
BPM	33	0	188.000
BPM	34	0	177.000
BPM	34	192	169.000
BPM	34	288	165.000
BPM	35	0	160.000
BPM	35	96	155.000
BPM	35	192	150.000
BPM	35	288	145.000
BPM	36	0	140.000
BPM	36	96	135.000
BPM	36	192	132.000
BPM	45	0	140.000
BPM	49	0	150.000
BPM	69	0	160.000
BPM	77	0	 80.000
BPM	79	0	170.000
BPM	83	0	180.000
BPM	87	0	200.000
MET	0	0	4	4

NMHLD	1	0	1	576
NMHLD	1	0	5	576
NMTAP	2	288	3
NMTAP	2	288	4
NMHLD	3	0	2	576
NMHLD	3	0	6	576
NMTAP	4	288	4
NMTAP	4	288	5
NMTAP	5	0	3
NMHLD	5	96	3	96
NMTAP	5	192	2
NMHLD	5	288	2	96
NMTAP	6	0	1
NMHLD	6	96	1	96
NMTAP	6	192	0
NMTAP	6	288	0
NMTAP	6	288	7
NMHLD	7	0	7	96
NMHLD	7	96	6	96
NMHLD	7	192	5	96
NMSTR	7	288	4
NMSF_	7	288	4	96	192	0
BRTAP	8	288	1
BRTAP	8	288	7
NMTAP	9	0	3
NMTAP	9	48	3
NMTAP	9	96	4
NMTAP	9	192	2
NMTAP	9	240	2
NMTAP	9	288	3
NMTAP	10	0	1
NMTAP	10	48	1
NMTAP	10	96	3
NMTAP	10	144	3
NMTAP	10	192	2
NMTAP	10	288	2
NMTAP	10	288	3
NMTAP	11	0	4
NMTAP	11	48	4
NMTAP	11	96	3
NMTAP	11	192	5
NMTAP	11	240	5
NMTAP	11	288	4
NMTAP	12	0	6
NMTAP	12	48	6
NMTAP	12	96	4
NMTAP	12	144	4
NMTAP	12	192	5
NMTAP	12	288	4
NMTAP	12	288	5
NMTAP	13	0	2
NMTAP	13	0	3
NMTAP	13	96	2
NMTAP	13	96	3
NMTAP	13	192	0
NMTAP	13	192	1
NMTAP	13	288	0
NMTAP	13	288	1
NMTAP	14	0	4
NMTAP	14	0	5
NMTAP	14	96	4
NMTAP	14	96	5
EXTAP	14	192	6
EXTAP	14	192	7
EXTAP	14	240	6
EXTAP	14	240	7
EXTAP	14	288	6
EXTAP	14	288	7
NMTAP	15	0	0
NMTAP	15	0	1
NMTAP	15	96	0
NMTAP	15	96	1
NMTAP	15	192	6
NMTAP	15	192	7
NMSTR	15	288	6
NMSLL	15	288	6	96	192	0
NMTAP	15	288	7
BRTAP	16	288	1
NMSTR	17	0	2
NMSCL	17	0	2	96	192	7
NMTAP	17	288	5
NMSTR	18	0	5
NMSCR	18	0	5	96	192	0
NMTAP	18	288	1
NMSTR	19	0	1
NMSCR	19	0	1	96	192	4
NMTAP	19	288	5
NMTAP	20	0	4
NMTAP	20	96	4
NMTAP	20	192	3
NMTAP	20	192	6
NMHLD	21	0	6	96
NMHLD	21	96	4	96
NMHLD	21	192	3	96
NMTAP	21	288	1
NMHLD	21	336	1	96
NMTAP	22	48	7
NMHLD	22	96	7	96
NMTAP	22	192	0
NMTAP	22	288	0
NMTAP	22	288	6
NMTAP	23	0	6
NMTAP	23	48	6
NMTAP	23	96	7
NMTAP	23	144	7
NMTAP	23	192	0
NMTAP	23	240	0
NMSTR	23	288	1
NMSCR	23	288	1	96	288	0
NMTTP	24	0	0	C	1	M1
NMHLD	25	0	1	1536
NMTAP	25	0	6
NMTTP	26	0	0	B	0	M1
NMTTP	26	0	1	B	0	M1
NMTTP	27	0	2	B	0	M1
NMTTP	27	0	3	B	0	M1
NMTTP	28	0	4	B	0	M1
NMTTP	28	0	5	B	0	M1
NMTAP	29	0	6
NMHLD	29	96	6	1056
NMTAP	29	192	7
NMTAP	29	288	7
NMTAP	30	0	5
NMTAP	30	96	5
NMTAP	30	192	4
NMTAP	30	288	4
NMTAP	31	0	3
NMTAP	31	96	3
NMTAP	31	192	2
NMTAP	31	288	2
NMTAP	32	0	1
NMTAP	32	96	1
EXTAP	32	192	0
EXTAP	32	192	7
EXTAP	32	256	0
EXTAP	32	256	7
EXTAP	32	320	0
EXTAP	32	320	7
EXHLD	33	0	0	1344
EXSTR	33	0	7
NMSSR	33	0	7	96	408	3
CNSCL	34	120	3	0	264	0
CNSSL	35	0	0	0	360	4
CNSCR	35	360	4	0	216	7
BXTAP	36	288	0
BXTAP	36	288	7
NMHLD	37	0	0	96
NMTAP	37	0	1
NMTAP	37	48	2
NMTAP	37	96	3
NMTAP	37	192	6
NMHLD	37	192	7	96
NMTAP	37	240	5
NMTAP	37	288	4
NMHLD	38	0	0	96
NMTAP	38	0	1
NMTAP	38	48	2
NMTAP	38	96	3
NMTAP	38	192	4
NMTAP	38	192	5
NMTAP	38	288	0
NMTAP	38	288	7
NMHLD	39	0	1	96
NMTAP	39	0	5
NMTAP	39	48	4
NMTAP	39	96	3
NMTAP	39	192	2
NMHLD	39	192	6	96
NMTAP	39	240	3
NMHLD	39	288	4	288
NMTAP	40	0	5
NMTAP	40	96	5
NMSTR	40	192	6
BRSI_	40	192	6	96	48	2
EXSTR	41	0	1
NMSCR	41	0	1	96	96	4
NMSTR	41	96	0
NMSCL	41	96	0	96	96	5
NMTAP	41	288	4
NMSTR	42	0	6
NMSCL	42	0	6	96	96	3
NMSTR	42	96	7
NMSCR	42	96	7	96	96	2
NMTAP	42	288	3
NMSTR	43	0	2
NMSCR	43	0	2	96	96	5
NMSTR	43	96	6
NMSCR	43	96	6	96	96	1
NMHLD	43	288	2	288
NMTAP	44	0	1
NMTAP	44	96	1
NMTAP	44	192	0
BRTAP	44	288	3
BRTAP	44	288	7
NMTAP	45	0	5
NMTAP	45	48	4
NMTAP	45	96	3
NMTAP	45	96	6
NMTAP	45	192	2
NMTAP	45	240	3
NMTAP	45	288	1
NMTAP	45	288	4
NMTAP	46	0	6
NMTAP	46	48	7
NMTAP	46	96	0
NMTAP	46	96	5
NMTAP	46	192	1
NMTAP	46	240	0
NMTAP	46	288	2
NMTAP	46	288	7
NMTAP	47	0	6
NMTAP	47	48	6
NMTAP	47	96	4
NMTAP	47	144	4
NMTAP	47	192	5
NMTAP	47	240	5
NMTAP	47	288	3
NMSTR	48	0	2
NMSI_	48	0	2	96	48	7
NMSTR	48	0	4
NMSI_	48	0	4	96	48	7
NMTTP	48	192	0	A	1	M1
NMTTP	48	192	1	E	0	M1
NMTTP	48	192	6	E	0	M1
NMTTP	48	192	6	A	0	M1
NMTAP	49	0	2
NMTAP	49	0	3
NMTAP	49	96	0
NMTAP	49	96	6
NMTAP	49	192	4
NMTAP	49	192	5
NMTAP	49	288	1
NMTAP	49	288	7
NMTAP	50	0	2
NMTAP	50	0	6
NMTAP	50	96	5
NMTAP	50	144	5
NMTAP	50	192	4
NMTAP	50	288	3
NMTAP	50	288	5
NMTAP	51	0	1
NMTAP	51	48	1
NMTAP	51	96	3
NMTAP	51	144	3
NMTAP	51	192	2
NMTAP	51	240	2
NMSTR	51	288	4
NMSXL	51	288	4	96	192	1
BRTAP	52	0	0
NMTAP	52	288	0
NMTAP	52	288	7
BRTAP	53	0	0
BRTAP	53	0	1
NMTAP	53	96	2
NMTAP	53	96	3
NMTAP	53	192	4
NMTAP	53	192	5
NMTAP	53	288	6
NMTAP	53	288	7
NMTAP	54	0	0
NMTAP	54	0	1
NMTAP	54	96	3
NMTAP	54	96	4
NMTAP	54	192	6
NMTAP	54	240	6
NMTAP	54	288	7
NMTAP	54	336	7
NMTAP	55	0	6
NMTAP	55	0	7
NMTAP	55	96	4
NMTAP	55	96	5
NMTAP	55	192	2
NMTAP	55	192	3
NMTAP	55	288	0
NMTAP	55	288	1
NMTAP	56	0	6
NMTAP	56	0	7
NMTAP	56	48	6
NMTAP	56	48	7
NMTAP	56	96	6
NMTAP	56	96	7
NMSTR	56	192	0
NMSI_	56	192	0	96	48	3
NMSTR	56	192	5
NMSI_	56	192	5	96	48	7
NMTAP	57	0	4
NMTAP	57	0	6
NMTAP	57	96	3
NMTAP	57	96	4
NMTAP	57	192	1
NMTAP	57	192	3
NMTAP	57	288	0
NMTAP	57	288	7
NMTAP	58	0	4
NMTAP	58	0	6
NMTAP	58	96	3
NMTAP	58	96	4
NMTAP	58	192	2
NMTAP	58	192	5
NMTAP	58	240	2
NMTAP	58	240	5
NMTAP	58	288	2
NMTAP	58	288	5
NMTAP	59	0	1
NMTAP	59	48	1
NMTAP	59	96	0
NMTAP	59	96	1
NMTAP	59	192	6
NMTAP	59	240	6
NMTAP	59	288	6
NMTAP	59	288	7
NMTAP	60	0	1
NMTAP	60	0	3
NMTAP	60	96	4
NMTAP	60	96	6
NMTAP	60	192	0
NMTAP	60	192	7
BRTAP	60	288	1
BRTAP	60	288	6
NMSTR	61	0	2
NMSXR	61	0	2	96	192	6
NMHLD	61	0	4	672
NMSTR	62	0	7
NMSXR	62	0	7	96	192	3
NMHLD	63	0	3	672
NMSTR	63	0	5
NMSXL	63	0	5	96	192	1
NMSTR	64	0	0
NMSXL	64	0	0	96	192	4
NMHLD	65	0	4	480
NMSTR	65	0	5
NMSI_	65	0	5	96	48	7
NMSTR	65	192	5
NMSI_	65	192	5	96	48	0
NMSTR	66	0	5
NMSI_	66	0	5	96	48	1
NMTAP	66	192	0
NMTAP	66	192	2
NMSTR	67	0	2
NMSI_	67	0	2	96	48	0
NMHLD	67	0	3	480
NMSTR	67	192	2
NMSI_	67	192	2	96	48	7
NMSTR	68	0	2
NMSI_	68	0	2	96	48	6
NMTAP	68	192	5
NMTAP	68	192	7
NMTAP	68	288	5
NMTAP	68	288	7
BRTAP	69	0	0
BRTAP	69	0	4
NMTAP	69	96	1
NMTAP	69	144	1
NMTAP	69	192	3
NMTAP	69	240	3
NMTAP	69	288	0
NMTAP	69	336	0
NMTAP	70	0	7
NMTAP	70	48	7
NMTAP	70	96	4
NMTAP	70	144	4
NMSTR	70	192	5
NMSV_	70	192	5	96	48	0
NMTAP	71	0	1
NMTAP	71	0	7
NMTAP	71	96	6
NMTAP	71	144	6
NMTAP	71	192	0
NMTAP	71	240	0
NMTAP	71	288	7
NMTAP	71	336	7
NMTAP	72	0	2
NMTAP	72	48	2
NMTAP	72	96	2
NMTAP	72	96	3
EXTAP	72	192	1
EXTAP	72	192	4
EXTAP	72	256	1
EXTAP	72	256	4
EXTAP	72	320	1
EXTAP	72	320	4
EXHLD	73	0	2	192
NMTAP	73	72	3
NMTAP	73	144	4
NMHLD	73	192	4	192
NMTAP	73	264	3
NMTAP	73	336	1
NMHLD	74	0	1	192
NMTAP	74	72	3
NMTAP	74	144	5
NMHLD	74	192	5	192
NMTAP	74	264	4
NMTAP	74	336	3
NMHLD	75	0	3	192
NMTAP	75	72	4
NMTAP	75	144	6
NMHLD	75	192	6	192
NMTAP	75	264	4
NMTAP	75	336	2
NMTAP	76	0	2
NMTAP	76	96	1
NMTAP	76	96	7
NMTAP	76	192	0
NMSTR	76	192	7
BRSI_	76	192	7	96	48	3
NMHLD	77	0	2	192
NMTTP	77	96	3	E	0	M1
NMHLD	77	192	5	192
NMTTP	77	288	5	E	0	M1
NMHLD	78	0	3	192
NMTTP	78	96	2	E	0	M1
NMHLD	78	192	4	96
NMTTP	78	288	6	E	0	M1
BXTAP	78	336	7
NMHLD	79	0	0	192
NMTAP	79	96	2
NMTAP	79	192	7
NMHLD	79	240	7	96
NMHLD	79	336	5	96
NMTAP	80	48	3
NMHLD	80	96	3	96
NMTAP	80	192	2
NMTAP	80	288	1
NMTAP	80	288	4
NMTAP	81	0	0
NMTAP	81	0	5
NMTAP	81	96	2
NMTAP	81	96	7
NMTAP	81	192	1
NMTAP	81	240	0
NMTAP	81	288	7
NMSTR	81	336	6
NMSCL	81	336	6	96	144	1
BXTAP	82	288	0
BXTAP	82	288	7
NMTAP	83	0	6
NMTAP	83	0	7
NMTAP	83	48	5
NMTAP	83	96	3
NMTAP	83	96	4
NMTAP	83	192	0
NMTAP	83	192	1
NMTAP	83	240	2
NMTAP	83	288	3
NMTAP	83	288	4
NMTAP	84	0	4
NMTAP	84	0	5
NMTAP	84	48	6
NMTAP	84	96	0
NMTAP	84	96	7
NMTAP	84	192	2
NMTAP	84	192	3
NMTAP	84	240	1
NMTAP	84	288	0
NMTAP	84	288	7
NMTAP	85	0	6
NMTAP	85	48	5
NMTAP	85	96	4
NMTAP	85	144	3
NMTAP	85	192	2
NMTAP	85	240	1
NMSTR	85	288	0
NMSCR	85	288	0	96	288	7
NMSTR	85	288	7
NMSCL	85	288	7	96	288	0
NMTTP	87	0	0	C	1	M1
NMTTP	87	0	1	B	0	M1
NMTTP	87	0	2	B	0	M1
NMTTP	87	0	2	E	0	M1
NMTTP	87	0	5	B	0	M1
NMTTP	87	0	6	B	0	M1
NMTTP	87	0	6	E	0	M1
NMHLD	91	0	1	192
NMHLD	91	192	2	192
NMHLD	92	0	3	192
NMHLD	92	192	4	192
NMHLD	93	0	5	192
NMHLD	93	192	6	192
NMTHO	94	0	0	192	C	0	M1
BXTAP	94	288	0
BXTAP	94	288	7
NMSTR	95	0	1
NMSI_	95	0	1	96	48	5
NMSTR	95	96	0
NMSI_	95	96	0	96	48	4
NMTAP	95	288	2
NMTAP	95	336	2
NMTAP	96	48	0
NMTAP	96	48	1
NMSTR	96	96	0
NMSI_	96	96	0	96	48	4
NMSTR	96	96	1
NMSI_	96	96	1	96	48	4
NMTAP	96	288	3
NMTAP	96	288	5
NMTAP	97	0	6
NMTAP	97	48	6
NMTAP	97	96	5
NMTAP	97	96	7
NMTAP	97	192	1
NMTAP	97	240	1
NMTAP	97	288	0
NMTAP	97	288	2
NMTAP	98	0	4
NMTAP	98	0	5
NMTAP	98	96	2
NMTAP	98	96	3
NMTAP	98	192	0
NMTAP	98	192	1
NMTAP	98	288	2
NMTAP	98	288	7
NMSTR	99	0	6
NMSI_	99	0	6	96	48	2
NMSTR	99	96	7
NMSI_	99	96	7	96	48	3
NMTAP	99	288	5
NMTAP	99	336	5
NMTAP	100	48	6
NMTAP	100	48	7
NMSTR	100	96	6
NMSCL	100	96	6	96	48	3
NMSTR	100	96	7
NMSI_	100	96	7	96	48	3
NMTAP	100	288	2
NMTAP	100	288	4
NMTAP	101	0	1
NMTAP	101	48	1
NMTAP	101	96	3
NMTAP	101	144	3
NMTAP	101	192	5
NMTAP	101	240	5
NMSTR	101	288	7
NMSI_	101	288	7	96	64	1
CNSI_	102	64	1	0	64	5
CNSI_	102	128	5	0	64	3
BXTAP	102	288	1
BXTAP	102	288	3
NMSTR	103	0	2
NMSI_	103	0	2	96	48	6
NMSTR	103	96	3
NMSI_	103	96	3	96	48	7
NMTAP	103	288	0
NMTAP	103	288	1
NMTAP	103	336	0
NMTAP	103	336	1
NMTAP	104	48	2
NMTAP	104	48	3
NMSTR	104	96	2
NMSI_	104	96	2	96	48	7
NMSTR	104	96	3
NMSI_	104	96	3	96	48	7
NMTAP	104	288	0
NMTAP	104	288	6
NMTAP	105	0	5
NMTAP	105	48	5
NMTAP	105	96	4
NMTAP	105	96	6
NMTAP	105	192	2
NMTAP	105	240	2
NMTAP	105	288	1
NMTAP	105	288	3
NMTAP	106	0	6
NMTAP	106	0	7
NMTAP	106	96	1
NMTAP	106	96	3
NMTAP	106	192	4
NMTAP	106	192	5
NMTAP	106	288	3
NMTAP	106	288	6
NMTAP	107	0	2
NMTAP	107	48	2
NMTAP	107	96	3
NMTAP	107	144	3
NMTAP	107	192	1
NMTAP	107	192	3
BRTAP	107	288	6
BRTAP	107	288	7
NMTAP	108	0	5
NMTAP	108	48	5
NMTAP	108	96	4
NMTAP	108	144	4
NMTAP	108	192	4
NMTAP	108	192	6
BRTAP	108	288	0
BRTAP	108	288	1
NMTAP	109	0	2
NMTAP	109	0	3
NMTAP	109	48	1
NMTAP	109	96	0
NMTAP	109	144	7
NMTAP	109	192	6
NMTAP	109	240	5
BRSTR	109	288	3
BRSXR	109	288	3	96	288	0
BRSTR	109	288	4
BRSXL	109	288	4	96	288	7
BRHLD	111	0	2	1152
BRHLD	111	0	5	384
NMTHO	113	0	0	768	C	1	M1
BRTAP	115	0	0

T_REC_TAP	378
T_REC_BRK	17
T_REC_XTP	18
T_REC_BXX	9
T_REC_HLD	47
T_REC_XHO	2
T_REC_BHO	2
T_REC_BXH	0
T_REC_STR	45
T_REC_BST	2
T_REC_XST	2
T_REC_XBS	0
T_REC_TTP	22
T_REC_THO	2
T_REC_SLD	45
T_REC_BSL	4
T_REC_ALL	595
T_NUM_TAP	465
T_NUM_BRK	34
T_NUM_HLD	51
T_NUM_SLD	45
T_NUM_ALL	595
T_JUDGE_TAP	493
T_JUDGE_HLD	360
T_JUDGE_SLD	49
T_JUDGE_ALL	902
TTM_EACHPAIRS	138
TTM_SCR_TAP	232500
TTM_SCR_BRK	88400
TTM_SCR_HLD	51000
TTM_SCR_SLD	67500
TTM_SCR_ALL	439400
TTM_SCR_S	422950
TTM_SCR_SS	436000
TTM_RAT_ACV	10077

