VERSION	0.00.00	1.04.00
FES_MODE	0
BPM_DEF	200.000	200.000	200.000	 80.000
MET_DEF	4	4
RESOLUTION	384
CLK_DEF	384
COMPATIBLE_CODE	MA2

BPM	0	0	200.000
BPM	33	0	188.000
BPM	34	0	177.000
BPM	34	192	169.000
BPM	34	288	165.000
BPM	35	0	160.000
BPM	35	96	155.000
BPM	35	192	150.000
BPM	35	288	145.000
BPM	36	0	140.000
BPM	36	96	135.000
BPM	36	192	132.000
BPM	45	0	140.000
BPM	49	0	150.000
BPM	69	0	160.000
BPM	77	0	 80.000
BPM	79	0	170.000
BPM	83	0	180.000
BPM	87	0	200.000
MET	0	0	4	4

NMTAP	9	0	1
NMTAP	9	96	1
NMTAP	9	192	1
NMTAP	10	0	2
NMTAP	10	96	2
NMTAP	10	192	2
NMTAP	11	0	3
NMTAP	11	96	3
NMTAP	11	192	3
NMTAP	12	0	4
NMTAP	12	0	5
NMTAP	12	192	4
NMTAP	12	192	5
NMTAP	13	0	6
NMTAP	13	96	6
NMTAP	13	192	6
NMTAP	14	0	5
NMTAP	14	96	5
NMTAP	14	192	5
NMTAP	15	0	4
NMTAP	15	96	4
NMTAP	15	192	4
NMTAP	16	0	2
NMTAP	16	0	3
NMHLD	17	0	1	192
NMTAP	17	192	0
NMHLD	18	0	2	192
NMTAP	18	192	3
NMHLD	19	0	5	192
NMTAP	19	192	4
NMHLD	20	0	6	192
NMTAP	20	192	7
NMTAP	21	0	6
NMTAP	21	96	6
NMTAP	21	192	5
NMTAP	21	288	5
NMTAP	22	0	4
NMTAP	22	96	4
NMTAP	22	192	2
NMTAP	22	192	3
NMTAP	23	0	1
NMTAP	23	96	1
NMTAP	23	192	2
NMTAP	23	288	2
NMTAP	24	0	3
NMTAP	24	96	3
NMTAP	24	192	4
NMTAP	24	192	5
NMSTR	25	0	6
NMSI_	25	0	6	96	288	3
NMSTR	27	0	1
NMSI_	27	0	1	96	288	5
NMSTR	29	0	6
NMSI_	29	0	6	96	288	2
NMSTR	31	0	1
NMSI_	31	0	1	96	288	4
EXSTR	33	0	3
NMSXR	33	0	3	96	1056	0
EXSTR	33	0	4
NMSXL	33	0	4	96	1056	7
NMTTP	37	0	1	B	0	L1
NMTTP	37	96	2	B	0	L1
NMTTP	37	192	3	B	0	L1
NMTTP	38	0	6	B	0	L1
NMTTP	38	96	5	B	0	L1
NMTTP	38	192	4	B	0	L1
NMTTP	39	0	0	B	0	L1
NMTTP	39	96	1	B	0	L1
NMTTP	39	192	2	B	0	L1
NMTTP	39	288	3	B	0	L1
NMTTP	40	0	4	B	0	L1
NMTTP	40	96	5	B	0	L1
NMTTP	40	192	6	B	0	L1
NMTTP	41	0	0	B	0	L1
NMTTP	41	96	1	B	0	L1
NMTTP	41	192	2	B	0	L1
NMTTP	41	192	3	B	0	L1
NMTTP	42	0	7	B	0	L1
NMTTP	42	96	6	B	0	L1
NMTTP	42	192	4	B	0	L1
NMTTP	42	192	5	B	0	L1
NMTTP	43	0	2	B	0	L1
NMTTP	43	96	3	B	0	L1
NMTTP	43	192	4	B	0	L1
NMTTP	43	288	5	B	0	L1
NMTTP	44	0	0	C	0	L1
EXTAP	45	0	6
NMTAP	45	96	6
NMTAP	45	192	6
NMTAP	45	192	7
NMTAP	46	0	5
NMTAP	46	96	5
NMTAP	46	192	4
NMTAP	46	192	5
NMTAP	47	0	3
NMTAP	47	96	3
NMTAP	47	192	3
NMTAP	47	288	2
NMTAP	47	288	3
NMTAP	48	0	0
NMTAP	48	0	1
NMTAP	48	96	0
NMTAP	48	96	1
NMTAP	48	192	0
NMTAP	48	192	1
EXTAP	49	0	2
EXTAP	49	96	2
EXTAP	49	192	2
EXTAP	49	192	3
NMTAP	50	0	4
NMTAP	50	96	4
NMTAP	50	192	4
NMTAP	50	192	5
NMTAP	51	0	6
NMTAP	51	96	6
NMTAP	51	192	6
NMTAP	51	192	7
NMTAP	52	0	0
NMTAP	52	0	7
NMTAP	53	0	6
NMTAP	53	96	6
NMTAP	53	192	6
NMTAP	53	192	7
NMTAP	53	288	6
NMTAP	53	288	7
NMTAP	54	0	5
NMTAP	54	96	5
NMTAP	54	192	4
NMTAP	54	192	5
NMTAP	54	288	4
NMTAP	54	288	5
NMTAP	55	0	3
NMTAP	55	96	3
NMTAP	55	192	2
NMTAP	55	288	2
NMTAP	56	0	1
NMTAP	56	96	1
NMTAP	56	192	0
NMTAP	56	192	7
NMTAP	57	0	1
NMTAP	57	96	1
NMTAP	57	192	0
NMTAP	57	192	1
NMTAP	57	288	0
NMTAP	57	288	1
NMTAP	58	0	2
NMTAP	58	96	2
NMTAP	58	192	2
NMTAP	58	192	3
NMTAP	58	288	2
NMTAP	58	288	3
NMTAP	59	0	4
NMTAP	59	96	4
NMTAP	59	192	5
NMTAP	59	288	5
NMTAP	60	0	6
NMTAP	60	96	6
NMTAP	60	192	6
NMTAP	60	192	7
NMHLD	61	0	5	192
NMHLD	61	192	4	192
NMHLD	62	0	3	192
NMTAP	62	192	2
NMHLD	63	0	2	192
NMHLD	63	192	3	192
NMHLD	64	0	4	192
NMTAP	64	192	5
NMHLD	65	0	6	192
NMHLD	65	192	5	192
NMHLD	66	0	4	192
NMTAP	66	192	3
NMHLD	67	0	1	192
NMHLD	67	192	2	192
NMHLD	68	0	3	192
NMTAP	68	192	4
NMTAP	69	0	5
NMTAP	69	96	5
NMTAP	69	192	4
NMTAP	69	288	4
NMTAP	70	0	3
NMTAP	70	96	3
NMTAP	70	192	2
NMTAP	70	192	4
NMTAP	71	0	2
NMTAP	71	96	2
NMTAP	71	192	3
NMTAP	71	288	3
NMTAP	72	0	4
NMTAP	72	96	4
NMTAP	72	192	3
NMTAP	72	192	5
NMTAP	73	0	4
NMTAP	73	96	4
NMTAP	73	192	5
NMTAP	73	288	5
NMTAP	74	0	6
NMTAP	74	96	6
NMTAP	74	192	0
NMTAP	74	192	7
NMTAP	74	288	0
NMTAP	74	288	7
NMTAP	75	0	1
NMTAP	75	96	1
NMTAP	75	192	2
NMTAP	75	288	2
NMTAP	76	0	3
NMTAP	76	96	3
NMTAP	76	192	3
NMTAP	76	192	4
NMHLD	77	0	2	96
NMTAP	77	96	3
NMHLD	77	192	5	96
NMTAP	77	288	4
NMHLD	78	0	2	96
NMTAP	78	96	3
NMTAP	78	192	3
NMTAP	78	192	4
NMTAP	79	0	5
NMTAP	79	96	5
NMTAP	79	192	6
NMTAP	79	288	6
NMTAP	80	0	7
NMTAP	80	96	7
NMTAP	80	192	0
NMTAP	80	192	1
NMTAP	81	0	2
NMTAP	81	96	2
NMTAP	81	192	1
NMTAP	81	288	1
NMTAP	82	0	0
NMTAP	82	96	0
NMTAP	82	192	6
NMTAP	82	192	7
NMTAP	83	0	7
NMTAP	83	96	6
NMTAP	83	192	5
NMTAP	83	288	4
NMTAP	84	0	2
NMTAP	84	0	3
NMTAP	84	96	2
NMTAP	84	96	3
NMTAP	84	192	1
NMTAP	84	192	4
NMTAP	85	0	2
NMTAP	85	96	1
NMTAP	85	192	0
NMTAP	85	288	7
NMTAP	86	0	6
NMTAP	86	0	7
NMTAP	86	96	6
NMTAP	86	96	7
NMTAP	86	192	0
NMTAP	86	192	5
NMSTR	87	0	6
NMSUL	87	0	6	96	480	3
NMSTR	89	0	1
NMSUR	89	0	1	96	480	4
NMSTR	91	0	5
NMSUR	91	0	5	96	480	0
NMSTR	93	0	1
NMSI_	93	0	1	96	288	4
EXTAP	94	192	3
EXTAP	94	192	4
BRTAP	95	0	2
NMTAP	95	96	2
NMTAP	95	192	2
NMTAP	95	192	3
NMTAP	95	288	2
NMTAP	95	288	3
NMTAP	96	0	1
NMTAP	96	96	1
NMTAP	96	192	0
NMTAP	96	192	1
NMTAP	96	288	0
NMTAP	96	288	1
NMTAP	97	0	7
NMTAP	97	96	7
NMTAP	97	192	6
NMTAP	97	192	7
NMTAP	97	288	6
NMTAP	97	288	7
NMTAP	98	0	5
NMTAP	98	96	5
NMTAP	98	192	4
NMTAP	98	192	6
BRTAP	99	0	5
NMTAP	99	96	5
NMTAP	99	192	4
NMTAP	99	192	5
NMTAP	99	288	4
NMTAP	99	288	5
NMTAP	100	0	6
NMTAP	100	96	6
NMTAP	100	192	6
NMTAP	100	192	7
NMTAP	100	288	6
NMTAP	100	288	7
NMTAP	101	0	0
NMTAP	101	96	0
NMTAP	101	192	0
NMTAP	101	192	1
NMTAP	101	288	0
NMTAP	101	288	1
NMTAP	102	0	2
NMTAP	102	96	2
NMTAP	102	192	1
NMTAP	102	192	3
BXTAP	103	0	2
NMTAP	103	96	2
NMTAP	103	192	0
NMTAP	103	192	1
NMTAP	103	288	0
NMTAP	103	288	1
NMTAP	104	0	7
NMTAP	104	96	6
NMTAP	104	192	4
NMTAP	104	192	5
NMTAP	104	288	4
NMTAP	104	288	5
NMTAP	105	0	6
NMTAP	105	96	7
NMTAP	105	192	0
NMTAP	105	192	1
NMTAP	105	288	0
NMTAP	105	288	1
NMTAP	106	0	2
NMTAP	106	96	2
NMTAP	106	192	3
NMTAP	106	192	4
NMTAP	107	0	3
NMTAP	107	96	2
NMTAP	107	192	1
NMTAP	107	288	0
NMTAP	108	0	7
NMTAP	108	96	6
NMTAP	108	192	5
NMTAP	108	288	4
NMTAP	109	0	3
NMTAP	109	96	2
NMTAP	109	192	1
NMTAP	109	288	0
NMTAP	110	0	0
NMTAP	110	0	7
NMTAP	110	96	0
NMTAP	110	96	7
NMTAP	110	192	1
NMTAP	110	192	6
NMTTP	111	0	0	B	0	L1
NMTTP	111	96	1	B	0	L1
NMTTP	111	192	2	B	0	L1
NMTTP	111	192	3	B	0	L1
NMTTP	112	0	7	B	0	L1
NMTTP	112	96	6	B	0	L1
NMTTP	112	192	4	B	0	L1
NMTTP	112	192	5	B	0	L1
NMTTP	113	0	3	E	0	L1
NMTTP	113	96	2	E	0	L1
NMTTP	113	192	1	E	0	L1
NMTTP	113	288	0	E	0	L1
NMTTP	114	0	7	E	0	L1
NMTTP	114	96	6	E	0	L1
NMTTP	114	192	3	E	0	L1
NMTTP	114	192	5	E	0	L1
NMTTP	115	0	0	C	1	L1

T_REC_TAP	272
T_REC_BRK	2
T_REC_XTP	7
T_REC_BXX	1
T_REC_HLD	19
T_REC_XHO	0
T_REC_BHO	0
T_REC_BXH	0
T_REC_STR	8
T_REC_BST	0
T_REC_XST	2
T_REC_XBS	0
T_REC_TTP	43
T_REC_THO	0
T_REC_SLD	10
T_REC_BSL	0
T_REC_ALL	364
T_NUM_TAP	332
T_NUM_BRK	3
T_NUM_HLD	19
T_NUM_SLD	10
T_NUM_ALL	364
T_JUDGE_TAP	335
T_JUDGE_HLD	76
T_JUDGE_SLD	10
T_JUDGE_ALL	421
TTM_EACHPAIRS	65
TTM_SCR_TAP	166000
TTM_SCR_BRK	7800
TTM_SCR_HLD	19000
TTM_SCR_SLD	15000
TTM_SCR_ALL	207800
TTM_SCR_S	201300
TTM_SCR_SS	207500
TTM_RAT_ACV	10014

