VERSION	0.00.00	1.04.00
FES_MODE	0
BPM_DEF	150.000	150.000	170.000	 75.000
MET_DEF	4	4
RESOLUTION	384
CLK_DEF	384
COMPATIBLE_CODE	MA2

BPM	0	0	150.000
BPM	49	0	 75.000
BPM	53	0	170.000
BPM	61	0	150.000
BPM	63	0	170.000
MET	0	0	4	4

NMTAP	1	0	2
EXTAP	1	24	0
EXTAP	1	48	1
EXTAP	1	72	0
EXTAP	1	96	1
NMTAP	1	144	5
EXTAP	1	168	7
EXTAP	1	192	6
EXTAP	1	216	7
EXTAP	1	240	6
NMHLD	1	288	3	48
NMHLD	1	336	4	48
NMSTR	2	0	1
NMSCR	2	0	1	96	96	5
NMSTR	2	96	5
NMSCL	2	96	5	96	96	0
NMHLD	2	192	7	96
EXTAP	3	0	2
EXTAP	3	0	5
NMTTP	3	48	2	E	0	M1
NMTTP	3	48	6	E	0	M1
EXTAP	3	96	2
EXTAP	3	96	5
NMTTP	3	144	2	E	0	M1
NMTTP	3	144	6	E	0	M1
NMHLD	3	192	0	72
NMHLD	3	192	7	72
NMTAP	3	336	1
NMTAP	3	336	6
NMTTP	4	0	2	E	0	M1
NMTTP	4	0	6	E	0	M1
NMTTP	4	48	3	E	0	M1
NMTTP	4	48	5	E	0	M1
NMHLD	4	96	1	72
NMHLD	4	96	7	72
NMTAP	4	240	0
NMTAP	4	288	0
EXTAP	5	0	3
EXTAP	5	0	5
NMTTP	5	48	3	E	0	M1
NMTTP	5	48	6	E	0	M1
EXTAP	5	96	3
EXTAP	5	96	5
NMTTP	5	144	3	E	0	M1
NMTTP	5	144	6	E	0	M1
NMHLD	5	192	1	72
NMHLD	5	192	7	72
NMTAP	5	336	5
NMHLD	6	0	5	96
BRTAP	6	48	4
NMHLD	6	96	3	96
BRTAP	6	144	4
NMHLD	6	192	6	96
BRTAP	6	240	4
NMTAP	6	288	2
BRTAP	6	336	4
EXTAP	7	0	2
EXTAP	7	0	5
NMTTP	7	48	2	E	0	M1
NMTTP	7	48	6	E	0	M1
EXTAP	7	96	2
EXTAP	7	96	5
NMTTP	7	144	2	E	0	M1
NMTTP	7	144	6	E	0	M1
NMHLD	7	192	0	72
NMHLD	7	192	7	72
NMTAP	7	336	1
NMTAP	7	336	6
NMTTP	8	0	2	E	0	M1
NMTTP	8	0	6	E	0	M1
NMTTP	8	48	3	E	0	M1
NMTTP	8	48	5	E	0	M1
NMHLD	8	96	0	72
NMHLD	8	96	6	72
NMTAP	8	240	6
NMTAP	8	264	7
NMTAP	8	312	1
NMTAP	8	336	0
EXTAP	9	0	2
EXTAP	9	0	4
NMTTP	9	48	2	E	0	M1
NMTTP	9	48	5	E	0	M1
EXTAP	9	96	2
EXTAP	9	96	4
NMTTP	9	144	2	E	0	M1
NMTTP	9	144	5	E	0	M1
NMHLD	9	192	0	72
NMHLD	9	192	6	72
NMTTP	9	336	0	E	0	M1
NMTTP	9	336	7	E	0	M1
NMTTP	10	0	1	E	0	M1
NMTTP	10	0	6	E	0	M1
NMTTP	10	48	2	E	0	M1
NMTTP	10	48	5	E	0	M1
EXSTR	10	96	0
NMSCR	10	96	0	96	24	2
EXSTR	10	96	5
NMSCR	10	96	5	96	24	7
BRTAP	10	168	0
BRTAP	10	168	5
NMTTP	10	288	0	D	0	M1
NMSTR	11	0	4
NMSV_	11	0	4	96	48	1
NMSV_	11	0	4	96	48	7
NMTAP	11	192	0
NMTAP	11	240	0
NMSTR	11	288	7
NMSI_	11	288	7	96	96	4
NMSLR	11	288	7	96	96	5
NMTAP	12	192	1
NMTAP	12	216	0
NMTAP	12	264	0
NMHLD	12	288	2	576
NMTTP	13	0	7	A	0	M1
NMTTP	13	12	7	E	0	M1
NMTTP	13	24	6	E	0	M1
NMTTP	13	36	5	A	0	M1
NMTTP	13	96	0	B	0	M1
NMTTP	13	108	0	C	0	M1
NMTTP	13	120	4	B	0	M1
NMTTP	13	132	4	A	0	M1
NMTTP	13	192	1	A	0	M1
NMTTP	13	204	2	E	0	M1
NMTTP	13	216	3	E	0	M1
NMTTP	13	228	3	A	0	M1
NMSTR	13	288	0
NMSCR	13	288	0	96	120	7
BRTAP	14	192	3
BRTAP	14	192	7
BRTAP	14	240	3
BRTAP	14	240	7
NMHLD	15	0	2	48
NMHLD	15	48	3	48
NMHLD	15	96	2	48
NMHLD	15	144	3	48
NMHLD	15	192	0	48
NMHLD	15	240	7	48
NMHLD	15	288	4	48
NMHLD	15	336	5	48
NMSTR	16	0	2
NMSUR	16	0	2	96	72	7
NMTAP	16	48	2
NMHLD	16	96	6	72
CNSUR	16	168	7	0	72	4
EXTAP	16	240	7
EXTAP	16	288	7
NMSTR	17	0	3
NMSCR	17	0	3	96	48	4
NMSTR	17	0	5
NMSCL	17	0	5	96	48	4
CNSV_	17	144	4	0	48	1
CNSV_	17	144	4	0	48	7
CNSI_	17	192	1	0	48	7
CNSI_	17	192	7	0	48	1
NMTAP	17	336	0
NMTAP	17	336	1
NMTAP	18	0	2
NMTAP	18	0	7
NMTAP	18	48	3
NMTAP	18	48	6
NMSTR	18	96	4
NMSI_	18	96	4	96	36	7
NMSTR	18	96	5
NMSI_	18	96	5	96	72	1
BRTAP	18	168	4
BRTAP	18	168	5
CNSI_	18	228	7	0	36	2
NMHLD	19	0	4	192
NMTAP	19	96	2
NMTAP	19	144	2
NMHLD	19	192	1	192
NMTAP	19	288	6
NMTAP	19	336	6
NMSTR	20	0	7
NMSUL	20	0	7	96	96	0
NMSTR	20	96	0
NMSCL	20	96	0	96	96	2
NMTAP	20	144	0
EXTAP	20	240	1
EXTAP	20	288	1
BRTAP	21	0	3
BRTAP	21	0	4
BRTAP	21	48	3
BRTAP	21	48	4
NMTAP	21	144	1
NMTAP	21	192	2
NMTAP	21	240	3
NMSTR	21	288	4
BRSUL	21	288	4	96	36	0
BRSUR	21	288	4	96	36	0
BRTAP	22	0	4
NMTTP	22	18	0	C	0	M1
EXHLD	22	192	3	24
EXHLD	22	192	5	24
EXTAP	22	264	4
EXTAP	22	264	5
EXTAP	22	312	2
EXTAP	22	312	3
NMTAP	23	0	2
EXTAP	23	24	0
EXTAP	23	48	1
EXTAP	23	72	0
EXTAP	23	96	1
NMTAP	23	144	5
EXTAP	23	168	7
EXTAP	23	192	6
EXTAP	23	216	7
EXTAP	23	240	6
BRHLD	23	288	3	48
BRHLD	23	336	5	48
NMTAP	24	0	2
EXTAP	24	24	0
EXTAP	24	48	1
EXTAP	24	72	0
EXTAP	24	96	1
NMTAP	24	144	5
EXTAP	24	168	7
NMHLD	24	192	4	48
NMHLD	24	240	2	48
BRTAP	24	288	7
NMHLD	25	0	2	48
EXTAP	25	0	6
NMTAP	25	48	4
NMHLD	25	96	2	48
EXTAP	25	96	6
NMTAP	25	144	4
NMHLD	25	192	2	48
EXTAP	25	192	6
NMTAP	25	240	4
NMHLD	25	288	2	48
EXTAP	25	288	6
NMTAP	25	336	4
EXTAP	26	0	1
NMHLD	26	0	5	48
NMTAP	26	48	3
EXTAP	26	96	1
NMHLD	26	96	5	48
NMTAP	26	144	3
EXTAP	26	192	1
NMHLD	26	192	5	48
NMTAP	26	240	3
EXTAP	26	288	1
NMHLD	26	288	5	48
NMTAP	26	336	3
NMSTR	27	0	5
NMSCR	27	0	5	96	48	0
NMTAP	27	48	5
NMTAP	27	96	4
NMTAP	27	144	3
NMSTR	27	192	2
NMSCL	27	192	2	96	48	7
NMTAP	27	240	2
NMTAP	27	288	4
NMTAP	27	336	5
EXSTR	28	0	6
NMSI_	28	0	6	96	48	2
EXSTR	28	48	7
NMSI_	28	48	7	96	48	3
EXTAP	28	96	6
EXTAP	28	144	7
NMTTP	28	240	5	E	0	M1
NMTTP	28	240	5	A	0	M1
NMTTP	28	288	5	E	0	M1
NMTTP	28	288	5	A	0	M1
NMHLD	29	0	2	48
EXTAP	29	0	6
NMTAP	29	48	4
NMHLD	29	96	2	48
EXTAP	29	96	7
NMTAP	29	144	4
NMHLD	29	192	2	48
EXTAP	29	192	6
NMTAP	29	240	4
NMHLD	29	288	2	48
EXTAP	29	288	7
NMTAP	29	336	4
EXTAP	30	0	1
NMHLD	30	0	5	48
NMTAP	30	48	3
EXTAP	30	96	0
NMHLD	30	96	5	48
NMTAP	30	144	3
EXTAP	30	192	1
NMHLD	30	192	5	48
NMTAP	30	240	3
EXTAP	30	288	0
NMHLD	30	288	5	48
NMTAP	30	336	3
NMTAP	31	0	2
NMTAP	31	48	3
NMTAP	31	96	1
NMTAP	31	96	4
NMTAP	31	144	1
NMTAP	31	144	4
NMTAP	31	192	5
NMTAP	31	240	4
NMTAP	31	288	3
NMSTR	31	288	6
NMSXL	31	288	6	96	144	4
NMSTR	31	336	3
BRSXR	31	336	3	96	96	5
NMTAP	31	336	6
NMTTP	32	240	2	A	0	M1
NMTTP	32	240	3	E	0	M1
NMTTP	32	288	2	A	0	M1
NMTTP	32	288	3	E	0	M1
NMSTR	33	0	0
NMSV_	33	0	0	96	48	1
NMTAP	33	96	0
NMTAP	33	96	6
NMSTR	33	192	0
NMSV_	33	192	0	96	48	3
EXTAP	33	240	7
NMTAP	33	288	0
EXTAP	33	288	7
NMSTR	34	0	0
NMSV_	34	0	0	96	48	5
NMTAP	34	0	1
NMTAP	34	96	0
NMTAP	34	96	3
NMSTR	34	192	0
NMSV_	34	192	0	96	48	7
EXTAP	34	240	1
NMTAP	34	288	0
EXTAP	34	288	1
EXTAP	34	336	1
NMSTR	35	0	0
NMSV_	35	0	0	96	48	3
NMSTR	35	0	1
NMSCR	35	0	1	96	48	3
NMSTR	35	96	0
NMSCL	35	96	0	96	48	6
NMSTR	35	96	1
NMSV_	35	96	1	96	48	6
NMSTR	35	192	0
NMSV_	35	192	0	96	48	3
NMSTR	35	192	1
NMSCR	35	192	1	96	48	3
NMTAP	35	288	0
NMTAP	35	288	1
NMTAP	36	0	4
NMTAP	36	0	5
NMTAP	36	48	4
NMTAP	36	48	6
NMTAP	36	96	2
NMTAP	36	96	3
NMTAP	36	144	1
NMTAP	36	144	3
NMTAP	36	192	5
NMTAP	36	216	0
NMTAP	36	240	4
NMTAP	36	264	1
BRTAP	36	288	3
NMHLD	37	0	2	96
NMTTP	37	0	4	D	0	M1
NMTTP	37	8	5	D	0	M1
NMTTP	37	16	6	D	0	M1
NMTTP	37	96	4	D	0	M1
NMTTP	37	104	5	D	0	M1
NMTTP	37	112	6	D	0	M1
NMHLD	37	192	2	96
NMTTP	37	192	4	D	0	M1
NMTTP	37	200	5	D	0	M1
NMTTP	37	208	6	D	0	M1
NMTTP	37	288	4	D	0	M1
NMTTP	37	296	5	D	0	M1
NMTTP	37	304	6	D	0	M1
EXTAP	38	0	2
EXSTR	38	0	3
NMSCR	38	0	3	96	72	7
NMHLD	38	96	0	72
NMTAP	38	240	1
NMTAP	38	288	1
EXHLD	39	0	2	0
NMTTP	39	0	4	D	0	M1
NMTTP	39	8	5	D	0	M1
NMTTP	39	16	6	D	0	M1
EXHLD	39	48	2	0
EXHLD	39	96	2	0
NMTTP	39	96	4	D	0	M1
NMTTP	39	104	5	D	0	M1
NMTTP	39	112	6	D	0	M1
EXHLD	39	120	2	0
EXHLD	39	168	2	0
NMTTP	39	192	4	D	0	M1
NMTTP	39	200	5	D	0	M1
NMTTP	39	208	6	D	0	M1
EXHLD	39	216	2	0
EXHLD	39	264	2	0
EXHLD	39	288	2	0
NMTTP	39	288	4	D	0	M1
NMTTP	39	296	5	D	0	M1
NMTTP	39	304	6	D	0	M1
EXHLD	39	336	2	0
EXSTR	40	0	3
NMSUL	40	0	3	96	48	7
NMSUR	40	0	3	96	48	7
NMTAP	40	192	1
NMTAP	40	216	1
NMTAP	40	240	0
BRTAP	40	288	2
BRTAP	40	288	7
EXTAP	41	0	2
EXTAP	41	0	4
NMTTP	41	48	2	E	0	M1
NMTTP	41	48	5	E	0	M1
EXTAP	41	96	2
EXTAP	41	96	4
NMTTP	41	144	2	E	0	M1
NMTTP	41	144	5	E	0	M1
NMHLD	41	192	0	48
NMHLD	41	192	6	48
NMTAP	41	264	1
NMTAP	41	264	5
NMTAP	41	336	6
NMTAP	41	336	7
NMTTP	42	0	1	E	0	M1
NMTTP	42	0	5	E	0	M1
NMTTP	42	48	2	E	0	M1
NMTTP	42	48	4	E	0	M1
NMHLD	42	96	5	48
NMHLD	42	96	7	48
NMSTR	42	168	0
NMSI_	42	168	0	96	48	4
NMTAP	42	168	6
EXTAP	42	240	7
EXTAP	42	288	7
EXTAP	43	0	3
EXTAP	43	0	5
NMTTP	43	48	3	E	0	M1
NMTTP	43	48	6	E	0	M1
EXTAP	43	96	3
EXTAP	43	96	5
NMTTP	43	144	3	E	0	M1
NMTTP	43	144	6	E	0	M1
NMHLD	43	192	1	48
NMHLD	43	192	7	48
NMTAP	43	264	2
NMTAP	43	264	6
NMTAP	43	336	5
NMHLD	44	0	5	96
BRTAP	44	48	7
NMHLD	44	96	1	96
BRTAP	44	144	7
NMHLD	44	192	4	96
BRTAP	44	240	7
NMTAP	44	288	2
BRTAP	44	336	7
EXTAP	45	0	2
EXTAP	45	0	4
NMTTP	45	48	1	A	0	M1
NMTTP	45	48	5	A	0	M1
EXTAP	45	96	2
EXTAP	45	96	4
NMTTP	45	144	1	A	0	M1
NMTTP	45	144	5	A	0	M1
EXHLD	45	192	0	48
EXHLD	45	192	6	48
NMTAP	45	264	1
NMTAP	45	264	5
NMTAP	45	336	6
NMTAP	45	336	7
NMTTP	46	0	1	D	0	M1
NMTTP	46	0	5	D	0	M1
NMTTP	46	48	2	D	0	M1
NMTTP	46	48	4	D	0	M1
NMHLD	46	96	5	48
NMHLD	46	96	7	48
NMTAP	46	168	6
NMTAP	46	192	0
NMTAP	46	216	7
NMTAP	46	240	0
NMTAP	46	264	7
NMTAP	46	312	1
NMTAP	46	336	1
EXTAP	47	0	3
EXTAP	47	0	5
NMTTP	47	48	2	A	0	M1
NMTTP	47	48	6	A	0	M1
EXTAP	47	96	3
EXTAP	47	96	5
NMTTP	47	144	2	A	0	M1
NMTTP	47	144	6	A	0	M1
EXHLD	47	192	1	48
EXHLD	47	192	7	48
NMTAP	47	264	2
NMTAP	47	264	6
NMTTP	47	336	1	D	0	M1
NMTTP	47	336	7	D	0	M1
NMTTP	48	0	2	D	0	M1
NMTTP	48	0	6	D	0	M1
NMTTP	48	48	3	D	0	M1
NMTTP	48	48	5	D	0	M1
EXHLD	48	96	3	48
EXHLD	48	96	4	48
BRTAP	48	168	2
BRTAP	48	168	5
EXTAP	48	264	5
EXTAP	48	272	4
EXTAP	48	280	3
EXTAP	48	288	2
NMSTR	49	0	5
NMSI_	49	0	5	96	72	7
NMTAP	49	96	1
NMHLD	49	144	1	0
CNSCR	49	168	7	0	48	0
NMTTP	49	192	3	E	0	M1
CNSI_	49	216	0	0	120	2
NMTTP	49	240	4	E	0	M1
NMTTP	49	288	5	E	0	M1
BRTAP	50	24	5
BRTAP	50	48	4
BRTAP	50	72	3
BRSTR	50	96	2
BRSLL	50	96	2	96	72	6
BRTAP	50	120	3
BRTAP	50	144	4
BRTAP	50	168	5
NMHLD	50	192	6	96
CNSLL	50	264	6	0	72	2
NMSTR	51	0	4
NMSI_	51	0	4	96	192	0
NMTAP	51	48	3
NMTAP	51	96	2
NMTAP	51	144	1
NMTAP	51	192	7
NMTAP	51	240	6
NMTAP	51	288	5
NMSTR	52	0	6
NMSXL	52	0	6	96	48	0
NMSTR	52	96	3
BRSXL	52	96	3	96	96	3
BRSXR	52	96	3	96	96	3
CNSCL	52	144	0	0	12	6
BRTAP	53	0	2
BRTAP	53	0	4
NMTAP	53	48	0
NMTAP	53	96	2
NMTAP	53	96	5
NMTAP	53	144	7
NMTAP	53	192	3
NMTAP	53	192	5
NMTAP	53	240	1
NMTAP	53	288	3
NMTAP	53	288	4
NMTAP	53	336	3
NMTAP	53	336	4
EXTAP	54	0	2
EXTAP	54	0	5
EXTAP	54	24	6
EXTAP	54	48	7
EXTAP	54	72	0
EXTAP	54	96	1
EXTAP	54	120	2
EXTAP	54	144	3
EXHLD	54	168	4	120
NMTAP	54	240	1
NMSTR	54	288	1
BRSUL	54	288	1	96	48	5
BXSTR	55	0	1
BRSUL	55	0	1	96	144	6
BRSUL	55	0	1	96	144	7
NMTAP	55	336	2
NMTAP	55	336	4
NMTAP	56	0	1
NMTAP	56	0	5
NMTAP	56	48	0
NMTAP	56	48	6
NMSTR	56	96	7
NMSI_	56	96	7	96	24	1
NMSI_	56	96	7	96	96	4
BRTAP	56	168	7
CNSV_	56	216	1	0	48	2
CNSI_	56	264	2	0	24	4
NMHLD	57	0	1	144
NMTAP	57	48	3
NMTAP	57	96	4
NMTAP	57	144	5
NMHLD	57	192	6	144
NMTAP	57	240	3
NMTAP	57	288	2
NMTAP	57	336	1
NMSTR	58	0	0
NMSSL	58	0	0	96	96	4
NMTAP	58	96	5
NMSTR	58	144	5
NMSXR	58	144	5	96	96	7
EXTAP	58	240	1
EXTAP	58	288	1
BRSTR	59	0	0
NMSI_	59	0	0	96	48	4
NMTAP	59	48	0
BRTAP	59	144	7
BRSTR	59	192	5
BRSCL	59	192	5	96	48	1
BRSCR	59	192	5	96	48	1
EXTAP	60	0	0
EXTAP	60	0	2
NMTAP	60	48	3
NMTAP	60	48	7
NMSTR	60	96	4
NMSXR	60	96	4	96	72	3
NMSTR	60	96	6
NMSXL	60	96	6	96	72	7
NMTAP	60	144	5
BXTAP	60	192	4
BXTAP	60	192	6
NMTAP	61	0	5
EXTAP	61	24	0
EXTAP	61	48	0
EXTAP	61	72	0
EXTAP	61	96	0
NMTAP	61	144	5
EXTAP	61	168	0
EXTAP	61	192	0
EXTAP	61	216	0
EXTAP	61	240	0
BRTAP	61	288	4
BRTAP	61	288	5
BRTAP	61	336	2
BRTAP	61	336	3
NMTAP	62	0	4
EXTAP	62	24	0
EXTAP	62	48	0
EXTAP	62	72	0
EXTAP	62	96	0
NMTAP	62	144	4
EXTAP	62	168	0
NMSTR	62	192	3
NMSF_	62	192	3	96	48	7
NMTAP	62	240	2
NMTAP	62	240	4
EXTAP	62	288	3
NMSTR	63	192	0
NMSUR	63	192	0	96	192	3
NMSTR	63	192	1
NMSUL	63	192	1	96	192	6
NMTTP	64	192	0	B	0	M1
NMTTP	64	192	0	E	1	M1
NMTTP	64	192	0	A	0	M1
NMTTP	64	192	0	D	0	M1
NMTTP	64	192	1	E	0	M1
NMTTP	64	192	1	D	0	M1
NMTTP	64	192	7	B	0	M1
NMTTP	64	192	7	E	0	M1
NMTTP	64	192	7	A	0	M1
NMTTP	64	192	7	D	0	M1
NMHLD	65	0	2	48
EXTAP	65	0	6
NMTAP	65	48	4
NMHLD	65	96	2	48
EXTAP	65	96	6
NMTAP	65	144	4
NMHLD	65	192	2	48
EXTAP	65	192	6
NMTAP	65	240	4
NMHLD	65	288	2	48
EXTAP	65	288	6
NMTAP	65	336	4
EXTAP	66	0	1
NMHLD	66	0	5	48
NMTAP	66	48	3
EXTAP	66	96	1
NMHLD	66	96	5	48
NMTAP	66	144	3
EXTAP	66	192	1
NMHLD	66	192	5	48
NMTAP	66	240	3
EXTAP	66	288	1
NMHLD	66	288	5	48
NMTAP	66	336	3
NMSTR	67	0	4
NMSCR	67	0	4	96	48	6
NMTAP	67	48	4
NMSTR	67	96	2
NMSI_	67	96	2	96	48	6
NMTAP	67	144	2
NMSTR	67	192	3
NMSI_	67	192	3	96	48	7
NMTAP	67	240	3
NMTAP	67	288	1
NMTAP	67	336	1
BRTAP	68	0	0
BRTAP	68	0	2
BRSTR	68	48	1
NMSI_	68	48	1	96	48	5
BRSTR	68	48	7
NMSI_	68	48	7	96	48	3
BRTAP	68	96	0
BRTAP	68	96	6
BRTAP	68	144	1
BRTAP	68	144	7
NMTTP	68	240	0	B	0	M1
NMTTP	68	240	0	A	0	M1
NMTTP	68	240	1	E	0	M1
NMTTP	68	288	0	B	0	M1
NMTTP	68	288	0	A	0	M1
NMTTP	68	288	1	E	0	M1
NMHLD	69	0	2	48
EXTAP	69	0	6
NMTAP	69	48	4
NMHLD	69	96	2	48
EXTAP	69	96	7
NMTAP	69	144	4
NMHLD	69	192	2	48
EXTAP	69	192	6
NMTAP	69	240	4
NMHLD	69	288	2	48
EXTAP	69	288	7
NMTAP	69	336	4
EXTAP	70	0	1
NMHLD	70	0	5	48
NMTAP	70	48	3
EXTAP	70	96	0
NMHLD	70	96	5	48
NMTAP	70	144	3
EXTAP	70	192	1
NMHLD	70	192	5	48
NMTAP	70	240	3
EXTAP	70	288	0
NMHLD	70	288	5	48
NMTAP	70	336	3
NMSTR	71	0	6
NMSCR	71	0	6	96	48	0
NMTAP	71	48	6
NMSTR	71	96	1
NMSI_	71	96	1	96	72	5
NMTAP	71	144	1
NMSTR	71	192	3
NMSI_	71	192	3	96	48	7
NMTAP	71	240	3
NMTAP	71	288	2
NMTAP	71	336	2
BRSTR	72	0	1
NMSV_	72	0	1	96	48	2
BRSTR	72	0	6
NMSI_	72	0	6	96	48	4
CNSCR	72	144	2	0	48	3
CNSI_	72	144	4	0	48	7
EXTAP	72	240	1
EXTAP	72	240	6
EXTAP	72	288	1
EXTAP	72	288	6
NMTAP	73	0	2
NMSTR	73	0	3
NMSI_	73	0	3	96	48	6
NMTAP	73	96	1
NMSTR	73	96	3
NMSI_	73	96	3	96	48	0
NMSTR	73	192	3
NMSI_	73	192	3	96	48	6
NMTAP	73	192	5
NMTAP	73	288	1
NMSTR	73	288	3
NMSI_	73	288	3	96	48	0
NMSTR	74	0	3
NMSI_	74	0	3	96	48	6
NMTAP	74	0	5
NMTAP	74	96	1
NMTAP	74	96	3
NMTAP	74	192	1
NMTAP	74	240	2
NMSTR	74	288	3
NMSI_	74	288	3	96	48	7
NMSTR	74	288	4
NMSI_	74	288	4	96	48	6
EXSTR	75	0	3
NMSI_	75	0	3	96	48	1
EXSTR	75	0	4
NMSI_	75	0	4	96	48	0
EXSTR	75	96	3
NMSI_	75	96	3	96	48	6
EXSTR	75	96	4
NMSI_	75	96	4	96	48	6
EXSTR	75	192	3
NMSI_	75	192	3	96	48	1
EXSTR	75	192	4
NMSI_	75	192	4	96	48	1
EXSTR	75	288	3
BRSUR	75	288	3	96	144	4
EXSTR	75	288	4
BRSCR	75	288	4	96	144	3
BXTAP	76	0	3
BXTAP	76	0	4
NMTAP	76	240	1
NMTAP	76	240	7
NMTAP	76	288	0
NMTAP	76	288	6
NMTAP	77	0	5
NMTAP	77	24	5
NMTAP	77	72	4
BRTAP	77	96	6
NMTAP	77	192	2
NMTAP	77	216	2
NMTAP	77	264	3
BRTAP	77	288	1
NMTAP	78	0	5
NMTAP	78	24	5
NMTAP	78	72	4
BRHLD	78	96	6	48
BRHLD	78	144	3	48
NMSTR	78	192	5
NMSCR	78	192	5	96	36	7
NMTAP	78	216	5
NMTAP	78	264	4
BXTAP	78	288	5
NMTAP	79	0	2
NMTAP	79	24	2
NMTAP	79	72	3
BRTAP	79	96	1
NMTAP	79	192	5
NMTAP	79	216	5
NMTAP	79	264	4
BRTAP	79	288	6
NMTAP	80	0	2
NMTAP	80	24	2
NMTAP	80	72	3
BRHLD	80	96	1	48
BRHLD	80	144	4	48
NMSTR	80	192	2
NMSCL	80	192	2	96	36	0
NMTAP	80	216	2
NMTAP	80	264	3
BXTAP	80	288	2
EXTAP	81	0	6
EXTAP	81	0	7
NMTAP	81	48	4
EXTAP	81	96	0
EXTAP	81	96	1
NMTAP	81	144	3
EXTAP	81	192	6
EXTAP	81	192	7
NMTAP	81	240	4
EXTAP	81	288	6
EXTAP	81	288	7
NMTAP	81	336	4
EXTAP	82	0	0
EXTAP	82	0	1
NMTAP	82	48	3
EXTAP	82	96	6
EXTAP	82	96	7
NMTAP	82	144	4
EXTAP	82	192	0
EXTAP	82	192	1
NMTAP	82	240	3
EXSTR	82	288	3
NMSUR	82	288	3	96	48	7
EXSTR	82	288	4
NMSCR	82	288	4	96	48	6
BXSTR	83	0	3
NMSCL	83	0	3	96	48	1
BXSTR	83	0	4
NMSUL	83	0	4	96	48	0
BXSTR	83	96	3
NMSUR	83	96	3	96	48	7
BXSTR	83	96	4
NMSCR	83	96	4	96	48	6
BXTAP	83	192	3
BXTAP	83	192	4
BXSTR	83	288	3
NMSI_	83	288	3	96	48	1
BXSTR	83	288	4
NMSI_	83	288	4	96	48	0
BXSTR	84	0	3
NMSI_	84	0	3	96	48	7
BXSTR	84	0	4
NMSI_	84	0	4	96	48	6
BXTAP	84	96	3
BXTAP	84	96	4
NMTAP	84	192	2
NMTAP	84	192	3
NMTAP	84	240	2
NMTAP	84	240	3
BRTAP	84	288	0
BRTAP	84	288	4
NMHLD	85	0	2	96
NMTTP	85	0	4	D	0	M1
NMTTP	85	8	5	D	0	M1
NMTTP	85	16	6	D	0	M1
NMTTP	85	96	4	D	0	M1
NMTTP	85	104	5	D	0	M1
NMTTP	85	112	6	D	0	M1
NMHLD	85	192	2	96
NMTTP	85	192	4	D	0	M1
NMTTP	85	200	5	D	0	M1
NMTTP	85	208	6	D	0	M1
NMTTP	85	288	4	D	0	M1
NMTTP	85	296	5	D	0	M1
NMTTP	85	304	6	D	0	M1
EXTAP	86	0	2
EXSTR	86	0	3
NMSCR	86	0	3	96	72	7
NMHLD	86	96	0	72
NMTAP	86	240	1
NMTAP	86	288	1
EXHLD	87	0	2	0
NMTTP	87	0	4	D	0	M1
NMTTP	87	8	5	D	0	M1
NMTTP	87	16	6	D	0	M1
EXHLD	87	48	2	0
EXHLD	87	96	2	0
NMTTP	87	96	4	D	0	M1
NMTTP	87	104	5	D	0	M1
NMTTP	87	112	6	D	0	M1
EXHLD	87	120	2	0
EXHLD	87	168	2	0
NMTTP	87	192	4	D	0	M1
NMTTP	87	200	5	D	0	M1
NMTTP	87	208	6	D	0	M1
EXHLD	87	216	2	0
EXHLD	87	264	2	0
EXHLD	87	288	2	0
NMTTP	87	288	4	D	0	M1
NMTTP	87	296	5	D	0	M1
NMTTP	87	304	6	D	0	M1
EXHLD	87	336	2	0
EXSTR	88	0	3
NMSUL	88	0	3	96	48	7
NMSUR	88	0	3	96	48	7
NMTAP	88	192	1
NMTAP	88	216	1
NMTAP	88	240	0
BRTAP	88	288	2
BRTAP	88	288	7
NMTAP	89	0	3
NMTAP	89	0	6
NMTAP	89	48	4
NMTAP	89	48	5
NMSTR	89	96	3
NMSCL	89	96	3	96	72	7
NMTAP	89	96	6
NMTAP	89	144	4
NMTAP	89	144	5
NMHLD	89	192	6	72
EXTAP	89	336	0
EXTAP	89	336	5
NMSTR	90	0	2
NMSCL	90	0	2	96	72	6
NMTAP	90	24	3
NMTAP	90	48	2
NMTAP	90	72	3
NMTAP	90	96	2
BXSTR	90	168	4
NMSI_	90	168	4	96	48	7
EXTAP	90	240	0
EXTAP	90	288	0
NMTAP	91	0	1
NMTAP	91	0	4
NMTAP	91	48	2
NMTAP	91	48	3
NMTAP	91	96	1
NMSTR	91	96	4
NMSCR	91	96	4	96	72	0
NMTAP	91	144	2
NMTAP	91	144	3
NMHLD	91	192	1	72
NMTAP	91	336	5
NMTAP	91	360	4
NMTAP	92	0	6
NMTAP	92	24	3
NMTAP	92	48	7
NMTAP	92	72	2
EXSTR	92	96	0
NMSUR	92	96	0	96	96	3
EXSTR	92	96	1
NMSUL	92	96	1	96	96	6
BXTAP	92	168	0
BXTAP	92	168	1
NMTAP	93	0	5
EXTAP	93	24	1
EXTAP	93	48	0
EXTAP	93	72	1
EXTAP	93	96	0
NMTAP	93	144	2
EXTAP	93	168	6
EXTAP	93	192	7
EXTAP	93	216	6
EXTAP	93	240	7
BRTAP	93	288	4
BRTAP	93	288	5
BRTAP	93	336	2
BRTAP	93	336	3
NMTAP	94	0	4
EXTAP	94	24	0
EXTAP	94	48	0
EXTAP	94	72	0
EXTAP	94	96	0
NMTAP	94	144	4
EXTAP	94	168	0
EXTAP	94	192	5
EXTAP	94	240	3
EXTAP	94	240	4
EXTAP	94	288	1
EXTAP	94	288	6
EXTAP	94	312	1
EXTAP	94	312	6
BXSTR	95	0	0
BRSCL	95	0	0	96	288	0
BXTAP	95	0	7
NMTTP	95	4	0	A	0	M1
NMTTP	95	4	7	A	0	M1
NMTTP	95	12	1	E	0	M1
NMTTP	95	12	7	E	0	M1
NMTTP	95	20	1	B	0	M1
NMTTP	95	20	6	B	0	M1
NMTTP	95	24	0	C	1	M1
NMTTP	95	28	2	B	0	M1
NMTTP	95	28	5	B	0	M1
NMTTP	95	36	3	E	0	M1
NMTTP	95	36	5	E	0	M1
NMTTP	95	44	3	A	0	M1
NMTTP	95	44	4	A	0	M1

T_REC_TAP	265
T_REC_BRK	59
T_REC_XTP	176
T_REC_BXX	13
T_REC_HLD	87
T_REC_XHO	27
T_REC_BHO	6
T_REC_BXH	0
T_REC_STR	59
T_REC_BST	7
T_REC_XST	20
T_REC_XBS	11
T_REC_TTP	162
T_REC_THO	0
T_REC_SLD	92
T_REC_BSL	14
T_REC_ALL	998
T_NUM_TAP	682
T_NUM_BRK	110
T_NUM_HLD	114
T_NUM_SLD	92
T_NUM_ALL	998
T_JUDGE_TAP	772
T_JUDGE_HLD	174
T_JUDGE_SLD	106
T_JUDGE_ALL	1052
TTM_EACHPAIRS	179
TTM_SCR_TAP	341000
TTM_SCR_BRK	286000
TTM_SCR_HLD	114000
TTM_SCR_SLD	138000
TTM_SCR_ALL	879000
TTM_SCR_S	842000
TTM_SCR_SS	868000
TTM_RAT_ACV	10126

