VERSION	0.00.00	1.04.00
FES_MODE	0
BPM_DEF	150.000	150.000	170.000	 75.000
MET_DEF	4	4
RESOLUTION	384
CLK_DEF	384
COMPATIBLE_CODE	MA2

BPM	0	0	150.000
BPM	49	0	 75.000
BPM	53	0	170.000
BPM	61	0	150.000
BPM	63	0	170.000
MET	0	0	4	4

EXHLD	1	0	0	96
EXHLD	1	0	7	96
EXHLD	1	144	0	96
EXHLD	1	144	7	96
EXTAP	1	288	1
EXTAP	1	288	6
EXTAP	1	336	1
EXTAP	1	336	6
EXSTR	2	0	1
NMSCR	2	0	1	96	96	4
EXTAP	2	0	6
BXTAP	2	288	3
BXTAP	2	288	7
NMTAP	3	0	5
NMTAP	3	48	5
NMTAP	3	96	4
NMTAP	3	192	3
NMTAP	3	192	5
NMTAP	3	288	3
NMTAP	3	288	5
NMTAP	4	0	2
NMTAP	4	48	2
NMTAP	4	96	3
NMHLD	4	192	1	96
NMHLD	4	192	4	96
NMTAP	5	0	2
NMTAP	5	48	2
NMTAP	5	96	3
NMTAP	5	192	2
NMTAP	5	192	4
NMTAP	5	288	2
NMTAP	5	288	4
NMTAP	6	0	5
NMTAP	6	48	5
NMTAP	6	96	4
NMTAP	6	192	3
NMTAP	6	192	6
NMTAP	6	288	2
NMTAP	6	288	7
NMTAP	7	0	1
NMTAP	7	48	1
NMTAP	7	96	0
NMTAP	7	192	1
NMTAP	7	192	7
NMTAP	7	288	1
NMTAP	7	288	7
NMTAP	8	0	6
NMTAP	8	48	6
NMTAP	8	96	7
NMHLD	8	192	0	96
NMHLD	8	192	5	96
NMTAP	9	0	2
NMTAP	9	48	2
NMTAP	9	96	3
NMTAP	9	192	2
NMTAP	9	192	4
NMTAP	9	288	2
NMTAP	9	288	4
NMTAP	10	0	3
NMTAP	10	0	5
NMHLD	10	96	2	72
NMHLD	10	96	6	72
EXTAP	10	288	2
EXTAP	10	288	6
NMTHO	11	0	0	384	C	0	M1
NMTAP	12	192	0
NMTAP	12	192	7
NMTAP	12	288	1
NMTAP	12	288	6
NMHLD	13	0	2	192
BXTAP	13	96	3
NMTAP	13	192	4
NMSTR	13	288	2
NMSCR	13	288	2	96	96	5
NMTAP	13	288	3
EXTAP	14	192	7
NMTAP	15	0	6
NMTAP	15	48	6
NMHLD	15	96	6	96
NMTAP	15	192	4
NMTAP	15	240	4
NMHLD	15	288	4	96
NMTAP	16	0	5
NMHLD	16	96	4	72
NMHLD	16	96	6	72
EXSTR	16	288	6
NMSI_	16	288	6	96	96	2
NMSTR	17	96	1
NMSI_	17	96	1	96	96	5
NMSTR	17	288	7
NMSI_	17	288	7	96	144	2
NMSI_	17	288	7	96	144	4
EXTAP	18	288	3
EXTAP	18	288	5
EXHLD	19	0	2	576
EXTAP	19	0	4
NMTTP	19	192	5	E	0	M1
NMTTP	19	288	4	E	0	M1
NMTTP	20	0	2	B	0	M1
NMTTP	20	0	3	B	0	M1
NMTTP	20	0	3	E	1	M1
EXTAP	21	0	3
BXHLD	21	0	5	384
BRTAP	21	192	4
BRSTR	21	288	4
BRSI_	21	288	4	96	96	7
NMHLD	23	0	5	96
NMHLD	23	144	5	96
EXTAP	23	288	3
EXTAP	23	288	4
EXTAP	23	336	3
EXTAP	23	336	4
NMHLD	24	0	2	96
EXTAP	24	144	2
EXTAP	24	192	4
EXTAP	24	240	4
EXTAP	24	288	3
EXTAP	24	288	5
BRTAP	25	0	0
BRTAP	25	0	1
NMTAP	25	96	4
NMTAP	25	96	6
NMTAP	25	192	2
NMTAP	25	192	3
NMTAP	25	288	6
NMTAP	25	288	7
NMTAP	26	0	0
NMTAP	26	0	1
NMTAP	26	96	4
NMTAP	26	96	6
NMTAP	26	192	2
NMTAP	26	192	3
NMTAP	26	288	1
NMTAP	26	288	4
NMTAP	27	0	6
NMTAP	27	0	7
NMTAP	27	96	3
NMTAP	27	96	4
NMTAP	27	192	0
NMTAP	27	192	1
NMSTR	27	288	6
NMSI_	27	288	6	96	96	2
NMSTR	27	288	7
NMSI_	27	288	7	96	96	3
EXTAP	28	240	1
EXTAP	28	240	5
EXTAP	28	288	1
EXTAP	28	288	5
BRTAP	29	0	6
BRTAP	29	0	7
NMTAP	29	96	3
NMTAP	29	96	4
NMTAP	29	192	0
NMTAP	29	192	1
NMTAP	29	288	4
NMTAP	29	288	6
NMTAP	30	0	2
NMTAP	30	0	3
NMTAP	30	96	0
NMTAP	30	96	7
NMTAP	30	192	4
NMTAP	30	192	5
NMSTR	30	288	1
NMSCL	30	288	1	96	96	6
NMTAP	30	288	3
NMSTR	31	96	5
NMSCL	31	96	5	96	96	2
NMSTR	31	288	0
NMSSL	31	288	0	96	192	4
EXTAP	32	288	3
EXTAP	32	288	5
NMTAP	33	0	6
NMTAP	33	48	6
NMTAP	33	96	4
NMTAP	33	96	5
NMTAP	33	192	2
NMTAP	33	192	3
NMTAP	33	288	1
NMTAP	33	288	4
NMTAP	34	0	0
NMTAP	34	0	7
NMTAP	34	96	4
NMTAP	34	96	6
NMTAP	34	192	3
NMTAP	34	192	4
NMTAP	34	288	1
NMTAP	34	288	3
NMTAP	35	0	2
NMTAP	35	0	7
NMTAP	35	96	0
NMTAP	35	96	5
NMTAP	35	192	2
NMTAP	35	192	6
NMTAP	35	288	1
NMSTR	35	288	3
NMSI_	35	288	3	96	96	5
CNSI_	36	96	5	0	96	1
CNSI_	36	192	1	0	96	7
NMHLD	37	0	2	96
EXHLD	37	0	7	1152
NMTAP	37	192	3
NMSTR	37	288	4
BRSI_	37	288	4	96	96	7
CNSI_	38	96	7	0	96	2
NMHLD	39	0	2	96
NMTAP	39	192	3
NMSTR	39	288	4
BRSI_	39	288	4	96	96	7
CNSI_	40	96	7	0	96	2
BXTAP	40	288	3
BXTAP	40	288	4
NMTAP	41	0	5
NMTAP	41	48	5
NMTAP	41	96	4
NMTAP	41	192	3
NMTAP	41	192	6
NMTAP	41	288	3
NMTAP	41	288	6
NMTAP	42	0	2
NMTAP	42	48	2
NMTAP	42	96	3
NMTAP	42	192	1
NMTAP	42	192	4
NMTAP	42	288	2
NMTAP	42	288	3
NMTAP	43	0	5
NMTAP	43	48	5
NMTAP	43	96	4
NMTAP	43	192	3
NMTAP	43	192	4
NMSTR	43	288	2
NMSI_	43	288	2	96	96	0
NMTAP	43	288	3
CNSI_	44	96	0	0	96	6
CNSI_	44	192	6	0	96	4
NMTAP	45	0	2
NMTAP	45	48	2
NMTAP	45	96	3
NMTAP	45	192	1
NMTAP	45	192	4
NMTAP	45	288	2
NMTAP	45	288	3
NMTAP	46	0	5
NMTAP	46	48	5
NMTAP	46	96	4
NMTAP	46	192	3
NMTAP	46	192	6
NMTAP	46	288	2
NMTAP	46	288	7
NMTAP	47	0	1
NMTAP	47	48	1
NMTAP	47	96	0
NMTAP	47	192	2
NMTAP	47	192	7
NMTAP	47	288	1
NMTAP	47	288	6
NMHLD	48	0	7	168
NMHLD	48	96	0	288
NMTTP	49	0	4	E	0	M1
NMTTP	49	96	1	E	0	M1
NMTTP	49	96	7	E	0	M1
NMTHO	49	192	0	96	C	0	M1
NMTTP	49	192	2	B	0	M1
NMTTP	49	192	5	B	0	M1
NMSTR	50	0	6
NMSSR	50	0	6	96	120	2
NMTAP	50	288	1
NMTAP	50	288	3
NMTAP	51	0	0
NMTAP	51	48	1
NMTAP	51	96	2
NMTAP	51	144	3
NMTAP	51	192	4
NMTAP	51	240	5
NMTAP	51	288	6
NMTAP	51	336	7
NMHLD	52	0	0	48
NMHLD	52	96	1	48
NMHLD	52	96	7	48
NMHLD	52	192	2	48
NMHLD	52	192	6	48
NMTAP	52	288	3
NMTAP	52	288	5
EXTAP	53	0	2
EXTAP	53	0	3
EXTAP	53	96	2
EXTAP	53	96	3
NMTAP	53	192	0
NMTAP	53	192	1
NMTAP	53	288	6
NMTAP	53	288	7
NMTAP	54	0	4
NMTAP	54	0	5
NMTAP	54	96	4
NMTAP	54	96	5
NMTAP	54	192	6
NMTAP	54	192	7
NMTAP	54	288	0
NMTAP	54	288	1
NMSTR	55	0	2
NMSI_	55	0	2	96	96	7
NMTAP	55	0	3
NMSTR	55	192	6
NMSI_	55	192	6	96	96	3
NMTAP	56	0	2
NMTAP	56	96	1
NMTAP	56	144	1
NMTAP	56	192	0
NMTAP	56	288	2
NMTAP	56	288	7
BXHLD	57	0	6	288
NMTAP	57	96	4
NMTAP	57	192	4
NMTAP	57	288	7
NMSTR	58	0	6
NMSI_	58	0	6	96	96	2
NMSTR	58	0	7
NMSI_	58	0	7	96	96	3
EXTAP	58	288	1
EXTAP	58	288	4
BRTAP	59	0	0
BRTAP	59	96	7
BRTAP	59	192	5
NMTAP	59	288	4
NMTAP	59	288	6
NMTAP	60	0	3
NMTAP	60	48	3
NMTAP	60	96	4
NMTAP	60	144	4
NMTAP	60	192	3
NMTAP	60	288	2
NMTAP	60	288	5
BXHLD	61	0	0	288
BXHLD	61	0	7	288
NMSTR	62	0	0
NMSF_	62	0	0	96	96	4
NMTAP	62	0	7
BXTAP	62	288	2
BXTAP	62	288	6
NMHLD	63	192	3	384
NMHLD	64	0	4	192
BRTAP	65	0	1
BRTAP	65	0	7
NMTAP	65	96	4
NMTAP	65	96	5
NMTAP	65	192	0
NMTAP	65	192	6
NMTAP	65	288	2
NMTAP	65	288	3
NMTAP	66	0	0
NMTAP	66	0	1
NMTAP	66	96	4
NMTAP	66	96	5
NMTAP	66	192	6
NMTAP	66	192	7
NMTAP	66	288	2
NMTAP	66	288	3
NMTAP	67	0	0
NMSTR	67	0	1
NMSI_	67	0	1	96	48	4
NMSTR	67	192	6
NMSI_	67	192	6	96	48	3
NMTAP	67	192	7
BXTAP	68	0	0
BXTAP	68	0	1
NMTAP	68	96	3
NMTAP	68	96	7
NMTAP	68	144	3
NMTAP	68	144	7
NMTAP	68	240	1
NMTAP	68	240	5
NMTAP	68	288	1
NMTAP	68	288	5
NMTAP	69	0	6
NMTAP	69	0	7
NMTAP	69	96	1
NMTAP	69	96	3
NMTAP	69	192	4
NMTAP	69	192	6
NMTAP	69	288	0
NMTAP	69	288	1
NMTAP	70	0	2
NMTAP	70	0	3
NMTAP	70	96	5
NMTAP	70	96	6
NMTAP	70	192	0
NMTAP	70	192	1
NMTAP	70	288	3
NMTAP	70	288	4
NMSTR	71	0	6
NMSI_	71	0	6	96	48	3
NMTAP	71	0	7
NMTAP	71	192	0
NMSTR	71	192	1
NMSI_	71	192	1	96	48	4
BXTAP	72	0	6
BXTAP	72	0	7
NMTAP	72	96	0
NMTAP	72	96	5
NMTAP	72	144	0
NMTAP	72	144	5
NMTAP	72	240	3
NMTAP	72	240	4
NMTAP	72	288	3
NMTAP	72	288	4
NMHLD	73	0	2	96
NMHLD	73	96	0	96
NMHLD	73	192	6	96
NMHLD	73	288	4	96
NMHLD	74	0	2	96
NMHLD	74	96	0	96
NMHLD	74	192	6	96
NMTAP	74	288	4
BRTAP	75	0	3
BRTAP	75	0	7
BRTAP	75	96	3
BRTAP	75	96	7
BRTAP	75	192	1
BRTAP	75	192	5
BRSTR	75	288	1
BRSSR	75	288	1	96	192	5
BRTAP	75	288	5
NMHLD	77	0	6	48
NMHLD	77	0	7	48
NMHLD	77	96	6	48
NMHLD	77	96	7	48
NMHLD	77	192	0	48
NMHLD	77	192	7	48
NMHLD	77	288	0	48
NMHLD	77	288	7	48
NMHLD	78	0	0	48
NMHLD	78	0	1	48
NMHLD	78	96	0	48
NMHLD	78	96	7	48
NMHLD	78	192	6	48
NMHLD	78	192	7	48
BXTAP	78	288	0
BXTAP	78	288	5
NMHLD	79	0	0	48
NMHLD	79	0	1	48
NMHLD	79	96	0	48
NMHLD	79	96	1	48
NMHLD	79	192	6	48
NMHLD	79	192	7	48
NMHLD	79	288	6	48
NMHLD	79	288	7	48
BXTAP	80	0	0
BXTAP	80	0	1
BXTAP	80	96	2
BXTAP	80	96	3
BXTAP	80	192	4
BXTAP	80	192	5
BXTAP	80	288	3
BXTAP	80	288	6
NMHLD	81	0	0	48
NMHLD	81	0	1	48
NMHLD	81	96	0	48
NMHLD	81	96	1	48
NMHLD	81	192	0	48
NMHLD	81	192	7	48
NMHLD	81	288	0	48
NMHLD	81	288	7	48
NMHLD	82	0	6	48
NMHLD	82	0	7	48
NMHLD	82	96	0	48
NMHLD	82	96	7	48
NMHLD	82	192	0	48
NMHLD	82	192	1	48
BXTAP	82	288	2
BXTAP	82	288	7
NMHLD	83	0	6	48
NMHLD	83	0	7	48
NMHLD	83	96	6	48
NMHLD	83	96	7	48
NMHLD	83	192	0	48
NMHLD	83	192	1	48
NMHLD	83	288	0	48
NMHLD	83	288	1	48
NMTAP	84	0	7
NMTAP	84	48	7
NMTAP	84	96	7
BXHLD	84	192	0	1344
BXTAP	84	192	6
NMTAP	85	0	3
NMTAP	85	96	3
NMTAP	85	192	2
NMSTR	85	288	1
BRSI_	85	288	1	96	96	4
CNSI_	86	96	4	0	96	7
NMTAP	87	0	7
NMTAP	87	96	7
NMTAP	87	192	1
NMSTR	87	288	3
BRSI_	87	288	3	96	96	0
CNSI_	88	96	0	0	96	5
NMTAP	88	288	4
NMTAP	88	288	6
NMTAP	89	0	5
NMTAP	89	48	5
NMTAP	89	96	4
NMTAP	89	192	2
NMTAP	89	192	3
NMTAP	89	288	1
NMTAP	89	288	4
NMTAP	90	0	2
NMTAP	90	48	2
NMTAP	90	96	3
NMTAP	90	192	4
NMTAP	90	192	5
NMTAP	90	288	3
NMTAP	90	288	6
NMTAP	91	0	1
NMTAP	91	48	1
NMTAP	91	96	0
NMTAP	91	192	2
NMTAP	91	192	7
NMTAP	91	288	1
NMTAP	91	288	6
NMTAP	92	0	0
NMTAP	92	0	7
NMTAP	92	48	0
NMTAP	92	48	7
EXHLD	92	96	1	72
EXHLD	92	96	6	72
EXTAP	92	288	3
EXTAP	92	288	4
NMTAP	93	0	2
NMTAP	93	48	2
NMTAP	93	96	3
NMTAP	93	144	3
NMHLD	93	192	1	96
NMTAP	93	288	7
NMTAP	94	0	5
NMTAP	94	48	5
NMTAP	94	96	4
NMTAP	94	144	4
NMHLD	94	192	7	96
NMTAP	94	288	0
NMTTP	95	0	1	B	0	M1
NMTTP	95	0	2	B	0	M1
NMTTP	95	0	3	B	1	M1
NMTTP	95	0	3	E	0	M1
NMTTP	95	0	3	A	0	M1
NMTTP	95	0	4	B	0	M1
NMTTP	95	0	4	A	0	M1
NMTTP	95	0	5	B	0	M1
NMTTP	95	0	5	E	0	M1
NMTTP	95	0	6	B	0	M1

T_REC_TAP	294
T_REC_BRK	17
T_REC_XTP	35
T_REC_BXX	24
T_REC_HLD	78
T_REC_XHO	8
T_REC_BHO	0
T_REC_BXH	5
T_REC_STR	24
T_REC_BST	2
T_REC_XST	2
T_REC_XBS	0
T_REC_TTP	20
T_REC_THO	2
T_REC_SLD	23
T_REC_BSL	6
T_REC_ALL	540
T_NUM_TAP	375
T_NUM_BRK	54
T_NUM_HLD	88
T_NUM_SLD	23
T_NUM_ALL	540
T_JUDGE_TAP	418
T_JUDGE_HLD	242
T_JUDGE_SLD	29
T_JUDGE_ALL	689
TTM_EACHPAIRS	174
TTM_SCR_TAP	187500
TTM_SCR_BRK	140400
TTM_SCR_HLD	88000
TTM_SCR_SLD	34500
TTM_SCR_ALL	450400
TTM_SCR_S	431650
TTM_SCR_SS	445000
TTM_RAT_ACV	10121

