VERSION	0.00.00	1.04.00
FES_MODE	0
BPM_DEF	154.000	154.000	154.000	154.000
MET_DEF	4	4
RESOLUTION	384
CLK_DEF	384
COMPATIBLE_CODE	MA2

BPM	0	0	154.000
MET	0	0	4	4

EXHLD	1	336	3	216
EXHLD	2	0	4	216
NMSTR	3	0	6
NMSI_	3	0	6	96	48	4
NMSTR	3	96	0
NMSI_	3	96	0	96	48	2
NMTAP	3	192	7
NMSTR	3	240	7
NMSI_	3	240	7	96	48	3
NMTAP	3	336	2
NMTAP	4	48	0
NMTAP	4	48	1
NMTAP	4	144	6
NMTAP	4	144	7
NMTAP	4	192	6
NMTAP	4	192	7
NMTAP	4	288	0
NMHLD	4	288	5	96
NMSTR	5	0	1
NMSI_	5	0	1	96	48	3
NMSTR	5	96	7
NMSI_	5	96	7	96	48	5
NMTAP	5	192	0
NMSTR	5	240	0
NMSI_	5	240	0	96	48	4
NMTAP	5	336	5
NMTAP	6	48	6
NMTAP	6	48	7
NMTAP	6	144	0
NMTAP	6	144	1
NMTAP	6	192	0
NMTAP	6	192	1
BRTAP	6	288	2
BRTAP	6	288	6
NMTAP	7	0	3
NMTAP	7	0	4
NMTAP	7	48	5
NMTAP	7	72	4
NMTAP	7	96	5
NMTAP	7	144	6
NMHLD	7	192	6	96
NMTAP	7	288	4
NMTAP	7	336	4
NMTAP	8	0	5
NMTAP	8	48	5
NMTAP	8	96	3
NMTAP	8	144	3
NMTAP	8	192	4
NMTAP	8	192	5
NMTAP	8	288	4
NMTAP	8	336	5
NMHLD	9	0	6	96
NMTAP	9	96	5
NMTAP	9	144	4
NMHLD	9	192	3	96
NMHLD	9	288	5	96
EXTAP	10	0	4
EXTAP	10	24	4
EXTAP	10	96	3
EXTAP	10	96	5
EXSTR	10	120	3
NMSV_	10	120	3	96	72	0
EXSTR	10	120	5
NMSV_	10	120	5	96	72	0
NMTAP	11	0	1
NMTAP	11	0	7
NMTAP	11	48	2
NMTAP	11	72	3
NMTAP	11	96	2
NMTAP	11	144	1
NMHLD	11	192	1	96
NMTAP	11	288	3
NMTAP	11	336	3
NMTAP	12	0	2
NMTAP	12	48	2
NMTAP	12	96	4
NMTAP	12	144	4
NMTAP	12	192	2
NMTAP	12	192	3
NMTAP	12	288	3
NMTAP	12	336	2
NMHLD	13	0	1	96
NMTAP	13	96	2
NMTAP	13	144	3
NMHLD	13	192	4	96
NMHLD	13	288	2	96
EXTAP	14	0	3
EXTAP	14	24	3
EXTAP	14	96	1
EXTAP	14	96	5
EXSTR	14	120	1
NMSV_	14	120	1	96	72	3
EXSTR	14	120	5
NMSV_	14	120	5	96	72	7
NMSTR	15	0	6
NMSXR	15	0	6	96	192	3
NMTAP	15	96	2
NMTAP	15	144	2
NMTAP	15	240	1
NMTAP	15	288	1
NMSTR	16	0	0
NMSCR	16	0	0	96	48	3
NMTAP	16	96	5
NMSTR	16	144	5
NMSCR	16	144	5	96	48	0
NMTAP	16	240	1
NMTAP	16	288	1
NMSTR	17	0	1
NMSXL	17	0	1	96	192	4
NMTAP	17	96	5
NMTAP	17	144	5
NMTAP	17	240	6
NMTAP	17	288	6
EXTAP	18	0	6
EXTAP	18	0	7
EXTAP	18	48	5
EXTAP	18	96	2
EXTAP	18	96	4
EXTAP	18	192	0
EXTAP	18	192	1
EXTAP	18	240	2
EXTAP	18	288	3
EXTAP	18	288	5
NMSTR	19	0	6
NMSXL	19	0	6	96	192	3
NMTAP	19	96	3
NMTAP	19	144	3
NMTAP	19	240	1
NMTAP	19	288	1
NMSTR	20	0	0
NMSXL	20	0	0	96	192	3
NMTAP	20	96	4
NMTAP	20	144	4
NMTAP	20	240	6
NMTAP	20	288	6
NMHLD	21	0	2	288
NMTTP	21	240	3	E	0	M1
NMTTP	21	256	3	B	0	M1
NMTTP	21	272	4	B	0	M1
NMTTP	21	288	5	E	0	M1
NMTTP	22	0	7	E	0	M1
NMTTP	22	72	1	E	0	M1
NMTTP	22	96	1	B	0	M1
NMTTP	22	144	3	E	0	M1
NMTTP	22	192	4	E	0	M1
NMTTP	22	288	4	A	0	M1
NMTTP	22	288	5	E	1	M1
NMTTP	22	288	5	A	0	M1
NMTTP	22	288	5	D	0	M1
NMTAP	23	0	2
NMTAP	23	24	3
NMTAP	23	48	2
NMTAP	23	72	3
NMTAP	23	96	1
NMTAP	23	144	5
NMTAP	23	168	4
NMTAP	23	192	5
NMTAP	23	216	4
NMTAP	23	240	6
NMTAP	23	288	0
NMTAP	23	288	7
NMTAP	23	336	2
NMTAP	23	360	3
NMTAP	24	0	1
NMTAP	24	24	4
NMSTR	24	48	0
NMSI_	24	48	0	96	48	4
NMSTR	24	96	6
NMSCR	24	96	6	96	96	5
NMTAP	24	144	0
NMTAP	24	192	6
EXTAP	24	336	1
EXSTR	25	0	1
NMSI_	25	0	1	96	48	4
NMTAP	25	72	0
NMTAP	25	96	1
NMTAP	25	144	7
NMSTR	25	192	6
NMSI_	25	192	6	96	48	3
NMTAP	25	264	7
NMTAP	25	288	6
NMTAP	25	336	0
EXTAP	26	0	1
EXTAP	26	0	3
EXTAP	26	72	4
EXTAP	26	72	6
NMTAP	26	144	0
NMTAP	26	144	7
NMSTR	26	192	0
NMSCR	26	192	0	96	48	3
NMSTR	26	192	7
NMSCL	26	192	7	96	48	4
NMTAP	26	288	0
NMTAP	26	288	7
NMTAP	27	0	2
NMTAP	27	24	4
NMTAP	27	48	3
NMTAP	27	72	5
NMTAP	27	96	4
NMHLD	27	120	6	48
NMTAP	27	168	7
NMTAP	27	216	5
NMTAP	27	240	4
NMTAP	27	288	3
NMTAP	27	288	6
NMTAP	28	0	5
NMTAP	28	24	3
NMTAP	28	48	4
NMTAP	28	72	2
NMTAP	28	96	3
NMHLD	28	120	1	48
NMTAP	28	168	0
NMTAP	28	216	2
NMTAP	28	240	3
NMTAP	28	288	1
NMTAP	28	288	4
NMTAP	28	336	5
NMSTR	29	0	6
NMSI_	29	0	6	96	48	3
NMTAP	29	72	7
NMTAP	29	96	6
NMTAP	29	144	0
NMSTR	29	192	1
NMSI_	29	192	1	96	48	4
NMTAP	29	264	0
NMTAP	29	288	1
EXTAP	29	336	7
EXSTR	30	0	7
NMSF_	30	0	7	96	48	3
EXTAP	30	96	7
NMSTR	30	192	0
NMSF_	30	192	0	96	48	4
EXTAP	30	288	0
NMTTP	31	0	2	B	0	M1
NMTTP	31	0	3	B	0	M1
NMTTP	31	0	3	E	0	M1
NMTTP	31	0	4	B	0	M1
NMTTP	31	0	4	E	1	M1
NMTTP	31	0	5	B	0	M1
NMTTP	31	0	5	E	0	M1
NMSTR	31	144	6
NMSCL	31	144	6	96	48	3
NMTAP	31	144	7
NMTAP	31	192	6
NMTAP	31	192	7
NMTAP	31	240	0
NMSTR	31	288	0
NMSI_	31	288	0	96	48	2
NMSI_	31	288	0	96	48	3
NMSTR	32	0	0
NMSI_	32	0	0	96	48	5
NMSI_	32	0	0	96	48	6
NMSTR	32	96	0
NMSI_	32	96	0	96	48	2
NMSI_	32	96	0	96	48	3
NMTAP	32	192	0
NMSTR	32	288	1
NMSI_	32	288	1	96	48	4
EXSTR	32	288	4
NMSI_	32	288	4	96	48	7
BRTAP	33	0	1
BRTAP	33	0	4
NMTAP	33	96	3
NMTAP	33	96	6
EXTAP	33	144	5
EXTAP	33	168	4
EXTAP	33	192	5
NMTAP	33	240	3
NMTAP	33	240	6
NMSTR	33	288	2
NMSI_	33	288	2	96	48	7
NMSTR	33	288	7
NMSI_	33	288	7	96	48	4
BRTAP	34	0	2
BRTAP	34	0	7
NMTAP	34	96	0
NMTAP	34	96	5
NMTAP	34	144	6
NMTAP	34	168	7
NMTAP	34	192	6
NMTAP	34	240	0
NMTAP	34	240	5
NMTAP	34	288	1
NMTAP	34	288	4
NMTAP	35	0	2
NMTAP	35	24	3
NMTAP	35	48	2
NMTAP	35	72	3
NMTAP	35	96	1
NMTAP	35	144	5
NMTAP	35	168	4
NMTAP	35	192	5
NMTAP	35	216	4
NMTAP	35	240	6
NMTAP	35	288	1
NMTAP	35	288	7
EXTAP	35	336	2
EXSTR	36	0	2
NMSI_	36	0	2	96	48	7
NMTAP	36	72	3
NMTAP	36	96	2
NMTAP	36	144	4
NMSTR	36	192	5
NMSI_	36	192	5	96	48	0
NMTAP	36	264	4
NMTAP	36	288	5
NMTAP	36	336	2
NMSTR	37	0	1
BRSCR	37	0	1	96	96	5
NMSTR	37	96	5
BRSCR	37	96	5	96	96	1
NMTAP	37	192	1
NMTAP	37	288	5
NMSTR	38	0	2
NMSI_	38	0	2	96	48	7
NMSTR	38	0	6
NMSI_	38	0	6	96	48	3
NMTAP	38	96	2
NMTAP	38	96	6
NMSTR	38	192	1
NMSV_	38	192	1	96	48	4
NMSTR	38	192	5
NMSV_	38	192	5	96	48	0
NMTAP	38	288	1
NMTAP	38	288	5
NMHLD	39	0	3	96
NMHLD	39	0	7	96
NMTAP	39	144	3
NMTAP	39	144	7
NMTAP	39	240	4
NMTAP	39	240	6
NMTAP	39	336	2
NMSTR	39	336	5
NMSCL	39	336	5	96	48	2
NMSTR	40	96	1
NMSI_	40	96	1	96	48	5
NMTAP	40	192	1
NMSTR	40	192	6
NMSI_	40	192	6	96	48	2
NMSTR	40	288	3
NMSUR	40	288	3	96	168	4
NMTAP	40	288	6
CNSCR	41	168	4	0	120	2
EXTAP	41	288	7
NMTAP	42	0	3
NMTAP	42	0	4
NMTAP	42	48	2
NMTAP	42	72	4
NMTAP	42	96	2
NMTAP	42	144	5
NMTAP	42	168	3
NMTAP	42	192	5
NMTAP	42	240	2
NMTAP	42	240	6
NMTAP	42	288	2
NMTAP	42	288	6
NMTAP	42	336	1
NMTAP	42	336	5
NMTAP	43	0	1
NMTAP	43	0	5
NMTAP	43	48	2
NMTAP	43	72	3
NMTAP	43	96	2
NMTAP	43	144	5
NMTAP	43	168	4
NMTAP	43	192	5
NMTAP	43	240	3
NMTAP	43	288	2
NMTAP	43	288	4
NMTAP	43	336	1
NMTAP	44	0	0
NMTAP	44	0	6
NMTAP	44	48	7
NMTAP	44	72	1
NMTAP	44	96	7
NMTAP	44	144	0
NMTAP	44	168	6
NMTAP	44	192	0
NMTAP	44	240	1
NMTAP	44	240	7
NMTAP	44	288	2
NMTAP	44	288	6
NMTAP	44	336	3
NMTAP	44	336	5
NMTAP	45	0	2
NMTAP	45	24	4
NMTAP	45	48	2
NMTAP	45	72	4
NMTAP	45	96	3
NMTAP	45	120	5
NMTAP	45	144	3
NMTAP	45	168	5
NMTAP	45	192	4
NMTAP	45	216	6
NMTAP	45	240	4
NMTAP	45	264	6
BXTAP	45	288	0
NMHLD	46	0	3	288
NMSTR	46	0	5
NMSCR	46	0	5	96	480	2
NMHLD	47	0	4	192
NMSTR	48	0	2
NMSCL	48	0	2	96	480	5
NMHLD	48	0	4	288
NMHLD	49	0	3	192
NMTAP	50	0	3
NMSTR	50	0	6
NMSXL	50	0	6	96	192	3
NMTAP	50	96	3
NMTAP	50	192	2
NMTAP	50	288	2
NMSTR	51	0	1
NMSV_	51	0	1	96	72	4
NMTAP	51	0	4
NMTAP	51	96	5
CNSLL	51	168	4	0	120	7
NMTAP	51	192	6
NMTAP	51	288	6
NMTAP	52	0	0
NMTAP	52	0	5
NMTAP	52	48	0
NMTAP	52	96	1
NMTAP	52	96	4
NMTAP	52	144	4
NMTAP	52	192	3
NMTAP	52	192	6
NMTAP	52	240	3
NMTAP	52	288	2
NMTAP	52	288	7
NMTAP	52	336	7
NMHLD	53	0	0	96
NMHLD	53	0	1	96
NMSTR	53	192	4
NMSI_	53	192	4	96	48	2
NMSTR	53	192	5
NMSI_	53	192	5	96	48	7
NMTAP	53	288	4
NMTAP	53	288	5
EXTAP	54	0	1
EXTAP	54	24	0
EXTAP	54	48	1
EXTAP	54	72	0
EXTAP	54	96	2
EXTAP	54	144	6
EXTAP	54	168	7
EXTAP	54	192	6
EXTAP	54	216	7
EXTAP	54	240	5
NMTAP	54	288	3
NMTAP	54	288	4
NMTAP	54	336	2
NMTAP	54	360	3
NMTAP	55	0	1
NMTAP	55	24	4
NMSTR	55	48	0
BRSI_	55	48	0	96	48	4
NMSTR	55	96	6
BRSCR	55	96	6	96	96	5
NMTAP	55	144	0
BRTAP	55	192	6
EXTAP	55	336	1
NMSTR	56	0	1
NMSCR	56	0	1	96	48	4
NMTAP	56	72	0
NMTAP	56	96	1
NMTAP	56	144	5
EXSTR	56	192	6
NMSCL	56	192	6	96	48	3
NMTAP	56	264	7
NMTAP	56	288	6
NMTAP	56	336	2
EXTAP	57	0	0
EXTAP	57	0	1
NMTAP	57	72	6
NMTAP	57	72	7
NMTAP	57	144	3
NMTAP	57	144	4
NMSTR	57	192	3
NMSCL	57	192	3	96	48	0
NMSTR	57	192	4
NMSCR	57	192	4	96	48	7
NMTAP	57	288	3
NMTAP	57	288	4
NMTAP	58	0	1
NMTAP	58	24	0
NMTAP	58	48	2
NMTAP	58	72	7
NMTAP	58	96	3
NMHLD	58	120	6	48
NMTAP	58	168	4
NMTAP	58	216	2
NMTAP	58	240	3
NMTAP	58	288	1
NMTAP	58	288	4
NMTAP	59	0	6
NMTAP	59	24	7
NMTAP	59	48	5
NMTAP	59	72	0
NMTAP	59	96	4
NMHLD	59	120	1	48
NMTAP	59	168	3
NMTAP	59	216	5
NMTAP	59	240	4
NMTAP	59	288	3
NMTAP	59	288	6
NMTAP	59	336	2
NMSTR	60	0	1
NMSCR	60	0	1	96	48	4
NMTAP	60	72	0
NMTAP	60	96	1
NMTAP	60	144	5
NMSTR	60	192	6
NMSCL	60	192	6	96	48	3
NMTAP	60	264	7
NMTAP	60	288	6
NMTAP	60	336	2
NMSTR	61	0	0
NMSF_	61	0	0	96	48	4
BXTAP	61	96	0
NMSTR	61	192	7
BRSF_	61	192	7	96	48	3
BXTAP	61	288	7
NMTTP	62	0	0	C	1	M1
NMTTP	62	0	1	B	0	M1
NMTTP	62	0	1	A	0	M1
NMTTP	62	0	5	B	0	M1
NMTTP	62	0	5	A	0	M1
NMSTR	62	144	6
NMSCL	62	144	6	96	48	3
NMTAP	62	144	7
NMTAP	62	192	6
NMTAP	62	192	7
NMTAP	62	240	0
NMSTR	62	288	0
NMSI_	62	288	0	96	48	3
NMSCR	62	288	0	96	48	2
NMSTR	63	0	0
NMSI_	63	0	0	96	48	5
NMSCL	63	0	0	96	48	6
NMSTR	63	96	0
NMSI_	63	96	0	96	48	3
NMSCR	63	96	0	96	48	2
NMTAP	63	192	0
NMSTR	63	288	1
BRSI_	63	288	1	96	48	4
EXSTR	63	288	4
BRSCR	63	288	4	96	48	7
BRTAP	64	0	1
BRTAP	64	0	4
NMTAP	64	96	2
NMTAP	64	96	6
NMTAP	64	144	1
NMTAP	64	168	0
NMTAP	64	192	1
NMTAP	64	240	2
NMTAP	64	240	7
NMSTR	64	288	3
NMSCL	64	288	3	96	48	0
NMSTR	64	288	6
NMSI_	64	288	6	96	48	3
BRTAP	65	0	3
BRTAP	65	0	6
NMTAP	65	96	1
EXTAP	65	96	5
NMTAP	65	144	6
NMTAP	65	168	7
NMTAP	65	192	6
NMTAP	65	240	0
NMTAP	65	240	5
NMTAP	65	288	1
NMTAP	65	288	4
NMTAP	66	0	2
NMTAP	66	24	3
NMTAP	66	48	1
NMTAP	66	72	3
NMTAP	66	96	0
NMTAP	66	144	5
NMTAP	66	168	4
NMTAP	66	192	6
NMTAP	66	216	4
NMTAP	66	240	7
NMTAP	66	288	0
NMTAP	66	288	1
NMTAP	66	336	2
NMSTR	67	0	2
NMSI_	67	0	2	96	48	7
NMTAP	67	72	3
NMTAP	67	96	2
NMTAP	67	144	6
NMSTR	67	192	5
NMSI_	67	192	5	96	48	0
NMTAP	67	264	4
NMTAP	67	288	5
NMTAP	67	336	1
NMSTR	68	0	2
BRSCL	68	0	2	96	96	6
NMSTR	68	96	6
BRSCL	68	96	6	96	96	2
NMTAP	68	192	2
NMSTR	68	288	6
NMSXL	68	288	6	96	144	1
NMTAP	69	0	1
NMTAP	69	48	2
NMTAP	69	96	3
NMTAP	69	144	4
NMSTR	69	192	4
NMSCL	69	192	4	96	48	1
NMSCR	69	192	4	96	48	7
NMTAP	69	288	4
NMTTP	70	0	2	B	0	M1
NMTTP	70	0	3	B	0	M1
NMTTP	70	0	3	E	0	M1
NMTTP	70	0	4	B	0	M1
NMTTP	70	0	4	E	1	M1
NMTTP	70	0	5	B	0	M1
NMTTP	70	0	5	E	0	M1
NMTAP	70	144	0
NMSTR	70	144	1
NMSCR	70	144	1	96	48	4
NMTAP	70	192	0
NMTAP	70	192	1
NMTAP	70	240	7
NMSTR	70	288	7
NMSI_	70	288	7	96	48	4
NMSCL	70	288	7	96	48	4
NMSTR	71	0	7
NMSI_	71	0	7	96	48	2
NMSCR	71	0	7	96	48	2
NMSTR	71	96	7
NMSI_	71	96	7	96	48	4
NMSCL	71	96	7	96	48	4
NMTAP	71	192	7
EXSTR	71	288	2
NMSV_	71	288	2	96	48	7
NMSTR	71	288	6
NMSI_	71	288	6	96	48	3
BRTAP	72	0	2
BRTAP	72	0	6
NMTAP	72	96	1
NMTAP	72	96	5
NMTAP	72	144	6
NMTAP	72	168	7
NMTAP	72	192	6
NMTAP	72	240	1
NMTAP	72	240	5
NMSTR	72	288	1
NMSV_	72	288	1	96	48	4
NMSTR	72	288	5
NMSI_	72	288	5	96	48	0
BRTAP	73	0	1
BRTAP	73	0	5
NMTAP	73	96	2
NMTAP	73	96	6
NMTAP	73	144	1
NMTAP	73	168	0
NMTAP	73	192	1
NMTAP	73	240	2
NMTAP	73	240	6
NMTAP	73	288	0
NMTAP	73	288	4
NMTAP	74	0	6
NMTAP	74	24	7
NMTAP	74	48	5
NMTAP	74	72	7
NMTAP	74	96	4
NMTAP	74	144	1
NMTAP	74	168	0
NMTAP	74	192	2
NMTAP	74	216	0
NMTAP	74	240	3
NMTAP	74	288	4
NMTAP	74	288	6
NMTAP	74	336	5
NMSTR	75	0	5
NMSV_	75	0	5	96	48	0
NMTAP	75	72	4
NMTAP	75	96	5
NMTAP	75	144	1
NMSTR	75	192	2
NMSV_	75	192	2	96	48	7
NMTAP	75	264	3
NMTAP	75	288	2
NMTAP	75	336	6
NMSTR	76	0	5
NMSLR	76	0	5	96	96	1
NMSTR	76	96	1
NMSLR	76	96	1	96	96	5
NMTAP	76	192	5
NMTAP	76	288	1
NMSTR	77	0	0
NMSI_	77	0	0	96	48	4
NMSCR	77	0	0	96	16	1
NMTAP	77	0	1
BXTAP	77	96	0
CNSV_	77	112	1	0	16	3
CNSCR	77	128	3	0	16	4
NMSTR	77	192	6
NMSV_	77	192	6	96	48	3
NMSTR	77	192	7
NMSI_	77	192	7	96	48	3
BXTAP	77	288	6
BXTAP	77	288	7
NMHLD	78	0	2	96
NMHLD	78	0	4	96
NMTAP	78	144	2
NMTAP	78	144	4
NMTAP	78	240	3
NMTAP	78	240	6
NMTAP	78	336	1
NMSTR	78	336	4
NMSCR	78	336	4	96	48	7
NMSTR	79	96	0
NMSI_	79	96	0	96	48	4
NMTAP	79	192	0
NMSTR	79	192	6
NMSI_	79	192	6	96	48	2
NMSTR	79	288	3
NMSCL	79	288	3	96	96	5
NMTAP	79	288	6
BXTAP	80	96	4
NMTAP	80	240	2
NMTAP	80	264	3
NMTAP	80	312	5
NMTAP	80	336	4
NMTAP	81	0	1
NMTAP	81	24	3
NMTAP	81	72	6
NMTAP	81	96	4
NMTAP	81	168	2
NMTAP	81	216	0
NMTAP	81	264	7
NMTAP	81	312	5
NMTAP	81	360	3
NMTAP	82	48	2
NMTAP	82	48	4
NMTAP	82	144	3
NMTAP	82	144	5
NMTAP	82	216	6
NMTAP	82	216	7
NMTAP	82	336	0
NMTAP	82	336	1
NMTAP	83	72	0
NMTAP	83	96	7
NMTAP	83	120	0
NMTAP	83	144	7
NMTAP	83	168	0
NMTAP	83	192	7
NMTAP	83	216	0
NMTAP	83	240	7
NMTAP	83	264	0
NMTAP	83	288	7
NMTAP	83	312	0
NMTAP	83	336	7
NMTAP	84	0	1
NMTAP	84	48	2
NMTAP	84	120	3
NMTAP	84	120	6
NMTAP	84	240	0
NMTAP	84	240	7
NMTAP	84	360	1
NMTAP	84	360	4
NMTAP	85	192	3
NMTAP	85	216	4
NMTAP	85	240	2
NMTAP	85	264	3
NMTTP	86	144	0	B	0	M1
NMTTP	86	144	0	E	1	M1
NMTTP	86	144	0	A	0	M1
NMTTP	86	144	0	D	0	M1
BXHLD	86	144	1	480
NMTTP	86	144	7	B	0	M1
NMTTP	86	144	7	A	0	M1
EXTAP	87	96	6
EXTAP	87	112	5
EXTAP	87	128	4
EXHLD	87	144	3	96

T_REC_TAP	435
T_REC_BRK	15
T_REC_XTP	48
T_REC_BXX	7
T_REC_HLD	24
T_REC_XHO	3
T_REC_BHO	0
T_REC_BXH	1
T_REC_STR	84
T_REC_BST	0
T_REC_XST	11
T_REC_XBS	0
T_REC_TTP	38
T_REC_THO	0
T_REC_SLD	97
T_REC_BSL	9
T_REC_ALL	772
T_NUM_TAP	616
T_NUM_BRK	32
T_NUM_HLD	27
T_NUM_SLD	97
T_NUM_ALL	772
T_JUDGE_TAP	638
T_JUDGE_HLD	82
T_JUDGE_SLD	106
T_JUDGE_ALL	826
TTM_EACHPAIRS	119
TTM_SCR_TAP	308000
TTM_SCR_BRK	83200
TTM_SCR_HLD	27000
TTM_SCR_SLD	145500
TTM_SCR_ALL	563700
TTM_SCR_S	543700
TTM_SCR_SS	560500
TTM_RAT_ACV	10057

