VERSION	0.00.00	1.04.00
FES_MODE	0
BPM_DEF	154.000	154.000	154.000	154.000
MET_DEF	4	4
RESOLUTION	384
CLK_DEF	384
COMPATIBLE_CODE	MA2

BPM	0	0	154.000
MET	0	0	4	4

NMTTP	1	348	2	E	0	M1
NMTTP	2	0	2	B	0	M1
NMTTP	2	168	5	B	0	M1
NMTTP	2	168	6	E	0	M1
NMTAP	3	0	2
NMTAP	3	96	2
NMTAP	3	96	3
NMTAP	3	192	1
NMHLD	3	240	1	96
NMTAP	3	336	3
NMTAP	4	48	1
NMTAP	4	48	3
NMTAP	4	144	2
NMTAP	4	192	2
NMTAP	4	288	3
NMTAP	4	288	4
NMTAP	5	0	5
NMTAP	5	96	4
NMTAP	5	96	5
NMTAP	5	192	6
NMHLD	5	240	6	96
NMTAP	5	336	4
NMTAP	6	48	4
NMTAP	6	48	6
NMTAP	6	144	7
BXTAP	6	192	0
BXTAP	6	192	7
NMHLD	7	0	2	192
NMTAP	7	192	3
NMTAP	7	288	4
NMHLD	8	0	5	192
NMTAP	8	192	4
NMTAP	8	288	3
NMHLD	9	0	2	96
NMHLD	9	0	4	96
NMHLD	9	192	3	96
NMHLD	9	192	5	96
NMTAP	10	0	4
NMTAP	10	0	6
NMTAP	10	96	4
NMSTR	10	96	6
NMSI_	10	96	6	96	48	4
NMTAP	10	288	3
NMTAP	11	0	2
NMTAP	11	96	1
NMTAP	11	96	3
NMTAP	11	192	2
NMTAP	11	288	3
NMTAP	11	288	4
NMTAP	12	0	5
NMTAP	12	96	4
NMTAP	12	96	6
NMTAP	12	192	5
NMTAP	12	288	3
NMTAP	12	288	4
NMHLD	13	0	2	96
NMHLD	13	0	3	96
NMHLD	13	192	4	96
NMHLD	13	192	5	96
EXTAP	14	0	0
NMTAP	14	0	6
NMSTR	14	96	1
NMSI_	14	96	1	96	48	3
NMTAP	14	96	7
NMTAP	14	288	4
NMTAP	15	0	6
NMTAP	15	48	6
NMTAP	15	96	7
NMTAP	15	192	1
NMTAP	15	240	1
NMTAP	15	288	0
NMTAP	16	0	2
NMTAP	16	48	2
NMTAP	16	96	4
NMTAP	16	192	4
NMTAP	16	192	5
NMTAP	16	288	3
NMTAP	16	288	6
NMTAP	17	0	1
NMTAP	17	48	1
NMTAP	17	96	0
NMTAP	17	192	6
NMTAP	17	240	6
NMTAP	17	288	7
NMTAP	18	0	5
NMTAP	18	48	5
NMTAP	18	96	3
NMTAP	18	192	2
NMTAP	18	192	3
NMTAP	18	288	1
NMTAP	18	288	4
NMSTR	19	0	5
NMSCL	19	0	5	96	48	3
EXHLD	19	192	1	96
NMTAP	19	288	3
NMSTR	20	0	2
NMSCR	20	0	2	96	48	4
EXHLD	20	192	5	96
NMTAP	20	288	4
EXHLD	21	0	1	288
EXHLD	21	0	6	288
EXTAP	22	0	0
EXTAP	22	0	7
EXTAP	22	72	1
EXTAP	22	72	6
EXTAP	22	144	2
EXTAP	22	144	5
NMTTP	22	288	5	B	0	M1
NMTAP	23	0	2
NMTAP	23	0	3
NMTAP	23	96	0
NMTAP	23	96	1
NMTAP	23	192	6
NMTAP	23	192	7
NMTAP	23	288	4
NMTAP	23	288	5
NMSTR	24	0	2
NMSCL	24	0	2	96	96	7
NMSTR	24	0	3
NMSCR	24	0	3	96	96	6
EXTAP	24	288	0
EXTAP	24	288	4
NMSTR	25	0	1
NMSI_	25	0	1	96	48	4
NMTAP	25	0	5
NMTAP	25	192	2
NMSTR	25	192	6
NMSI_	25	192	6	96	48	3
NMTAP	26	0	1
NMTAP	26	96	0
NMTAP	26	192	6
NMTAP	26	192	7
EXTAP	26	288	1
EXTAP	26	288	4
NMTAP	27	0	2
NMTAP	27	0	3
NMTAP	27	96	0
NMTAP	27	96	1
NMTAP	27	192	6
NMTAP	27	192	7
NMTAP	27	288	4
NMTAP	27	288	5
NMTAP	28	0	4
NMTAP	28	0	5
NMTAP	28	96	6
NMTAP	28	96	7
NMTAP	28	192	0
NMTAP	28	192	1
NMTAP	28	288	2
NMTAP	28	288	3
NMSTR	29	0	1
NMSI_	29	0	1	96	48	4
NMTAP	29	0	5
NMTAP	29	192	2
NMSTR	29	192	6
NMSI_	29	192	6	96	48	3
EXTAP	30	0	2
BXTAP	30	96	0
BXTAP	30	96	6
EXTAP	30	192	4
EXTAP	30	192	5
BXTAP	30	288	1
BXTAP	30	288	7
BRHLD	31	0	0	96
BRHLD	31	0	7	96
EXTAP	31	144	1
EXTAP	31	144	6
EXTAP	31	192	1
EXTAP	31	192	6
NMTAP	31	288	4
NMTAP	31	336	4
NMTAP	32	0	2
NMTAP	32	48	2
NMTAP	32	96	3
NMTAP	32	144	3
NMTAP	32	192	0
NMTAP	32	288	1
NMTAP	32	288	7
BRHLD	33	0	6	96
NMTAP	33	96	4
NMTAP	33	144	4
NMTAP	33	192	5
NMTAP	33	288	3
NMTAP	33	288	4
BRHLD	34	0	1	96
NMTAP	34	96	3
NMTAP	34	144	3
NMTAP	34	192	2
NMTAP	34	288	3
NMTAP	34	288	4
NMTAP	35	0	4
NMTAP	35	0	5
NMTAP	35	96	6
NMTAP	35	96	7
NMTAP	35	192	0
NMTAP	35	192	1
NMTAP	35	288	2
NMTAP	35	288	3
NMSTR	36	0	1
NMSI_	36	0	1	96	48	4
NMTAP	36	0	5
NMTAP	36	192	2
NMSTR	36	192	6
NMSI_	36	192	6	96	48	3
NMTAP	37	0	1
NMTAP	37	48	1
NMTAP	37	96	3
NMTAP	37	192	6
NMTAP	37	240	6
NMTAP	37	288	4
EXTAP	38	0	2
EXTAP	38	0	5
NMTAP	38	96	0
NMSTR	38	96	7
NMSF_	38	96	7	96	96	3
NMTTP	39	0	1	B	0	M1
NMTTP	39	0	1	E	0	M1
NMTTP	39	96	6	B	0	M1
NMTTP	39	96	7	E	0	M1
NMTTP	39	192	0	B	0	M1
NMTTP	39	192	7	B	0	M1
NMTTP	39	288	3	B	0	M1
NMTTP	39	288	4	B	0	M1
NMTAP	40	96	0
NMTAP	40	96	7
NMTAP	40	192	2
NMTAP	40	192	5
NMSTR	40	288	1
NMSI_	40	288	1	96	240	5
NMTAP	40	288	6
NMTAP	42	0	6
NMTAP	42	96	6
NMTAP	42	96	7
NMTAP	42	192	5
NMHLD	42	240	5	96
NMTAP	42	336	7
NMTAP	43	48	5
NMTAP	43	48	7
NMTAP	43	144	6
NMTAP	43	192	6
NMTAP	43	288	0
NMTAP	43	288	7
NMTAP	44	0	1
NMTAP	44	96	0
NMTAP	44	96	1
NMTAP	44	192	2
NMHLD	44	240	2	96
NMTAP	44	336	0
NMTAP	45	48	0
NMTAP	45	48	2
NMTAP	45	144	3
NMTAP	45	144	4
NMTAP	45	192	3
NMTAP	45	192	4
NMTAP	45	288	1
NMTAP	45	288	6
NMSTR	46	0	7
NMSCL	46	0	7	96	576	0
NMSTR	48	0	3
NMSLL	48	0	3	96	240	7
CNSLL	48	336	7	0	336	3
NMTAP	50	0	1
NMTAP	50	0	3
NMTAP	50	96	1
NMTAP	50	96	3
NMHLD	50	192	1	96
NMHLD	50	192	3	96
NMTAP	51	0	4
NMTAP	51	0	6
NMTAP	51	96	4
NMTAP	51	96	6
NMHLD	51	192	4	96
NMHLD	51	192	6	96
NMTAP	52	0	7
NMTAP	52	48	7
NMTAP	52	96	0
NMTAP	52	144	0
NMTAP	52	192	5
NMTAP	52	240	5
NMTAP	52	288	2
NMTAP	53	0	3
NMTAP	53	0	4
NMTAP	53	96	0
NMTAP	53	96	7
EXHLD	53	192	1	48
EXHLD	53	192	6	48
NMTAP	54	0	0
NMTAP	54	48	1
NMTAP	54	96	2
NMTAP	54	96	3
NMTAP	54	192	7
NMTAP	54	240	6
NMTAP	54	288	4
NMTAP	54	288	5
NMSTR	55	0	2
NMSCL	55	0	2	96	96	7
NMSTR	55	0	3
NMSCR	55	0	3	96	96	6
EXTAP	55	288	0
EXTAP	55	288	5
NMTAP	56	0	2
NMSTR	56	0	7
NMSI_	56	0	7	96	48	3
NMSTR	56	192	0
NMSI_	56	192	0	96	48	4
NMTAP	56	192	5
NMTAP	57	0	7
NMTAP	57	96	4
NMTAP	57	96	5
NMTAP	57	192	2
NMTAP	57	192	3
NMTAP	57	288	0
NMTAP	57	288	5
NMTAP	58	0	7
NMTAP	58	48	6
NMTAP	58	96	4
NMTAP	58	96	5
NMTAP	58	192	0
NMTAP	58	240	1
NMTAP	58	288	2
NMTAP	58	288	3
NMTAP	59	0	4
NMTAP	59	48	5
NMTAP	59	96	6
NMTAP	59	96	7
NMTAP	59	192	3
NMTAP	59	240	2
NMTAP	59	288	0
NMTAP	59	288	1
NMTAP	60	0	2
NMSTR	60	0	7
NMSI_	60	0	7	96	48	3
NMSTR	60	192	0
NMSI_	60	192	0	96	48	4
NMTAP	60	192	5
EXTAP	61	0	3
EXTAP	61	0	5
BXTAP	61	96	0
BXTAP	61	96	1
EXTAP	61	192	2
EXTAP	61	192	4
BXTAP	61	288	6
BXTAP	61	288	7
BRHLD	62	0	0	96
BRHLD	62	0	7	96
EXTAP	62	144	1
EXTAP	62	144	6
EXTAP	62	192	1
EXTAP	62	192	6
NMTAP	62	288	2
NMTAP	62	336	2
NMTAP	63	0	3
NMTAP	63	48	3
NMTAP	63	96	0
NMTAP	63	144	0
NMTAP	63	192	7
NMTAP	63	288	0
NMTAP	63	288	6
BRHLD	64	0	1	96
NMTAP	64	96	3
NMTAP	64	144	3
NMTAP	64	192	2
NMTAP	64	288	3
NMTAP	64	288	4
BRHLD	65	0	6	96
NMTAP	65	96	4
NMTAP	65	144	4
NMTAP	65	192	5
NMTAP	65	288	3
NMTAP	65	288	4
NMTAP	66	0	0
NMTAP	66	48	1
NMTAP	66	96	2
NMTAP	66	96	3
NMTAP	66	192	7
NMTAP	66	240	6
NMTAP	66	288	4
NMTAP	66	288	5
NMSTR	67	0	0
NMSI_	67	0	0	96	48	4
NMTAP	67	0	4
NMTAP	67	192	3
NMSTR	67	192	7
NMSI_	67	192	7	96	48	3
NMTAP	68	0	1
NMTAP	68	48	1
NMTAP	68	96	3
NMTAP	68	192	6
NMTAP	68	240	6
NMTAP	68	288	4
EXTAP	69	0	2
EXTAP	69	0	5
EXSTR	69	96	0
NMSCR	69	96	0	96	48	3
EXSTR	69	96	7
NMSCL	69	96	7	96	48	4
EXTAP	69	288	2
EXTAP	69	288	5
BRHLD	70	0	1	96
BRHLD	70	0	6	96
EXTAP	70	144	0
EXTAP	70	144	7
EXTAP	70	192	0
EXTAP	70	192	7
NMTAP	70	288	1
NMTAP	70	336	1
NMTAP	71	0	3
NMTAP	71	48	3
NMTAP	71	96	4
NMTAP	71	144	4
NMTAP	71	192	6
NMTAP	71	288	0
NMTAP	71	288	7
BRHLD	72	0	1	96
NMTAP	72	96	3
NMTAP	72	144	3
NMTAP	72	192	2
NMTAP	72	288	4
NMTAP	72	288	5
BRHLD	73	0	6	96
NMTAP	73	96	4
NMTAP	73	144	4
NMTAP	73	192	5
NMTAP	73	288	2
NMTAP	73	288	3
NMTAP	74	0	0
NMTAP	74	48	1
NMTAP	74	96	2
NMTAP	74	96	3
NMTAP	74	192	7
NMTAP	74	240	6
NMTAP	74	288	4
NMTAP	74	288	5
NMSTR	75	0	1
NMSI_	75	0	1	96	48	6
NMTAP	75	0	3
NMTAP	75	192	4
NMSTR	75	192	5
NMSI_	75	192	5	96	48	2
NMTAP	76	0	1
NMTAP	76	48	1
NMTAP	76	96	0
NMTAP	76	96	2
NMTAP	76	192	6
NMTAP	76	240	6
NMTAP	76	288	5
NMTAP	76	288	7
NMSTR	77	0	0
BRSCR	77	0	0	96	48	3
NMSTR	77	96	4
BRSCR	77	96	4	96	48	7
EXTAP	77	288	2
EXTAP	77	288	6
NMTAP	78	0	0
NMTAP	78	0	1
NMTAP	78	96	4
NMTAP	78	96	5
NMTAP	78	192	6
NMTAP	78	192	7
NMTAP	78	288	2
NMTAP	78	288	3
NMTAP	78	336	2
NMTAP	78	336	3
NMSTR	79	96	0
NMSI_	79	96	0	96	48	4
NMSTR	79	96	7
NMSI_	79	96	7	96	48	3
BRTAP	79	288	1
BRTAP	79	288	6
BRSTR	80	96	0
BRSI_	80	96	0	96	96	6
BRSTR	80	96	7
NMSI_	80	96	7	96	96	1
CNSI_	80	288	1	0	96	5
CNSI_	80	288	6	0	96	2
CNSI_	81	0	2	0	96	4
CNSI_	81	0	5	0	96	3
CNSCL	81	96	3	0	672	0
CNSCR	81	96	4	0	672	7
NMTTP	83	180	2	E	0	M1
NMTTP	83	264	3	E	0	M1
NMTTP	83	360	4	E	0	M1
NMTTP	84	60	5	E	0	M1
NMTTP	84	156	6	E	0	M1
NMTTP	84	252	7	E	0	M1
NMTTP	85	0	0	E	1	M1
NMTTP	85	0	0	A	0	M1
NMTTP	85	0	7	A	0	M1
BXHLD	85	240	2	204
EXHLD	85	240	5	204
BXSTR	86	156	0
BRSXL	86	156	0	96	276	3
EXSTR	86	156	7
NMSXR	86	156	7	96	276	4

T_REC_TAP	303
T_REC_BRK	2
T_REC_XTP	40
T_REC_BXX	10
T_REC_HLD	18
T_REC_XHO	7
T_REC_BHO	12
T_REC_BXH	1
T_REC_STR	30
T_REC_BST	2
T_REC_XST	3
T_REC_XBS	1
T_REC_TTP	22
T_REC_THO	0
T_REC_SLD	32
T_REC_BSL	4
T_REC_ALL	487
T_NUM_TAP	398
T_NUM_BRK	32
T_NUM_HLD	25
T_NUM_SLD	32
T_NUM_ALL	487
T_JUDGE_TAP	413
T_JUDGE_HLD	92
T_JUDGE_SLD	36
T_JUDGE_ALL	541
TTM_EACHPAIRS	138
TTM_SCR_TAP	199000
TTM_SCR_BRK	83200
TTM_SCR_HLD	25000
TTM_SCR_SLD	48000
TTM_SCR_ALL	355200
TTM_SCR_S	341450
TTM_SCR_SS	352000
TTM_RAT_ACV	10090

