VERSION	0.00.00	1.04.00
FES_MODE	0
BPM_DEF	133.200	133.200	133.200	133.200
MET_DEF	4	4
RESOLUTION	384
CLK_DEF	384
COMPATIBLE_CODE	MA2

BPM	0	0	133.200
MET	0	0	4	4

EXHLD	2	0	1	288
EXHLD	2	0	5	672
NMTAP	3	0	2
NMTAP	3	96	3
NMTAP	3	192	4
NMTAP	3	288	3
EXHLD	4	0	2	672
EXHLD	4	0	6	288
NMTAP	5	0	5
NMTAP	5	96	4
NMTAP	5	192	3
NMTAP	5	288	4
EXHLD	6	0	1	288
EXHLD	6	0	5	672
NMTAP	7	0	2
NMTAP	7	96	3
NMTAP	7	192	4
NMTAP	7	288	3
EXHLD	8	0	2	288
EXHLD	8	0	6	288
NMTAP	9	0	3
NMTAP	9	0	5
NMTAP	9	96	2
NMTAP	9	96	4
NMTAP	9	192	2
NMTAP	9	216	3
NMTAP	9	264	3
NMTAP	9	288	2
NMTAP	9	336	3
NMTAP	9	336	5
EXHLD	10	0	4	672
EXSTR	10	0	6
NMSCR	10	0	6	96	192	3
CNSUR	10	288	3	0	384	5
NMTAP	11	336	3
EXSTR	12	0	2
NMSUR	12	0	2	96	192	3
EXHLD	12	0	4	288
EXTAP	12	336	5
EXHLD	13	0	4	48
EXHLD	13	0	7	48
EXHLD	13	72	2	48
EXHLD	13	72	5	48
EXTAP	13	144	0
EXTAP	13	144	3
NMTAP	13	240	1
NMTAP	13	288	2
NMTAP	13	336	3
EXSTR	14	0	4
NMSUR	14	0	4	96	72	1
EXSTR	14	0	5
NMSCR	14	0	5	96	72	0
NMTAP	14	240	3
NMTAP	14	288	4
NMTAP	14	336	5
EXSTR	15	0	6
NMSUR	15	0	6	96	72	3
EXSTR	15	0	7
NMSCR	15	0	7	96	72	2
NMTAP	15	240	5
NMTAP	15	288	6
NMTAP	15	336	7
NMTAP	16	0	0
NMSTR	16	0	1
NMSI_	16	0	1	96	48	4
NMSTR	16	48	7
NMSI_	16	48	7	96	48	4
NMTAP	16	240	3
NMTAP	16	240	5
NMTAP	16	288	2
NMTAP	16	288	6
NMTAP	16	336	1
NMTAP	16	336	7
EXSTR	17	0	0
NMSI_	17	0	0	96	48	3
EXSTR	17	96	0
NMSCL	17	96	0	96	48	5
EXTAP	17	96	7
EXSTR	17	192	0
NMSF_	17	192	0	96	48	4
EXTAP	17	192	1
EXTAP	17	288	0
NMTAP	18	0	0
NMTAP	18	0	1
NMTAP	18	72	3
NMTAP	18	72	4
NMSTR	18	144	6
NMSI_	18	144	6	96	48	3
NMSTR	18	144	7
NMSI_	18	144	7	96	48	2
CNSI_	18	288	2	0	24	0
CNSI_	18	288	3	0	24	5
NMTAP	19	0	6
NMTAP	19	0	7
NMTAP	19	72	3
NMTAP	19	72	4
NMSTR	19	144	0
NMSI_	19	144	0	96	48	5
NMSTR	19	144	1
NMSI_	19	144	1	96	48	4
CNSI_	19	288	4	0	24	2
CNSI_	19	288	5	0	24	7
NMTAP	20	0	0
NMTAP	20	0	1
NMTAP	20	48	2
NMTAP	20	72	3
NMTAP	20	144	4
NMHLD	20	144	6	192
NMTAP	20	240	7
NMTAP	20	288	0
NMTAP	20	336	1
EXSTR	21	0	2
NMSXR	21	0	2	96	192	3
EXSTR	21	0	6
NMSXR	21	0	6	96	192	7
EXHLD	22	0	2	48
EXHLD	22	0	5	48
EXHLD	22	72	3	48
EXHLD	22	72	6	48
EXHLD	22	144	4	144
EXHLD	22	144	7	144
EXTAP	23	0	3
EXTAP	23	0	5
NMTAP	23	72	2
NMTAP	23	96	3
NMTAP	23	144	3
NMTAP	23	192	1
NMTAP	23	192	4
NMTAP	23	264	5
NMTAP	23	288	4
NMTAP	23	336	4
NMTAP	24	0	3
NMTAP	24	0	6
NMTAP	24	72	2
NMTAP	24	96	3
NMTAP	24	144	3
NMTAP	24	192	1
NMHLD	24	192	4	144
NMTAP	24	288	1
NMTAP	24	336	2
NMSTR	25	0	3
NMSI_	25	0	3	96	48	1
NMSTR	25	0	4
NMSI_	25	0	4	96	48	1
NMSTR	25	192	0
NMSI_	25	192	0	96	48	5
NMSTR	25	192	7
NMSI_	25	192	7	96	48	5
NMHLD	26	0	4	192
NMTTP	26	48	3	E	0	M1
NMTTP	26	72	2	E	0	M1
NMTTP	26	96	1	E	0	M1
NMTTP	26	120	0	E	0	M1
NMTTP	26	144	7	E	0	M1
NMTTP	26	168	6	E	0	M1
NMTTP	26	192	5	E	0	M1
EXTAP	26	288	1
EXTAP	26	288	6
NMSTR	27	0	5
NMSSR	27	0	5	96	144	1
NMTAP	27	96	1
NMSTR	27	144	1
NMSCR	27	144	1	96	96	5
NMTAP	27	240	0
NMTAP	27	288	0
NMSTR	28	0	2
NMSSL	28	0	2	96	144	6
NMTAP	28	96	6
NMSTR	28	144	6
NMSCL	28	144	6	96	96	2
NMTAP	28	240	7
NMTAP	28	288	7
NMSTR	29	0	6
NMSI_	29	0	6	96	48	2
NMSTR	29	48	7
NMSI_	29	48	7	96	48	3
NMTAP	29	192	4
NMTAP	29	240	1
NMTAP	29	240	5
NMSTR	29	288	0
NMSI_	29	288	0	96	48	3
NMTAP	29	312	0
NMTAP	29	360	7
NMTAP	30	96	5
NMTAP	30	120	3
NMTAP	30	144	5
NMTAP	30	168	3
NMTAP	30	192	4
NMTAP	30	216	2
NMTAP	30	240	4
NMTAP	30	264	2
NMTAP	30	288	3
NMTAP	30	312	1
NMTAP	30	336	3
BRTAP	31	0	2
BRTAP	31	0	4
BRTAP	31	72	0
BRTAP	31	72	7
BRHLD	31	144	3	144
BRHLD	31	144	6	144
EXSTR	32	0	5
NMSCR	32	0	5	96	48	0
NMTAP	32	48	4
NMTAP	32	96	3
NMTAP	32	120	3
NMSTR	32	168	2
NMSCL	32	168	2	96	48	7
NMTAP	32	216	3
NMTAP	32	240	3
NMTAP	32	288	4
EXSTR	33	0	5
NMSCR	33	0	5	96	48	0
NMTAP	33	48	4
NMTAP	33	96	3
NMTAP	33	120	3
NMSTR	33	168	2
NMSCL	33	168	2	96	48	7
NMTAP	33	216	3
NMTAP	33	240	3
NMTAP	33	288	4
NMTAP	34	0	5
NMTAP	34	24	5
NMTAP	34	48	5
NMTAP	34	72	5
NMSTR	34	96	5
NMSI_	34	96	5	96	48	0
NMSI_	34	96	5	96	48	2
CNSI_	34	240	0	0	48	6
CNSI_	34	240	2	0	48	4
NMTAP	35	0	3
NMTAP	35	0	5
NMTAP	35	72	0
NMTAP	35	72	7
NMHLD	35	144	2	96
NMHLD	35	144	4	96
NMTAP	35	288	3
NMTAP	35	288	5
EXSTR	36	0	2
NMSCL	36	0	2	96	48	7
NMTAP	36	48	3
NMTAP	36	96	4
NMTAP	36	120	4
NMSTR	36	168	5
NMSCR	36	168	5	96	48	0
NMTAP	36	216	4
NMTAP	36	240	4
NMTAP	36	288	3
EXSTR	37	0	2
NMSCL	37	0	2	96	48	7
NMTAP	37	48	3
NMTAP	37	96	4
NMTAP	37	120	4
NMSTR	37	168	5
NMSCR	37	168	5	96	48	0
NMTAP	37	216	4
NMTAP	37	240	4
NMTAP	37	288	3
BRTAP	38	0	2
BRTAP	38	24	2
BRTAP	38	48	2
BRTAP	38	72	2
BRSTR	38	96	2
NMSI_	38	96	2	96	48	5
NMSI_	38	96	2	96	48	7
CNSI_	38	240	5	0	48	3
CNSI_	38	240	7	0	48	1
BRTAP	39	0	2
BRTAP	39	0	4
BRTAP	39	72	0
BRTAP	39	72	7
BRSTR	39	144	3
NMSCL	39	144	3	96	48	0
BRSTR	39	144	5
NMSCR	39	144	5	96	48	0
NMTAP	40	0	6
NMTAP	40	24	6
NMTAP	40	48	7
NMTAP	40	72	7
NMTAP	40	120	0
NMTAP	40	120	5
NMTAP	40	168	1
NMTAP	40	168	6
NMTAP	40	192	1
NMTAP	40	192	6
NMSTR	40	240	2
NMSCL	40	240	2	96	48	7
NMHLD	40	240	7	96
EXTAP	41	0	5
NMSTR	41	48	5
NMSXL	41	48	5	96	120	5
NMSXR	41	48	5	96	120	5
NMTAP	41	336	4
NMTAP	41	336	6
EXSTR	42	0	3
NMSI_	42	0	3	96	96	7
NMSI_	42	0	3	96	96	7
NMTAP	42	48	2
NMTAP	42	48	4
CNSXL	42	192	7	0	72	1
CNSXR	42	192	7	0	72	5
NMTAP	42	336	6
NMTAP	42	336	7
EXTAP	43	0	4
EXTAP	43	0	5
NMTAP	43	48	2
NMTAP	43	72	3
NMTAP	43	120	1
NMTAP	43	144	0
EXTAP	43	192	6
EXTAP	43	192	7
NMTAP	43	240	5
NMTAP	43	264	4
NMTAP	43	312	2
NMTAP	43	336	3
EXSTR	44	0	1
NMSI_	44	0	1	96	48	5
NMTAP	44	48	1
NMTAP	44	96	0
NMTAP	44	144	7
NMHLD	44	192	4	72
NMTAP	44	192	6
NMHLD	44	264	3	72
NMTAP	44	336	1
BRTAP	45	0	0
BRTAP	45	0	4
BRTAP	45	72	2
BRTAP	45	72	5
BRTAP	45	144	3
BRTAP	45	144	7
NMTAP	45	240	5
NMTAP	45	264	4
NMTAP	45	288	5
NMTAP	45	312	4
NMTAP	45	336	5
EXSTR	46	0	6
NMSLL	46	0	6	96	96	0
EXSTR	46	0	7
NMSI_	46	0	7	96	48	3
CNSI_	46	144	3	0	48	1
NMHLD	46	240	2	96
NMTAP	46	240	6
NMTAP	46	336	3
EXSTR	47	0	0
NMSI_	47	0	0	96	48	4
EXSTR	47	0	1
NMSLR	47	0	1	96	96	7
CNSI_	47	144	4	0	48	6
NMTAP	47	288	0
NMSTR	47	288	1
NMSI_	47	288	1	96	48	5
EXTAP	48	0	1
EXSTR	48	0	4
NMSI_	48	0	4	96	48	0
NMSTR	48	96	3
NMSI_	48	96	3	96	48	7
NMTAP	48	96	4
NMTAP	48	192	3
NMTAP	48	192	6
NMTAP	48	288	1
NMTAP	48	288	5
NMTAP	49	0	0
NMSTR	49	0	7
NMSCL	49	0	7	96	48	4
NMTAP	49	96	1
NMSTR	49	144	2
NMSCL	49	144	2	96	48	7
NMTAP	49	240	4
NMSTR	49	288	5
NMSCL	49	288	5	96	144	0
NMHLD	50	0	1	288
CNSUL	50	144	0	0	144	6
NMTAP	51	0	4
NMTAP	51	0	5
NMTAP	51	72	2
NMTAP	51	72	3
NMSTR	51	144	0
NMSI_	51	144	0	96	48	4
NMSTR	51	144	7
NMSI_	51	144	7	96	48	3
BRTAP	51	336	2
BRTAP	51	336	5
BRHLD	52	0	4	672
BRHLD	52	0	7	672
EXTAP	53	336	3
EXTAP	53	336	6
EXTAP	54	0	2
EXTAP	54	0	5
NMTAP	54	48	1
NMTAP	54	72	0
NMTAP	54	96	1
NMTAP	54	144	1
NMTAP	54	168	0
NMTAP	54	216	0
NMTAP	54	216	7
NMTAP	54	264	6
NMTAP	54	288	7
NMTAP	54	336	0
NMTAP	54	336	7
EXTAP	55	0	1
EXTAP	55	0	2
EXSTR	55	72	3
BRSI_	55	72	3	96	24	1
EXSTR	55	72	4
BRSI_	55	72	4	96	24	7
EXTAP	55	144	3
EXTAP	55	144	4
NMTAP	55	288	0
NMTAP	55	288	6
EXSTR	56	0	2
NMSCL	56	0	2	96	48	7
NMTAP	56	48	3
NMTAP	56	96	4
NMTAP	56	120	4
NMSTR	56	168	5
NMSCR	56	168	5	96	48	0
NMTAP	56	216	4
NMTAP	56	240	4
NMTAP	56	288	3
EXSTR	57	0	2
NMSCL	57	0	2	96	48	7
NMTAP	57	48	3
NMTAP	57	96	4
NMTAP	57	120	4
NMSTR	57	168	5
NMSCR	57	168	5	96	48	0
NMTAP	57	216	4
NMTAP	57	240	4
NMTAP	57	288	3
NMTAP	58	0	0
NMTAP	58	0	1
NMTAP	58	24	0
NMTAP	58	24	1
NMTAP	58	48	0
NMTAP	58	48	1
NMTAP	58	72	0
NMTAP	58	72	1
NMSTR	58	96	0
NMSI_	58	96	0	96	48	4
NMSTR	58	96	1
NMSI_	58	96	1	96	48	5
EXSTR	58	192	0
NMSI_	58	192	0	96	48	6
EXSTR	58	192	1
NMSI_	58	192	1	96	48	3
NMTAP	59	0	4
NMTAP	59	0	5
NMTAP	59	72	0
NMTAP	59	72	7
NMHLD	59	144	2	96
NMHLD	59	144	3	96
NMTAP	59	288	4
NMTAP	59	288	5
EXSTR	60	0	6
NMSCL	60	0	6	96	48	3
NMTAP	60	48	7
NMTAP	60	96	0
NMTAP	60	120	0
NMSTR	60	168	1
NMSCR	60	168	1	96	48	4
NMTAP	60	216	0
NMTAP	60	240	0
NMTAP	60	288	7
EXSTR	61	0	6
NMSCL	61	0	6	96	48	3
NMTAP	61	48	7
NMTAP	61	96	0
NMTAP	61	120	0
NMSTR	61	168	1
NMSCR	61	168	1	96	48	4
NMTAP	61	216	0
NMTAP	61	240	0
NMTAP	61	288	7
BRTAP	62	0	6
BRTAP	62	0	7
BRTAP	62	24	6
BRTAP	62	24	7
BRTAP	62	48	6
BRTAP	62	48	7
BRTAP	62	72	6
BRTAP	62	72	7
BRSTR	62	96	6
NMSI_	62	96	6	96	48	2
BRSTR	62	96	7
NMSI_	62	96	7	96	48	3
EXSTR	62	192	6
NMSI_	62	192	6	96	48	4
EXSTR	62	192	7
NMSI_	62	192	7	96	48	1
BRTAP	63	0	2
BRTAP	63	0	3
BRTAP	63	72	0
BRTAP	63	72	7
BRSTR	63	144	3
NMSCL	63	144	3	96	48	0
BRSTR	63	144	5
NMSCR	63	144	5	96	48	0
NMTAP	64	0	1
NMTAP	64	24	1
NMTAP	64	48	0
NMTAP	64	72	0
NMTAP	64	120	2
NMTAP	64	120	7
NMTAP	64	168	1
NMTAP	64	168	6
NMTAP	64	192	1
NMTAP	64	192	6
NMHLD	64	240	0	96
NMSTR	64	240	5
NMSCR	64	240	5	96	48	0
NMTAP	64	336	5
EXTAP	65	0	2
NMSTR	65	48	2
NMSXL	65	48	2	96	120	2
NMSXR	65	48	2	96	120	2
NMTAP	65	336	1
NMTAP	65	336	3
EXSTR	66	0	4
NMSI_	66	0	4	96	96	0
NMSI_	66	0	4	96	96	0
NMTAP	66	48	3
NMTAP	66	48	5
CNSXL	66	192	0	0	72	2
CNSXR	66	192	0	0	72	6
NMTAP	66	336	0
NMTAP	66	336	1
EXTAP	67	0	2
EXTAP	67	0	3
NMTAP	67	48	5
NMTAP	67	72	4
NMTAP	67	120	6
NMTAP	67	144	7
EXTAP	67	192	0
EXTAP	67	192	1
NMTAP	67	240	2
NMTAP	67	264	3
NMTAP	67	312	5
NMTAP	67	336	4
EXSTR	68	0	6
NMSI_	68	0	6	96	48	2
NMTAP	68	48	6
NMTAP	68	96	7
NMTAP	68	144	0
NMTAP	68	192	1
NMHLD	68	192	3	72
NMHLD	68	264	4	72
NMTAP	68	336	6
BRTAP	69	0	3
BRTAP	69	0	7
BRTAP	69	72	2
BRTAP	69	72	5
BRTAP	69	144	0
BRTAP	69	144	4
NMTAP	69	240	2
NMTAP	69	264	3
NMTAP	69	288	2
NMTAP	69	312	3
NMTAP	69	336	2
NMSTR	70	0	0
NMSI_	70	0	0	96	48	4
NMSTR	70	0	1
NMSLR	70	0	1	96	96	7
CNSI_	70	144	4	0	48	6
NMTAP	70	240	1
NMHLD	70	240	5	96
NMTAP	70	336	4
NMSTR	71	0	6
NMSLL	71	0	6	96	96	0
NMSTR	71	0	7
NMSI_	71	0	7	96	48	3
CNSI_	71	144	3	0	48	1
NMSTR	71	288	2
NMSI_	71	288	2	96	48	6
NMTAP	71	288	6
BRTAP	72	0	2
NMSTR	72	0	4
NMSI_	72	0	4	96	48	0
BRSTR	72	96	1
NMSI_	72	96	1	96	48	5
NMTAP	72	96	4
NMTAP	72	192	1
BRTAP	72	192	3
BRTAP	72	288	3
NMTAP	72	288	6
NMTAP	73	0	0
NMSTR	73	0	7
NMSCL	73	0	7	96	48	4
NMTAP	73	96	1
NMSTR	73	144	2
NMSCL	73	144	2	96	48	6
NMTAP	73	240	4
NMSTR	73	288	5
NMSCL	73	288	5	96	144	0
NMHLD	74	0	1	288
CNSUL	74	144	0	0	144	6
NMTAP	75	0	4
NMTAP	75	0	5
NMTAP	75	72	2
NMTAP	75	72	3
NMSTR	75	144	0
NMSI_	75	144	0	96	48	4
NMSTR	75	144	7
NMSI_	75	144	7	96	48	3
BRTAP	75	336	2
BRTAP	75	336	5
BRHLD	76	0	4	672
BRHLD	76	0	7	672
EXTAP	77	336	3
EXTAP	77	336	5
NMHLD	78	0	1	72
NMSTR	78	0	4
NMSI_	78	0	4	96	48	7
EXTAP	78	72	4
NMSTR	78	192	3
NMSI_	78	192	3	96	48	0
NMHLD	78	192	6	72
EXTAP	78	264	3
NMTAP	78	336	7
NMTAP	78	352	6
NMTAP	78	368	5
NMTAP	79	0	4
NMTAP	79	48	2
NMTAP	79	96	2
NMTAP	79	96	3
NMTAP	79	144	5
NMTAP	79	168	4
NMTAP	79	216	2
NMTAP	79	240	3
EXTAP	79	288	4
EXTAP	79	288	5
BRTAP	79	336	3
BRTAP	79	336	7
BRTAP	80	0	1
BRTAP	80	0	5
NMTTP	80	144	7	B	1	M1
NMTTP	80	168	3	B	1	M1
NMTTP	80	192	5	B	1	M1
NMTTP	80	264	1	B	1	M1
NMTTP	81	48	6	E	1	M1
NMTTP	81	96	4	E	1	M1
NMTTP	81	120	3	E	1	M1
NMTTP	81	336	6	B	1	M1
NMTTP	82	0	7	A	1	M1
NMTTP	82	24	0	A	1	M1
NMTTP	82	96	2	E	1	M1
NMTTP	82	144	4	E	1	M1
NMTTP	82	216	6	E	1	M1
NMTTP	82	240	7	E	1	M1
NMTTP	82	360	0	B	0	M1
NMTTP	82	360	0	C	1	M1
NMTTP	82	360	1	B	0	M1
NMTTP	82	360	2	B	0	M1
NMTTP	82	360	3	B	0	M1
NMTTP	82	360	4	B	0	M1
NMTTP	82	360	5	B	0	M1
NMTTP	82	360	6	B	0	M1
NMTTP	82	360	7	B	0	M1

T_REC_TAP	286
T_REC_BRK	47
T_REC_XTP	35
T_REC_BXX	0
T_REC_HLD	19
T_REC_XHO	20
T_REC_BHO	6
T_REC_BXH	0
T_REC_STR	52
T_REC_BST	8
T_REC_XST	34
T_REC_XBS	0
T_REC_TTP	30
T_REC_THO	0
T_REC_SLD	98
T_REC_BSL	2
T_REC_ALL	637
T_NUM_TAP	437
T_NUM_BRK	63
T_NUM_HLD	39
T_NUM_SLD	98
T_NUM_ALL	637
T_JUDGE_TAP	492
T_JUDGE_HLD	219
T_JUDGE_SLD	100
T_JUDGE_ALL	811
TTM_EACHPAIRS	138
TTM_SCR_TAP	218500
TTM_SCR_BRK	163800
TTM_SCR_HLD	39000
TTM_SCR_SLD	147000
TTM_SCR_ALL	568300
TTM_SCR_S	545150
TTM_SCR_SS	562000
TTM_RAT_ACV	10112

