VERSION	0.00.00	1.04.00
FES_MODE	0
BPM_DEF	133.200	133.200	133.200	133.200
MET_DEF	4	4
RESOLUTION	384
CLK_DEF	384
COMPATIBLE_CODE	MA2

BPM	0	0	133.200
MET	0	0	4	4

NMTTP	2	0	0	B	1	M1
NMTAP	2	192	5
NMTAP	2	288	5
NMTAP	3	0	4
NMTAP	3	96	4
NMTAP	3	192	3
NMTAP	3	288	3
NMHLD	4	0	2	672
EXTAP	4	0	4
NMTAP	4	192	3
NMTAP	4	288	3
NMTAP	5	0	4
NMTAP	5	96	4
NMTAP	5	192	3
NMTAP	5	288	4
EXTAP	6	0	1
NMHLD	6	0	5	384
NMTAP	6	192	4
NMTAP	6	288	4
NMHLD	7	0	4	96
NMHLD	7	96	3	96
NMHLD	7	192	2	96
NMTAP	7	288	3
NMHLD	8	0	1	384
EXTAP	8	0	5
NMTAP	8	192	3
NMTAP	8	288	3
NMHLD	9	0	3	96
NMHLD	9	96	4	96
NMHLD	9	192	6	96
NMSTR	9	288	7
NMSCR	9	288	7	96	288	5
NMTAP	11	0	6
NMTAP	11	96	0
NMTAP	11	192	2
NMTAP	11	288	4
EXTAP	11	336	3
EXTAP	11	336	5
EXTAP	12	0	3
EXTAP	12	0	5
NMTAP	12	96	7
NMTAP	12	192	5
NMTAP	12	288	3
EXTAP	12	336	2
EXTAP	12	336	4
EXTAP	13	0	2
EXTAP	13	0	4
EXTAP	13	72	3
EXTAP	13	72	6
BRTAP	13	144	0
BRTAP	13	144	1
NMTAP	13	240	7
NMTAP	13	288	7
NMTAP	13	336	7
EXTAP	14	0	0
EXHLD	14	0	6	144
NMTAP	14	96	4
NMTAP	14	144	4
NMTAP	14	240	0
NMTAP	14	288	0
NMTAP	14	336	0
EXHLD	15	0	1	144
EXTAP	15	0	7
NMTAP	15	96	3
NMTAP	15	144	3
NMTAP	15	240	2
NMTAP	15	240	4
NMTAP	15	288	2
NMTAP	15	288	4
NMTAP	16	0	5
NMTAP	16	96	4
NMTAP	16	96	6
NMTAP	16	192	2
NMTAP	16	288	1
NMTAP	16	288	3
NMSTR	17	0	0
NMSCR	17	0	0	96	48	3
NMSTR	17	192	5
NMSCR	17	192	5	96	48	0
NMHLD	18	0	1	72
NMHLD	18	72	2	72
EXTAP	18	144	3
NMTAP	18	240	1
NMTAP	18	240	7
NMTAP	18	288	1
NMTAP	18	288	7
NMHLD	19	0	6	72
NMHLD	19	72	5	72
EXTAP	19	144	4
NMTAP	19	240	0
NMTAP	19	240	6
NMTAP	19	288	0
NMTAP	19	288	6
BRSTR	20	0	1
NMSI_	20	0	1	96	48	4
BRSTR	20	0	5
NMSI_	20	0	5	96	48	0
EXTAP	20	192	7
EXSTR	20	288	6
NMSUL	20	288	6	96	288	4
EXTAP	22	0	2
EXTAP	22	0	4
EXTAP	22	72	0
EXTAP	22	72	1
BRTAP	22	144	3
BRTAP	22	144	7
EXTAP	22	240	0
EXTAP	22	288	0
NMTAP	23	0	2
NMHLD	23	0	6	96
NMTAP	23	96	4
NMTAP	23	192	5
NMTAP	23	288	4
NMTAP	23	288	5
NMHLD	24	0	1	96
NMTAP	24	96	3
NMTAP	24	192	2
NMTAP	24	288	2
NMTAP	24	288	3
NMSTR	25	0	4
NMSCR	25	0	4	96	48	7
NMSTR	25	192	1
NMSCR	25	192	1	96	48	4
NMHLD	26	0	6	96
NMHLD	26	96	4	96
NMTAP	26	192	3
NMSTR	26	288	2
NMSSL	26	288	2	96	192	6
NMTAP	26	288	7
NMTAP	27	288	0
NMTAP	27	288	7
NMTTP	28	0	1	A	0	M1
NMTTP	28	0	2	B	0	M1
NMTTP	28	96	3	A	0	M1
NMTTP	28	96	4	A	0	M1
NMTTP	28	192	5	B	0	M1
NMTTP	28	192	6	A	0	M1
NMTAP	28	288	0
NMTAP	28	288	7
NMSTR	29	0	1
NMSI_	29	0	1	96	48	3
NMSTR	29	0	6
NMSI_	29	0	6	96	48	4
EXTAP	29	192	3
EXTAP	29	192	4
EXSTR	29	288	3
NMSCL	29	288	3	96	288	5
EXHLD	29	288	4	24
EXTAP	31	0	6
EXTAP	31	0	7
EXTAP	31	72	3
EXTAP	31	72	5
BRHLD	31	144	0	144
BRHLD	31	144	1	144
NMSTR	32	0	2
NMSUR	32	0	2	96	192	5
EXTAP	32	288	6
NMSTR	33	0	5
NMSUL	33	0	5	96	192	2
EXHLD	33	288	1	192
EXSTR	34	0	3
NMSI_	34	0	3	96	48	7
EXTAP	34	48	3
EXTAP	35	0	6
EXTAP	35	0	7
EXTAP	35	72	3
EXTAP	35	72	5
EXTAP	35	144	0
EXTAP	35	144	1
NMTAP	35	240	7
NMTAP	35	288	7
NMSTR	36	0	2
NMSUR	36	0	2	96	192	5
BRTAP	36	288	6
NMSTR	37	0	5
NMSUL	37	0	5	96	192	2
BRTAP	37	288	1
NMTAP	38	0	3
NMTAP	38	0	6
NMTAP	38	48	4
NMTAP	38	48	5
EXHLD	38	96	3	192
EXHLD	38	96	7	192
BRTAP	39	0	3
BRTAP	39	0	4
BRTAP	39	72	0
BRTAP	39	72	7
BRSTR	39	144	2
NMSXR	39	144	2	96	288	4
BRSTR	39	144	5
NMSXL	39	144	5	96	288	3
NMTTP	40	192	0	C	1	M1
NMTTP	40	192	1	B	0	M1
NMTTP	40	192	2	E	0	M1
NMTTP	40	192	5	B	0	M1
NMTTP	40	192	6	E	0	M1
NMTAP	41	0	6
NMTAP	41	0	7
NMSTR	41	96	5
NMSI_	41	96	5	96	48	0
NMTAP	41	288	2
NMTAP	42	0	0
NMTAP	42	0	1
NMSTR	42	96	2
NMSI_	42	96	2	96	48	7
NMTAP	42	288	5
NMSTR	43	0	6
NMSCR	43	0	6	96	48	1
NMSTR	43	192	2
NMSCR	43	192	2	96	48	5
NMHLD	44	0	7	96
NMHLD	44	96	5	96
NMHLD	44	192	3	96
NMSTR	44	288	1
NMSXR	44	288	1	96	288	6
NMTAP	46	0	4
NMTAP	46	0	5
NMTAP	46	96	3
NMTAP	46	96	4
NMTAP	46	192	2
NMTAP	46	192	3
EXTAP	46	288	7
NMTAP	47	0	2
NMTAP	47	0	3
NMTAP	47	96	3
NMTAP	47	96	4
NMTAP	47	192	4
NMTAP	47	192	5
EXTAP	47	288	0
NMSTR	48	0	1
NMSI_	48	0	1	96	48	4
NMSTR	48	0	7
NMSI_	48	0	7	96	48	4
NMSTR	48	192	0
NMSI_	48	192	0	96	48	3
NMSTR	48	192	6
NMSI_	48	192	6	96	48	3
NMHLD	49	0	1	96
NMHLD	49	0	7	96
NMHLD	49	144	4	96
NMHLD	49	144	5	96
NMTAP	49	288	3
NMTAP	49	288	7
NMTAP	50	0	2
NMTAP	50	0	6
NMTAP	50	96	1
NMTAP	50	96	5
NMSTR	50	192	0
NMSI_	50	192	0	96	48	4
NMTAP	50	192	4
EXTAP	51	0	3
EXTAP	51	0	5
EXTAP	51	72	1
EXTAP	51	72	4
BRHLD	51	144	0	144
BRHLD	51	144	6	144
EXTAP	51	336	4
EXTAP	51	336	5
EXTAP	52	0	3
EXHLD	52	0	7	672
NMTAP	53	0	4
NMTAP	53	96	4
NMTAP	53	192	4
NMTAP	53	288	4
EXTAP	53	336	3
EXTAP	53	336	5
EXTAP	54	0	3
EXTAP	54	0	5
NMTAP	54	96	7
NMTAP	54	192	5
NMTAP	54	288	3
EXTAP	54	336	2
EXTAP	54	336	4
EXTAP	55	0	2
EXTAP	55	0	4
EXTAP	55	72	3
EXTAP	55	72	6
BRTAP	55	144	1
BRTAP	55	144	7
NMTAP	55	288	4
NMTAP	55	288	5
NMSTR	56	0	2
NMSUR	56	0	2	96	192	5
BRTAP	56	288	6
NMSTR	57	0	5
NMSUL	57	0	5	96	192	2
BRTAP	57	288	1
EXSTR	58	0	1
NMSI_	58	0	1	96	48	3
EXSTR	58	0	3
NMSI_	58	0	3	96	48	7
EXTAP	58	48	1
EXTAP	58	48	3
EXTAP	59	0	6
EXTAP	59	0	7
EXTAP	59	72	3
EXTAP	59	72	5
EXTAP	59	144	0
EXTAP	59	144	1
NMTAP	59	240	7
NMTAP	59	288	7
NMSTR	60	0	2
NMSUR	60	0	2	96	192	5
BRTAP	60	288	6
NMSTR	61	0	5
NMSUL	61	0	5	96	192	2
BRTAP	61	288	1
EXTAP	62	0	1
EXTAP	62	24	0
EXTAP	62	48	1
EXTAP	62	72	0
BXTAP	62	96	2
BXHLD	62	96	7	192
BRTAP	63	0	4
BRTAP	63	0	5
BRTAP	63	72	0
BRTAP	63	72	7
BRSTR	63	144	2
NMSXR	63	144	2	96	288	7
BRSTR	63	144	3
NMSXL	63	144	3	96	288	6
NMTTP	64	192	0	C	1	M1
NMTTP	64	192	1	E	0	M1
NMTTP	64	192	5	E	0	M1
NMTAP	65	0	6
NMTAP	65	0	7
NMSTR	65	96	4
NMSUL	65	96	4	96	48	0
NMTAP	65	96	5
NMTAP	65	288	6
NMTAP	66	0	0
NMTAP	66	0	1
NMTAP	66	96	2
NMSTR	66	96	3
NMSUR	66	96	3	96	48	7
NMTAP	66	288	1
EXSTR	67	0	0
NMSI_	67	0	0	96	48	4
EXSTR	67	0	2
NMSI_	67	0	2	96	48	7
EXSTR	67	192	5
NMSI_	67	192	5	96	48	0
EXSTR	67	192	7
NMSI_	67	192	7	96	48	3
NMTAP	68	0	1
NMTAP	68	0	2
NMTAP	68	96	5
NMTAP	68	96	6
NMTAP	68	192	0
NMTAP	68	192	7
NMSTR	68	288	3
NMSXR	68	288	3	96	240	0
NMSTR	68	288	4
NMSXL	68	288	4	96	240	7
BRTAP	69	288	1
BRTAP	69	288	6
NMTAP	70	0	2
NMTAP	70	0	3
NMTAP	70	96	3
NMTAP	70	96	4
NMTAP	70	192	4
NMTAP	70	192	5
EXTAP	70	288	1
EXTAP	70	288	7
NMTAP	71	0	4
NMTAP	71	0	5
NMTAP	71	96	3
NMTAP	71	96	4
NMTAP	71	192	2
NMTAP	71	192	3
EXTAP	71	288	0
EXTAP	71	288	6
NMTTP	72	0	0	C	0	M1
NMTTP	72	0	2	E	1	M1
NMTTP	72	0	6	E	0	M1
NMTTP	72	96	3	A	0	M1
NMTTP	72	96	4	A	1	M1
NMTTP	72	192	0	B	0	M1
NMTTP	72	192	0	A	0	M1
NMTTP	72	192	1	B	0	M1
NMTTP	72	192	1	A	1	M1
NMTTP	72	288	6	B	0	M1
NMTTP	72	288	6	A	0	M1
NMTTP	72	288	7	B	0	M1
NMTTP	72	288	7	A	1	M1
NMHLD	73	0	2	96
NMHLD	73	0	3	96
NMHLD	73	144	4	96
NMHLD	73	144	6	96
EXTAP	73	288	0
EXTAP	73	288	1
NMHLD	74	0	2	96
NMHLD	74	96	4	96
NMHLD	74	192	6	96
NMTAP	74	288	0
BRTAP	75	0	1
BRTAP	75	0	7
BRTAP	75	72	3
BRTAP	75	72	4
BRSTR	75	144	0
NMSCR	75	144	0	96	48	3
BRSTR	75	144	6
NMSCL	75	144	6	96	48	3
BXTAP	75	336	1
BXTAP	75	336	5
BXTAP	76	0	3
BXTAP	76	0	7
NMTAP	77	0	7
NMTAP	77	96	7
NMTAP	77	192	6
NMTAP	77	288	6
EXTAP	77	336	4
EXTAP	77	336	5
EXTAP	78	0	4
EXTAP	78	0	5
EXTAP	78	72	1
BXTAP	78	72	7
EXTAP	78	144	2
EXTAP	78	144	3
EXTAP	78	192	2
EXTAP	78	192	3
BXSTR	78	264	0
NMSCR	78	264	0	96	216	6
EXTAP	78	264	6
EXTAP	79	288	4
EXTAP	79	288	5
BRTAP	79	336	1
BRTAP	79	336	7
BRTAP	80	0	1
BRTAP	80	0	7

T_REC_TAP	140
T_REC_BRK	30
T_REC_XTP	87
T_REC_BXX	6
T_REC_HLD	31
T_REC_XHO	7
T_REC_BHO	4
T_REC_BXH	1
T_REC_STR	30
T_REC_BST	8
T_REC_XST	9
T_REC_XBS	1
T_REC_TTP	28
T_REC_THO	0
T_REC_SLD	48
T_REC_BSL	0
T_REC_ALL	430
T_NUM_TAP	294
T_NUM_BRK	50
T_NUM_HLD	38
T_NUM_SLD	48
T_NUM_ALL	430
T_JUDGE_TAP	339
T_JUDGE_HLD	135
T_JUDGE_SLD	48
T_JUDGE_ALL	522
TTM_EACHPAIRS	117
TTM_SCR_TAP	147000
TTM_SCR_BRK	130000
TTM_SCR_HLD	38000
TTM_SCR_SLD	72000
TTM_SCR_ALL	387000
TTM_SCR_S	370550
TTM_SCR_SS	382000
TTM_RAT_ACV	10130

