VERSION	0.00.00	1.04.00
FES_MODE	0
BPM_DEF	141.000	141.000	141.000	141.000
MET_DEF	4	4
RESOLUTION	384
CLK_DEF	384
COMPATIBLE_CODE	MA2

BPM	0	0	141.000
MET	0	0	4	4

NMSTR	1	0	3
NMSCL	1	0	3	96	96	0
NMTAP	1	96	5
NMSTR	1	192	4
NMSCR	1	192	4	96	96	7
NMSTR	1	288	2
NMSXL	1	288	2	96	192	0
NMTAP	2	96	6
NMHLD	2	192	5	96
NMTAP	2	288	1
NMSTR	3	0	7
NMSCL	3	0	7	96	96	4
NMTAP	3	96	2
NMSTR	3	192	0
NMSCR	3	192	0	96	96	3
NMTAP	3	288	5
NMSTR	4	0	6
NMSUL	4	0	6	96	96	2
NMTAP	4	96	2
NMTAP	4	192	0
NMTAP	4	240	0
NMTAP	4	288	1
NMTAP	4	288	7
NMTAP	5	0	4
NMTAP	5	0	5
NMTAP	5	96	0
NMTAP	5	96	6
NMTAP	5	192	2
NMTAP	5	192	3
NMTAP	5	288	1
NMTAP	5	288	7
NMTAP	6	0	6
NMTAP	6	48	4
NMTAP	6	96	5
NMTAP	6	144	3
NMTAP	6	192	4
NMTAP	6	240	2
NMHLD	6	288	2	72
NMHLD	6	360	3	72
NMTAP	7	48	4
NMHLD	7	96	4	72
NMHLD	7	168	5	72
NMTAP	7	240	6
NMTAP	7	288	7
NMTAP	7	312	7
EXTAP	7	360	0
EXTAP	7	360	6
NMTAP	8	48	4
NMTAP	8	48	5
NMTAP	8	96	2
NMTAP	8	120	3
NMTAP	8	168	3
NMTAP	8	192	2
NMTAP	8	240	2
NMTAP	8	264	0
EXTAP	8	312	1
EXTAP	8	312	7
EXTAP	8	360	2
EXSTR	8	360	6
NMSI_	8	360	6	96	48	2
NMTAP	9	96	1
NMSTR	9	192	0
NMSI_	9	192	0	96	48	4
NMTAP	9	288	5
NMTAP	10	0	7
NMTAP	10	48	7
NMTAP	10	96	1
NMTAP	10	192	3
NMTAP	10	192	5
NMTAP	10	240	3
NMTAP	10	240	5
NMTAP	10	288	2
NMTAP	10	288	4
NMTAP	10	336	2
NMTAP	10	336	4
NMSTR	11	0	1
NMSI_	11	0	1	96	48	5
NMTAP	11	0	5
NMTAP	11	96	6
NMSTR	11	192	7
NMSI_	11	192	7	96	48	3
NMTAP	11	288	2
NMTAP	12	0	4
NMTAP	12	48	4
NMTAP	12	96	3
NMTAP	12	96	5
NMTAP	12	192	2
NMHLD	12	192	6	192
NMTAP	12	240	2
NMTAP	12	288	1
NMTAP	12	336	0
NMSTR	13	0	7
NMSI_	13	0	7	96	48	2
NMTAP	13	96	3
NMSTR	13	192	4
NMSI_	13	192	4	96	48	0
NMTAP	13	288	1
NMTAP	14	0	2
NMTAP	14	48	2
NMTAP	14	96	4
NMTAP	14	192	0
NMTAP	14	192	6
NMTAP	14	240	0
NMTAP	14	240	6
NMTAP	14	288	1
NMTAP	14	288	7
NMTAP	14	336	1
NMTAP	14	336	7
NMSTR	15	0	0
NMSI_	15	0	0	96	48	5
NMTAP	15	0	2
NMTAP	15	96	4
NMSTR	15	192	3
NMSI_	15	192	3	96	48	7
NMTAP	15	288	6
NMTAP	16	0	0
NMTAP	16	0	5
NMTAP	16	48	0
NMTAP	16	48	5
NMTAP	16	96	2
NMTAP	16	96	7
NMTAP	16	144	2
NMTAP	16	144	7
NMTAP	16	192	1
NMTAP	16	192	6
NMTAP	16	240	3
NMTAP	16	264	4
NMTAP	16	312	2
NMTAP	16	312	5
BXTAP	16	360	1
BXTAP	16	360	6
NMTAP	17	48	2
NMTAP	17	96	2
NMTAP	17	144	0
NMTAP	17	192	3
NMTAP	17	240	0
NMTAP	17	288	4
NMTAP	17	336	2
NMTAP	17	336	5
NMTAP	18	0	1
NMTAP	18	48	1
NMTAP	18	48	3
NMTAP	18	96	4
NMTAP	18	144	2
NMTAP	18	192	0
NMTAP	18	192	3
NMTAP	18	240	0
NMTAP	18	240	3
NMTAP	18	288	0
NMTAP	18	288	3
NMSTR	19	0	1
NMSUR	19	0	1	96	96	5
NMSTR	19	96	5
NMSI_	19	96	5	96	96	0
NMSTR	19	192	0
NMSUR	19	192	0	96	96	5
NMSTR	19	288	5
NMSCR	19	288	5	96	96	0
NMSTR	20	0	0
NMSCR	20	0	0	96	96	3
NMSTR	20	96	3
NMSCR	20	96	3	96	96	6
NMTAP	20	192	6
NMTAP	20	288	7
NMHLD	21	0	4	48
NMHLD	21	0	5	48
NMHLD	21	96	3	48
NMHLD	21	96	4	48
NMHLD	21	192	2	48
NMHLD	21	192	3	48
NMHLD	21	288	0	48
NMHLD	21	288	1	48
NMHLD	22	0	6	48
NMHLD	22	0	7	48
NMHLD	22	96	1	48
NMHLD	22	96	7	48
NMHLD	22	192	0	48
NMHLD	22	192	6	48
NMHLD	22	288	1	48
NMHLD	22	288	7	48
NMSTR	23	0	6
NMSUL	23	0	6	96	96	2
NMSTR	23	96	2
NMSV_	23	96	2	96	96	7
NMSTR	23	192	7
NMSUL	23	192	7	96	96	2
NMSTR	23	288	2
NMSCL	23	288	2	96	96	7
NMSTR	24	0	7
NMSCL	24	0	7	96	96	4
NMTAP	24	96	4
NMTAP	24	192	1
NMTAP	24	240	2
NMTAP	24	288	3
NMTAP	24	288	4
BRTAP	25	0	1
BRTAP	25	0	6
NMSTR	25	96	0
NMSSL	25	96	0	96	96	4
NMTAP	25	96	1
NMTAP	25	144	2
NMTAP	25	192	3
NMSTR	26	0	1
NMSCL	26	0	1	96	96	6
NMHLD	26	0	5	48
NMHLD	26	96	4	48
NMHLD	26	192	3	48
CNSCR	26	192	6	0	96	1
NMHLD	26	288	4	48
NMTAP	27	0	1
NMTAP	27	0	6
NMTAP	27	96	6
NMSTR	27	96	7
NMSSR	27	96	7	96	96	3
NMTAP	27	144	5
NMTAP	27	192	4
NMHLD	28	0	2	48
NMSTR	28	0	6
NMSCR	28	0	6	96	96	1
NMHLD	28	96	3	48
CNSCL	28	192	1	0	96	6
NMHLD	28	192	4	48
NMHLD	28	288	3	48
NMSTR	29	0	0
NMSI_	29	0	0	96	48	4
NMHLD	29	0	1	96
EXTAP	29	96	0
NMHLD	29	192	6	96
NMSTR	29	192	7
NMSI_	29	192	7	96	48	3
EXSTR	29	288	7
NMSUR	29	288	7	96	96	0
CNSCR	30	96	0	0	192	5
EXTAP	30	288	2
NMSTR	31	0	1
NMSI_	31	0	1	96	48	6
NMTAP	31	48	1
NMTAP	31	96	3
NMSTR	31	192	5
NMSI_	31	192	5	96	48	2
NMTAP	31	240	5
EXSTR	31	288	7
NMSXL	31	288	7	96	192	3
EXTAP	32	240	4
EXTAP	32	264	5
EXTAP	32	288	6
EXTAP	32	336	3
EXTAP	32	336	5
EXTAP	33	0	3
EXTAP	33	0	5
NMTAP	33	48	6
NMTAP	33	72	4
NMTAP	33	96	6
NMTAP	33	144	5
NMTAP	33	168	5
NMTAP	33	216	4
NMTAP	33	216	6
NMTAP	33	264	5
NMTAP	33	288	5
NMTAP	33	336	3
NMTAP	33	336	4
NMSTR	34	0	2
NMSXR	34	0	2	96	144	4
NMTAP	34	48	2
NMSTR	34	96	5
NMSXL	34	96	5	96	144	3
NMTAP	35	0	2
NMTAP	35	0	4
NMTAP	35	48	1
NMTAP	35	72	3
NMTAP	35	96	1
NMTAP	35	144	2
NMTAP	35	168	2
NMTAP	35	216	1
NMTAP	35	216	3
NMTAP	35	264	2
NMTAP	35	288	2
NMTAP	35	336	3
NMTAP	35	336	4
NMSTR	36	0	7
NMSI_	36	0	7	96	96	3
NMSCL	36	0	7	96	48	5
NMTAP	36	48	7
CNSI_	36	144	5	0	48	3
EXTAP	36	240	3
EXTAP	36	240	4
EXTAP	36	288	3
NMSTR	36	288	4
NMSCR	36	288	4	96	144	3
NMTAP	37	288	2
NMTAP	37	288	5
NMTAP	38	0	0
NMTAP	38	0	7
NMTAP	38	24	0
NMTAP	38	24	7
NMTAP	38	72	3
NMTAP	38	72	4
NMTAP	38	120	3
NMTAP	38	120	4
NMTAP	38	168	1
NMTAP	38	168	6
NMTAP	38	192	1
NMTAP	38	192	6
NMTTP	38	288	0	C	1	M1
NMTTP	38	288	3	B	0	M1
NMTTP	38	288	4	B	0	M1
BRSTR	39	0	6
NMSCL	39	0	6	96	48	3
BRTAP	39	0	7
NMTAP	39	96	0
NMTAP	39	96	6
CNSUR	39	144	3	0	96	7
NMSTR	39	192	2
NMSI_	39	192	2	96	48	6
NMTAP	39	264	0
NMTAP	39	288	2
NMTAP	39	336	7
NMTAP	40	0	5
NMTAP	40	48	0
NMTAP	40	48	4
NMSTR	40	96	2
BRSI_	40	96	2	96	48	5
NMTAP	40	144	1
NMTAP	40	144	3
EXTAP	40	192	2
EXTAP	40	240	7
EXTAP	40	288	7
EXHLD	40	360	1	72
NMTAP	41	48	0
NMTAP	41	96	2
NMTAP	41	120	3
EXHLD	41	168	6	72
NMTAP	41	240	7
NMTAP	41	288	5
NMTAP	41	312	4
EXTAP	41	360	3
EXTAP	41	360	4
NMTAP	42	48	2
NMTAP	42	96	0
NMTAP	42	96	1
NMTAP	42	144	0
NMTAP	42	144	1
BRTAP	42	192	2
BRTAP	42	192	6
BRTAP	42	240	1
BRTAP	42	240	5
BRTAP	42	288	2
BRTAP	42	288	6
NMSTR	43	0	0
NMSCL	43	0	0	96	48	5
NMSTR	43	0	1
NMSCR	43	0	1	96	48	4
NMTAP	43	96	0
NMTAP	43	96	1
NMSTR	43	192	6
NMSV_	43	192	6	96	48	3
NMTAP	43	264	7
NMTAP	43	288	6
NMTAP	43	336	2
NMTAP	44	0	2
NMTAP	44	48	0
NMTAP	44	48	5
NMSTR	44	96	2
BRSI_	44	96	2	96	48	5
NMTAP	44	96	3
NMTAP	44	144	0
NMTAP	44	144	5
EXTAP	44	192	2
EXTAP	44	240	7
EXTAP	44	288	7
EXHLD	44	360	6	72
NMTAP	45	48	7
NMTAP	45	96	5
NMTAP	45	120	4
EXHLD	45	168	1	72
NMTAP	45	240	0
NMTAP	45	288	2
NMTAP	45	312	3
EXTAP	45	360	0
EXTAP	45	360	7
NMTAP	46	24	5
NMTAP	46	48	4
NMTAP	46	96	3
NMTAP	46	96	4
NMTAP	46	144	2
NMTAP	46	144	5
NMTAP	46	192	1
NMTAP	46	192	7
NMTAP	46	240	0
NMTAP	46	240	6
NMTAP	46	264	0
NMSTR	46	264	6
BRSXL	46	264	6	96	120	4
NMTAP	46	312	1
NMTAP	46	312	7
NMTAP	47	144	1
NMTAP	47	168	3
NMTAP	47	192	1
NMTAP	47	240	0
NMTAP	47	264	7
NMTAP	47	288	0
NMTAP	47	336	6
NMTAP	47	360	4
NMTAP	48	0	6
NMTAP	48	48	2
NMTAP	48	72	3
NMTAP	48	96	1
NMTAP	48	144	7
NMTAP	48	168	0
NMHLD	48	192	7	96
NMTTP	48	240	5	B	0	M1
NMTTP	48	240	5	E	0	M1
NMTTP	48	288	4	E	0	M1
NMTTP	48	288	4	D	0	M1
NMTAP	49	0	0
NMTAP	49	0	1
NMTAP	49	48	2
NMTAP	49	48	3
NMSTR	49	96	4
NMSI_	49	96	4	96	48	0
NMTAP	49	96	5
NMTAP	49	192	7
NMTAP	49	288	6
NMTAP	50	0	4
NMTAP	50	0	5
NMTAP	50	48	2
NMTAP	50	48	3
NMTAP	50	96	1
NMTAP	50	120	0
NMTAP	50	168	6
NMTAP	50	168	7
NMTAP	50	216	5
NMTAP	50	240	4
NMHLD	50	288	2	96
NMSTR	50	288	3
BRSI_	50	288	3	96	48	6
BXTAP	51	0	3
NMSTR	51	96	0
NMSI_	51	96	0	96	48	5
NMSTR	51	96	1
NMSV_	51	96	1	96	48	4
EXTAP	51	192	0
EXTAP	51	192	1
NMTAP	51	288	6
NMTAP	51	288	7
NMTAP	52	0	5
NMTAP	52	48	4
NMSTR	52	96	2
NMSXL	52	96	2	96	96	0
NMTAP	52	96	3
NMTAP	52	192	2
EXTAP	52	240	7
EXTAP	52	288	7
EXHLD	52	360	6	72
NMTAP	53	48	4
NMTAP	53	96	7
NMTAP	53	120	0
EXHLD	53	168	1	72
NMTAP	53	240	3
NMTAP	53	288	0
NMTAP	53	312	7
BRTAP	53	360	2
BRTAP	53	360	5
NMTTP	54	120	0	E	0	M1
NMTTP	54	132	7	E	0	M1
NMTTP	54	144	6	E	0	M1
NMTTP	54	156	5	E	0	M1
NMTTP	54	168	4	E	0	M1
NMTTP	54	180	3	E	0	M1
NMTTP	54	192	2	E	0	M1
NMTTP	54	204	1	E	0	M1
NMTTP	54	216	0	E	0	M1
BRTAP	54	360	1
BRTAP	54	360	6
NMTAP	55	96	3
NMTAP	55	96	4
NMTAP	55	144	2
NMTAP	55	168	3
NMTAP	55	192	1
NMTAP	55	240	1
NMTAP	55	288	0
NMTAP	55	288	7
NMTAP	55	336	6
NMTAP	55	360	7
NMTAP	56	0	5
NMTAP	56	48	5
NMTAP	56	96	3
NMTAP	56	96	4
NMTAP	56	144	2
NMTAP	56	168	3
NMTAP	56	192	1
NMTAP	56	240	1
NMTAP	56	288	0
NMTAP	56	288	7
NMTAP	57	0	2
NMTAP	57	0	6
NMTAP	57	48	5
NMTAP	57	72	4
NMTAP	57	96	5
NMTAP	57	144	2
NMTAP	57	168	3
NMTAP	57	192	2
NMTAP	57	240	5
NMTAP	57	264	4
NMTAP	57	288	5
NMTAP	57	336	4
NMTAP	57	336	6
NMHLD	58	0	5	96
NMTAP	58	48	7
NMHLD	58	96	3	96
NMTAP	58	144	7
NMHLD	58	192	4	96
NMTAP	58	240	0
NMHLD	58	288	2	96
NMTAP	58	336	0
NMTAP	59	0	3
NMTAP	59	48	1
NMTAP	59	72	1
NMTAP	59	96	0
NMTAP	59	144	2
NMHLD	59	144	7	144
NMSTR	59	192	5
NMSI_	59	192	5	96	48	1
EXTAP	59	288	5
NMTAP	60	0	5
NMTAP	60	48	6
NMTAP	60	72	6
NMTAP	60	96	7
NMHLD	60	144	0	144
NMTAP	60	144	5
NMSTR	60	192	2
NMSI_	60	192	2	96	48	6
EXTAP	60	288	2
NMTAP	61	0	5
NMTAP	61	0	7
NMHLD	61	24	5	72
NMHLD	61	24	7	72
NMTAP	61	144	0
NMTAP	61	144	2
NMHLD	61	168	0	72
NMHLD	61	168	2	72
NMTAP	61	288	3
NMTAP	61	288	4
NMTAP	62	0	0
NMTAP	62	0	1
NMTAP	62	24	0
NMTAP	62	24	1
NMTAP	62	72	6
NMTAP	62	72	7
NMTAP	62	120	3
NMTAP	62	120	4
NMTAP	62	168	1
NMTAP	62	168	6
NMTAP	62	192	1
NMTAP	62	192	6
NMTTP	62	240	0	C	1	M1
NMTTP	62	240	3	B	0	M1
NMTTP	62	240	4	B	0	M1
BRSTR	63	0	6
NMSI_	63	0	6	96	48	2
BRTAP	63	0	7
NMTAP	63	96	1
NMTAP	63	96	6
CNSI_	63	144	2	0	48	4
NMSTR	63	192	1
NMSV_	63	192	1	96	48	4
CNSI_	63	192	4	0	48	7
NMTAP	63	264	0
NMTAP	63	288	1
NMTAP	63	336	7
NMTAP	64	0	6
NMTAP	64	48	4
NMTAP	64	48	6
NMSTR	64	96	1
BRSI_	64	96	1	96	48	4
BRSI_	64	96	1	96	48	5
NMTAP	64	144	1
NMTAP	64	144	3
EXTAP	64	288	3
EXTAP	64	288	6
EXHLD	64	360	5	72
NMTAP	65	48	7
NMTAP	65	96	0
NMTAP	65	96	6
NMTAP	65	120	0
NMTAP	65	120	6
EXHLD	65	168	2	72
NMTAP	65	240	0
NMTAP	65	288	1
NMTAP	65	288	7
NMTAP	65	312	1
NMTAP	65	312	7
EXTAP	65	360	3
EXTAP	65	360	4
NMTAP	66	48	1
NMTAP	66	48	5
NMSTR	66	96	2
NMSI_	66	96	2	96	48	5
NMSTR	66	96	6
NMSI_	66	96	6	96	48	1
NMSTR	66	144	1
BRSI_	66	144	1	96	48	6
NMSTR	66	144	5
BRSI_	66	144	5	96	48	2
EXTAP	66	192	2
EXTAP	66	192	6
NMTAP	67	0	0
NMSTR	67	0	1
NMSI_	67	0	1	96	48	5
NMTAP	67	96	1
NMTAP	67	96	6
CNSI_	67	144	5	0	48	3
CNSI_	67	192	3	0	48	0
NMSTR	67	192	6
NMSV_	67	192	6	96	48	3
NMTAP	67	264	7
NMTAP	67	288	6
NMTAP	67	336	2
NMTAP	68	0	2
NMTAP	68	48	0
NMTAP	68	48	6
NMSTR	68	96	2
BRSI_	68	96	2	96	48	6
BRSI_	68	96	2	96	48	7
NMTAP	68	96	3
NMTAP	68	144	1
NMTAP	68	144	4
EXTAP	68	288	0
EXTAP	68	288	5
EXHLD	68	360	4	72
NMTAP	69	48	7
NMTAP	69	96	0
NMTAP	69	96	6
NMTAP	69	120	0
NMTAP	69	120	6
EXHLD	69	168	3	72
NMTAP	69	240	0
NMTAP	69	288	1
NMTAP	69	288	7
NMTAP	69	312	1
NMTAP	69	312	7
EXTAP	69	360	3
EXTAP	69	360	4
NMTAP	70	24	5
NMTAP	70	48	5
NMTAP	70	96	4
NMTAP	70	96	6
NMTAP	70	144	7
NMTAP	70	192	0
NMTAP	70	192	6
NMTAP	70	240	1
NMTAP	70	240	7
NMSTR	70	264	1
BRSI_	70	264	1	96	48	5
NMSTR	70	264	7
BRSI_	70	264	7	96	48	3
NMTAP	70	312	0
NMTAP	70	312	6
BXTAP	70	360	1
BXTAP	70	360	7
NMTAP	71	96	3
NMTAP	71	96	4
NMHLD	71	144	2	48
NMHLD	71	192	1	48
NMHLD	71	240	0	48
NMHLD	71	288	7	48
NMHLD	71	336	6	48
NMHLD	72	0	5	48
NMHLD	72	48	4	48
NMHLD	72	96	3	48
NMTAP	72	144	2
NMTAP	72	168	2
NMTTP	72	240	5	E	0	M1
NMTTP	72	240	5	D	0	M1
NMTTP	72	288	0	E	0	M1
NMTTP	72	288	0	D	0	M1
NMSTR	73	0	6
NMSI_	73	0	6	96	48	2
NMTAP	73	48	6
NMSTR	73	96	1
NMSI_	73	96	1	96	48	7
NMTAP	73	144	1
NMSTR	73	192	4
NMSI_	73	192	4	96	48	0
NMTAP	73	240	4
NMSTR	73	288	3
NMSCL	73	288	3	96	48	1
NMTAP	73	336	3
NMSTR	74	0	6
NMSCL	74	0	6	96	48	3
NMTAP	74	48	6
NMTAP	74	96	7
NMTAP	74	144	7
NMTAP	74	192	0
NMTAP	74	192	6
NMTAP	74	240	0
NMTAP	74	240	6
NMTAP	74	288	1
NMTAP	74	312	0
NMTAP	74	336	1
NMTAP	74	360	0
BRTAP	75	0	2
BRTAP	75	0	7
NMSTR	75	96	6
NMSI_	75	96	6	96	48	3
NMSTR	75	96	7
NMSV_	75	96	7	96	48	2
EXTAP	75	192	6
EXTAP	75	192	7
NMTAP	75	288	0
NMTAP	75	288	1
NMTAP	76	0	6
NMTAP	76	0	7
NMTAP	76	48	4
NMTAP	76	48	5
NMSTR	76	96	2
NMSXL	76	96	2	96	96	0
NMTAP	76	96	3
NMTAP	76	192	2
EXTAP	76	240	7
EXTAP	76	288	7
EXHLD	76	360	6	72
NMTAP	77	48	4
NMTAP	77	96	7
NMTAP	77	120	7
EXHLD	77	168	1	72
NMTAP	77	240	3
NMTAP	77	288	0
NMTAP	77	288	6
BRTAP	77	312	0
BRSTR	77	312	6
NMSI_	77	312	6	96	72	1
CNSI_	78	96	1	0	48	5
CNSI_	78	144	5	0	48	2
CNSI_	78	192	2	0	96	5
BXSTR	79	0	0
NMSF_	79	0	0	96	48	4
EXTAP	79	12	1
EXTAP	79	24	2
EXTAP	79	36	3
EXTAP	79	48	4
EXTAP	79	60	5
EXTAP	79	72	6
EXTAP	79	84	7
BXTAP	79	96	0
NMSTR	79	192	2
NMSI_	79	192	2	96	48	7
NMSTR	79	192	6
NMSI_	79	192	6	96	48	3
NMTAP	79	288	2
NMTAP	79	288	6
NMTAP	80	0	0
NMTAP	80	0	3
NMTAP	80	48	0
NMTAP	80	48	3
NMSTR	80	96	1
BRSI_	80	96	1	96	48	6
NMSTR	80	96	2
BRSI_	80	96	2	96	48	5
NMTAP	80	144	0
NMTAP	80	144	3
EXTAP	80	288	7
EXSTR	80	360	4
NMSI_	80	360	4	96	48	0
NMTAP	81	48	0
NMTAP	81	96	2
NMTAP	81	120	2
EXSTR	81	168	3
NMSI_	81	168	3	96	48	7
NMTAP	81	240	7
NMTAP	81	288	5
NMTAP	81	312	5
EXTAP	81	360	0
EXTAP	81	360	6
NMTAP	82	48	2
NMTAP	82	48	3
NMTAP	82	96	1
NMTAP	82	96	7
NMTAP	82	144	4
NMTAP	82	144	5
NMSTR	82	192	0
NMSCR	82	192	0	96	48	3
NMSTR	82	192	7
NMSCL	82	192	7	96	48	4
NMTAP	82	240	1
NMTAP	82	240	6
EXSTR	82	288	0
NMSI_	82	288	0	96	48	4
EXSTR	82	288	7
NMSI_	82	288	7	96	48	3
BXTAP	83	0	0
BXTAP	83	0	7
EXSTR	83	96	2
BRSCL	83	96	2	96	48	6
NMTAP	83	144	3
BRTAP	83	192	2
BRTAP	83	192	4
EXSTR	83	288	5
BRSCR	83	288	5	96	48	1
NMTAP	83	336	4
BRTAP	84	0	3
BRTAP	84	0	5
EXSTR	84	96	0
BRSCL	84	96	0	96	48	5
EXSTR	84	96	4
BRSCL	84	96	4	96	48	1
NMTAP	84	144	3
NMTAP	84	144	7
BRTAP	84	192	0
BRTAP	84	192	4
EXTAP	84	288	1
EXTAP	84	288	5
EXHLD	84	360	2	72
NMTAP	85	48	3
NMTAP	85	96	4
NMTAP	85	96	5
NMTAP	85	120	4
NMTAP	85	120	5
NMTAP	85	168	6
NMTAP	85	168	7
NMTAP	85	240	0
NMTAP	85	240	1
NMTAP	85	288	2
NMTAP	85	288	3
NMTAP	85	312	2
NMTAP	85	312	3
BRHLD	85	360	1	72
BRHLD	85	360	5	72
NMTTP	86	120	0	E	0	M1
NMTTP	86	132	7	E	0	M1
NMTTP	86	144	6	E	0	M1
NMTTP	86	156	5	E	0	M1
NMTTP	86	168	4	E	0	M1
NMTTP	86	180	3	E	0	M1
NMTTP	86	192	2	E	0	M1
NMTTP	86	204	1	E	0	M1
NMTTP	86	216	0	E	0	M1
NMTTP	86	360	0	C	1	M1
NMTTP	86	360	1	B	0	M1
NMTTP	86	360	1	E	0	M1
NMTTP	86	360	1	A	0	M1
NMTTP	86	360	2	B	0	M1
NMTTP	86	360	2	E	0	M1
NMTTP	86	360	3	B	0	M1
NMTTP	86	360	4	B	0	M1
NMTTP	86	360	4	E	0	M1
NMTTP	86	360	5	B	0	M1
NMTTP	86	360	6	B	0	M1
NMTTP	86	360	6	E	0	M1
NMTTP	86	360	6	A	0	M1
NMTTP	86	360	7	E	0	M1

T_REC_TAP	453
T_REC_BRK	23
T_REC_XTP	59
T_REC_BXX	8
T_REC_HLD	52
T_REC_XHO	13
T_REC_BHO	2
T_REC_BXH	0
T_REC_STR	75
T_REC_BST	3
T_REC_XST	11
T_REC_XBS	1
T_REC_TTP	46
T_REC_THO	0
T_REC_SLD	75
T_REC_BSL	18
T_REC_ALL	839
T_NUM_TAP	644
T_NUM_BRK	55
T_NUM_HLD	65
T_NUM_SLD	75
T_NUM_ALL	839
T_JUDGE_TAP	679
T_JUDGE_HLD	106
T_JUDGE_SLD	93
T_JUDGE_ALL	878
TTM_EACHPAIRS	190
TTM_SCR_TAP	322000
TTM_SCR_BRK	143000
TTM_SCR_HLD	65000
TTM_SCR_SLD	112500
TTM_SCR_ALL	642500
TTM_SCR_S	617900
TTM_SCR_SS	637000
TTM_RAT_ACV	10086

