VERSION	0.00.00	1.04.00
FES_MODE	0
BPM_DEF	141.000	141.000	141.000	141.000
MET_DEF	4	4
RESOLUTION	384
CLK_DEF	384
COMPATIBLE_CODE	MA2

BPM	0	0	141.000
MET	0	0	4	4

NMHLD	1	0	5	192
NMHLD	1	192	4	192
NMTAP	2	0	6
NMTAP	2	96	5
NMTAP	2	192	4
NMTAP	2	288	5
NMHLD	3	0	6	192
NMHLD	3	192	5	192
NMHLD	4	0	4	192
NMTAP	4	192	3
NMTAP	4	288	3
NMHLD	5	0	2	96
NMHLD	5	0	3	96
NMTAP	5	192	1
NMTAP	5	192	3
NMTAP	5	288	2
NMTAP	5	288	3
NMHLD	6	0	2	96
NMHLD	6	0	3	96
NMTAP	6	192	1
NMTAP	6	192	3
NMTAP	6	288	2
NMTAP	6	288	3
NMHLD	7	0	2	96
NMHLD	7	0	3	96
NMHLD	7	192	2	384
NMTAP	7	192	3
EXHLD	7	288	5	288
EXTAP	8	288	3
EXTAP	8	288	4
NMTAP	9	0	2
NMTAP	9	96	0
NMTAP	9	96	1
NMTAP	9	192	7
NMTAP	9	288	0
NMTAP	9	288	6
NMTAP	10	0	5
NMTAP	10	96	6
NMTAP	10	96	7
NMTAP	10	192	0
NMTAP	10	288	1
NMTAP	10	288	7
NMTAP	11	0	2
NMTAP	11	96	0
NMTAP	11	96	1
NMTAP	11	192	0
NMTAP	11	192	7
NMTAP	11	288	6
NMTAP	11	288	7
NMTAP	12	0	5
NMTAP	12	48	5
NMTAP	12	96	4
NMTAP	12	192	2
NMTAP	12	240	2
NMTAP	12	288	3
EXTAP	13	0	2
EXTAP	13	0	4
NMTAP	13	96	1
NMTAP	13	192	0
NMTAP	13	192	6
NMTAP	13	288	4
NMTAP	14	0	3
NMTAP	14	0	5
NMTAP	14	96	6
NMTAP	14	192	1
NMTAP	14	192	7
NMTAP	14	288	3
NMTAP	15	0	5
NMTAP	15	96	4
NMTAP	15	96	6
NMTAP	15	192	2
NMTAP	15	288	1
NMTAP	15	288	3
NMTAP	16	0	0
NMTAP	16	48	0
NMTAP	16	96	7
EXTAP	16	192	1
EXTAP	16	192	6
EXHLD	17	0	2	672
EXTAP	17	0	5
NMTAP	17	96	5
NMTAP	17	192	3
NMTAP	17	288	3
NMTAP	18	0	4
NMTAP	18	96	4
NMTAP	18	192	3
NMTAP	18	288	4
NMTAP	19	0	5
NMTAP	19	96	4
NMTAP	19	96	5
NMTAP	19	192	3
NMTAP	19	288	2
NMTAP	19	288	3
NMTAP	20	0	1
NMTAP	20	96	0
NMTAP	20	192	2
NMTAP	20	192	7
NMTAP	20	288	3
NMTAP	20	288	6
NMHLD	21	0	5	576
NMTAP	21	96	4
NMTAP	21	192	3
NMTAP	21	288	3
NMTAP	22	0	4
NMTAP	22	96	3
NMTAP	22	192	3
NMTAP	22	288	4
NMTAP	22	288	5
NMTAP	23	0	6
NMTAP	23	96	6
NMTAP	23	96	7
NMTAP	23	192	0
NMTAP	23	288	0
NMTAP	23	288	1
NMTAP	24	0	2
NMTAP	24	96	3
NMTAP	24	96	5
BXTAP	24	192	2
BXTAP	24	192	6
NMSTR	25	0	4
NMSI_	25	0	4	96	96	7
NMSTR	25	192	3
NMSI_	25	192	3	96	96	0
NMTAP	26	0	7
NMTAP	26	96	0
NMTAP	26	96	6
NMTAP	26	192	1
NMTAP	26	192	7
NMTAP	26	288	2
NMTAP	26	288	6
NMSTR	27	0	4
NMSI_	27	0	4	96	96	7
NMSTR	27	192	3
NMSI_	27	192	3	96	96	0
NMTAP	28	0	7
NMTAP	28	96	0
NMTAP	28	96	6
NMTAP	28	192	1
NMTAP	28	192	7
NMTAP	28	288	2
NMTAP	28	288	6
NMHLD	29	0	1	96
EXTAP	29	96	3
NMTAP	29	192	2
NMTAP	29	192	4
BXTAP	29	288	3
BXHLD	29	288	5	384
BXTAP	30	0	4
BXTAP	30	96	1
BXTAP	30	192	4
BXTAP	30	288	2
NMTAP	31	0	1
NMTAP	31	48	1
NMTAP	31	96	0
NMTAP	31	192	6
NMTAP	31	240	6
NMTAP	31	288	7
NMTTP	32	0	0	C	1	M1
NMTTP	32	0	1	B	0	M1
NMTTP	32	0	5	B	0	M1
EXTAP	32	192	7
EXTAP	32	288	0
EXTAP	32	288	6
NMHLD	33	0	1	96
NMHLD	33	0	5	96
NMTTP	33	192	2	B	0	M1
NMTTP	33	192	3	B	0	M1
NMTTP	33	288	4	B	0	M1
NMTTP	33	288	5	B	0	M1
NMTAP	34	0	6
NMTAP	34	48	6
NMTAP	34	96	7
NMTAP	34	192	0
NMTAP	34	192	5
NMTAP	34	288	1
NMTAP	34	288	4
NMHLD	35	0	2	96
NMHLD	35	0	6	96
NMTTP	35	192	4	B	0	M1
NMTTP	35	192	5	B	0	M1
NMTTP	35	288	6	B	0	M1
NMTTP	35	288	7	B	0	M1
NMTTP	36	0	0	B	0	M1
NMTTP	36	0	1	B	0	M1
NMTTP	36	96	2	B	0	M1
NMTTP	36	96	3	B	0	M1
NMTTP	36	192	4	B	0	M1
NMTTP	36	192	5	B	0	M1
NMTTP	36	288	0	B	0	M1
NMTTP	36	288	0	E	0	M1
NMTTP	36	288	7	B	0	M1
NMTHO	37	0	0	192	C	0	M1
NMSTR	38	0	0
NMSCR	38	0	0	96	96	3
NMSTR	38	0	7
NMSCL	38	0	7	96	96	4
BXTAP	38	288	2
BXTAP	38	288	5
NMTAP	39	0	2
NMTAP	39	0	3
NMTAP	39	96	0
NMTAP	39	96	6
NMTAP	39	192	4
NMTAP	39	192	5
NMTAP	39	288	1
NMTAP	39	288	7
NMTAP	40	0	2
NMTAP	40	0	6
NMTAP	40	96	1
NMTAP	40	96	5
NMTAP	40	192	4
NMTAP	40	192	6
NMTAP	40	288	0
NMTAP	40	288	7
NMTAP	41	0	0
NMTAP	41	0	1
NMTAP	41	96	4
NMTAP	41	96	5
NMTAP	41	192	6
NMTAP	41	192	7
NMTAP	41	288	2
NMTAP	41	288	3
NMTAP	42	0	1
NMTAP	42	0	4
NMTAP	42	96	3
NMTAP	42	96	5
NMTAP	42	192	1
NMTAP	42	192	7
NMTAP	42	240	1
NMTAP	42	240	7
BXTAP	42	288	1
BXTAP	42	288	7
NMTAP	43	0	2
NMTAP	43	0	3
NMTAP	43	96	0
NMTAP	43	96	6
NMTAP	43	192	4
NMTAP	43	192	5
NMTAP	43	288	1
NMTAP	43	288	7
NMTAP	44	0	2
NMTAP	44	0	6
NMTAP	44	96	1
NMTAP	44	96	5
NMTAP	44	192	4
NMTAP	44	192	6
NMTAP	44	288	0
NMSTR	44	288	1
NMSSR	44	288	1	96	192	5
EXTAP	45	288	0
EXTAP	45	288	6
NMTAP	46	0	7
NMTAP	46	48	7
NMTAP	46	96	0
NMTAP	46	144	0
EXTAP	46	192	7
EXSTR	46	288	0
NMSCR	46	288	0	96	96	3
EXSTR	46	288	6
NMSCL	46	288	6	96	96	3
NMTAP	47	192	4
NMTAP	47	192	5
NMTAP	47	288	2
NMTAP	47	288	3
NMTAP	48	0	6
NMTAP	48	0	7
NMTAP	48	96	0
NMTAP	48	96	1
NMTAP	48	192	4
NMTAP	48	192	5
NMTAP	48	288	2
NMTAP	48	288	3
NMTAP	49	0	4
NMTAP	49	0	6
NMTAP	49	96	0
NMTAP	49	96	7
NMTAP	49	192	1
NMTAP	49	192	3
NMTAP	49	288	0
NMTAP	49	288	7
NMTAP	50	0	3
NMTAP	50	0	6
NMSTR	50	96	2
NMSI_	50	96	2	96	96	7
NMSTR	50	96	7
NMSI_	50	96	7	96	96	4
BXTAP	51	0	0
BXTAP	51	0	5
NMSTR	51	96	1
BRSV_	51	96	1	96	96	4
NMSTR	51	96	6
BRSV_	51	96	6	96	96	3
EXTAP	52	0	0
EXTAP	52	0	5
NMTAP	52	96	2
NMTAP	52	96	7
BRTAP	52	192	0
BRTAP	52	192	5
NMTAP	52	288	2
NMTAP	52	288	3
NMHLD	53	0	4	96
NMHLD	53	96	6	96
NMTAP	53	192	7
EXHLD	53	288	0	288
EXTAP	53	288	7
EXHLD	53	360	7	216
NMSTR	54	288	1
NMSI_	54	288	1	96	96	3
NMTAP	54	288	6
CNSI_	55	96	3	0	96	0
CNSI_	55	192	0	0	96	4
NMTAP	56	0	6
NMTAP	56	48	6
NMTAP	56	96	7
NMTAP	56	192	4
NMTAP	56	192	5
NMTAP	56	288	3
NMTAP	56	288	4
NMHLD	57	0	2	96
NMTAP	57	0	3
BRTAP	57	96	0
NMTAP	57	192	6
NMTAP	57	192	7
NMSTR	57	288	5
NMSI_	57	288	5	96	96	7
CNSI_	58	96	7	0	96	4
CNSI_	58	192	4	0	96	0
NMTAP	58	288	1
NMTAP	59	0	2
NMTAP	59	48	2
NMTAP	59	96	3
NMTAP	59	192	4
NMTAP	59	192	5
NMTAP	59	288	3
NMTAP	59	288	7
NMTAP	60	0	6
NMTAP	60	48	6
NMTAP	60	96	4
NMTAP	60	192	3
NMTAP	60	192	5
NMTAP	60	288	2
NMTAP	60	288	6
NMTAP	61	0	1
NMTAP	61	48	1
NMTAP	61	96	7
NMTAP	61	144	7
NMTAP	61	192	0
NMTAP	61	240	0
EXSTR	61	288	0
NMSCR	61	288	0	96	96	3
EXSTR	61	288	7
BRSCL	61	288	7	96	96	4
EXTAP	62	192	1
EXTAP	62	192	6
BXTAP	62	240	1
BXTAP	62	240	6
NMTAP	63	0	2
NMTAP	63	0	3
NMTAP	63	96	0
NMTAP	63	96	6
NMTAP	63	192	4
NMTAP	63	192	5
NMTAP	63	288	1
NMTAP	63	288	7
NMHLD	64	0	2	48
NMHLD	64	0	6	48
NMHLD	64	96	1	48
NMHLD	64	96	5	48
NMTAP	64	192	4
NMTAP	64	192	6
NMTAP	64	288	0
NMTAP	64	288	7
NMTAP	65	0	0
NMTAP	65	0	1
NMTAP	65	96	4
NMTAP	65	96	5
NMTAP	65	192	6
NMTAP	65	192	7
NMTAP	65	288	2
NMTAP	65	288	3
NMHLD	66	0	1	96
NMTAP	66	96	0
NMTAP	66	192	3
NMTAP	66	192	7
NMTAP	66	240	3
NMTAP	66	240	7
BXTAP	66	288	3
BXTAP	66	288	7
NMTAP	67	0	2
NMTAP	67	0	3
NMTAP	67	96	0
NMTAP	67	96	6
NMTAP	67	192	4
NMTAP	67	192	5
NMTAP	67	288	1
NMTAP	67	288	7
NMHLD	68	0	2	48
NMHLD	68	0	6	48
NMHLD	68	96	1	48
NMHLD	68	96	5	48
NMTAP	68	192	4
NMTAP	68	192	6
NMTAP	68	288	0
NMSTR	68	288	1
NMSSR	68	288	1	96	192	5
EXTAP	69	288	0
EXTAP	69	288	6
NMTAP	70	0	7
NMTAP	70	48	7
NMTAP	70	96	0
NMTAP	70	144	0
EXTAP	70	192	1
EXTAP	70	192	5
EXTAP	70	240	1
EXTAP	70	240	5
EXSTR	70	288	1
NMSI_	70	288	1	96	96	4
EXSTR	70	288	5
NMSI_	70	288	5	96	96	0
NMTAP	71	192	2
NMTAP	71	192	7
NMTAP	71	288	1
NMTAP	71	288	5
NMTAP	72	0	4
NMTAP	72	0	6
NMTAP	72	96	0
NMTAP	72	96	1
NMTAP	72	192	4
NMTAP	72	192	5
NMSTR	72	288	0
BRSI_	72	288	0	96	96	4
NMHLD	72	288	6	384
CNSI_	73	96	4	0	96	2
CNSI_	73	192	2	0	96	7
NMTAP	74	0	6
NMTAP	74	0	7
NMTAP	74	96	0
NMTAP	74	96	1
NMTAP	74	192	4
NMTAP	74	192	5
NMTAP	74	288	2
NMTAP	74	288	3
NMTAP	75	0	0
NMTAP	75	0	5
NMSTR	75	96	1
BRSV_	75	96	1	96	96	3
NMSTR	75	96	6
BRSV_	75	96	6	96	96	4
EXTAP	76	0	0
EXTAP	76	0	5
NMTAP	76	96	2
NMTAP	76	96	7
BRTAP	76	192	0
BRTAP	76	192	5
NMTAP	76	288	2
NMTAP	76	288	3
NMHLD	77	0	5	96
NMHLD	77	96	7	96
NMHLD	77	192	0	96
NMSTR	77	288	2
NMSXR	77	288	2	96	192	4
EXTAP	78	288	7
NMTAP	79	0	2
NMTAP	79	0	3
BRTAP	79	96	0
BRTAP	79	96	6
NMTAP	79	192	4
NMTAP	79	192	5
NMTAP	79	288	1
NMTAP	79	288	7
NMHLD	80	0	3	48
NMHLD	80	0	6	48
NMHLD	80	96	1	48
NMHLD	80	96	4	48
NMTAP	80	192	6
NMTAP	80	192	7
NMTAP	80	288	0
NMTAP	80	288	1
NMTAP	81	0	2
NMTAP	81	0	3
NMTAP	81	96	6
NMTAP	81	96	7
NMTAP	81	192	4
NMTAP	81	192	5
NMTAP	81	288	0
NMTAP	81	288	1
EXTAP	82	0	2
EXTAP	82	0	3
NMTAP	82	96	4
NMTAP	82	96	5
NMTAP	82	192	0
NMTAP	82	240	0
NMTAP	82	288	1
NMTAP	82	288	7
NMTAP	82	336	1
NMTAP	82	336	7
BXTAP	83	0	2
BXTAP	83	0	6
NMTAP	83	96	4
NMTAP	83	96	5
NMTAP	83	192	1
NMTAP	83	192	2
NMTAP	83	288	6
NMSTR	83	288	7
NMSI_	83	288	7	96	96	2
NMSCR	83	288	7	96	192	5
CNSI_	84	96	2	0	96	5
EXTAP	84	288	1
EXTAP	84	288	7
NMTAP	85	0	6
NMTAP	85	48	6
NMTAP	85	96	4
NMTAP	85	144	4
NMTAP	85	192	5
EXHLD	85	288	2	288
EXTAP	85	288	6
EXHLD	85	360	6	216
NMSTR	86	288	1
NMSI_	86	288	1	96	48	4
NMSTR	86	288	5
BRSI_	86	288	5	96	48	0

T_REC_TAP	334
T_REC_BRK	7
T_REC_XTP	33
T_REC_BXX	19
T_REC_HLD	38
T_REC_XHO	6
T_REC_BHO	0
T_REC_BXH	1
T_REC_STR	21
T_REC_BST	0
T_REC_XST	6
T_REC_XBS	0
T_REC_TTP	20
T_REC_THO	1
T_REC_SLD	21
T_REC_BSL	7
T_REC_ALL	514
T_NUM_TAP	414
T_NUM_BRK	34
T_NUM_HLD	45
T_NUM_SLD	21
T_NUM_ALL	514
T_JUDGE_TAP	440
T_JUDGE_HLD	150
T_JUDGE_SLD	28
T_JUDGE_ALL	618
TTM_EACHPAIRS	172
TTM_SCR_TAP	207000
TTM_SCR_BRK	88400
TTM_SCR_HLD	45000
TTM_SCR_SLD	31500
TTM_SCR_ALL	371900
TTM_SCR_S	357450
TTM_SCR_SS	368500
TTM_RAT_ACV	10092

