VERSION	0.00.00	1.04.00
FES_MODE	0
BPM_DEF	132.000	132.000	132.000	132.000
MET_DEF	4	4
RESOLUTION	384
CLK_DEF	384
COMPATIBLE_CODE	MA2

BPM	0	0	132.000
MET	0	0	4	4

NMSTR	2	0	0
NMSCR	2	0	0	96	288	6
NMTHO	2	0	0	576	C	0	M1
CNSUL	3	0	6	0	192	0
NMTTP	3	336	0	E	0	M1
NMTTP	4	0	0	B	0	M1
NMTTP	4	0	7	B	0	M1
NMTTP	4	192	3	E	0	M1
NMTTP	4	216	5	E	0	M1
NMTTP	4	240	2	E	0	M1
NMTTP	4	264	6	E	0	M1
NMTTP	4	288	1	E	0	M1
NMTTP	4	312	7	E	0	M1
NMTTP	4	336	0	B	0	M1
NMTTP	4	336	1	B	0	M1
NMTTP	5	0	6	B	0	M1
NMTTP	5	0	7	B	0	M1
NMTTP	5	144	2	E	0	M1
NMTTP	5	192	1	E	0	M1
NMTTP	5	192	3	E	0	M1
NMTTP	5	240	6	E	0	M1
NMTTP	5	288	5	E	0	M1
NMTTP	5	288	7	E	0	M1
NMTAP	6	0	3
NMTAP	6	0	7
NMTAP	6	48	3
NMTAP	6	48	7
NMTAP	6	96	3
NMTAP	6	96	7
NMTAP	6	144	3
NMTAP	6	144	7
NMTAP	6	192	2
NMTAP	6	192	6
NMTAP	6	240	2
NMTAP	6	240	6
NMTAP	6	288	2
NMTAP	6	288	6
NMTAP	6	336	2
NMTAP	6	336	6
NMTAP	7	0	1
NMTAP	7	0	5
NMTAP	7	48	1
NMTAP	7	48	5
NMTAP	7	96	1
NMTAP	7	96	5
NMTAP	7	144	1
NMTAP	7	144	5
NMTAP	7	192	1
NMTAP	7	192	5
NMTAP	7	288	0
NMTAP	7	288	4
NMSTR	8	0	0
BRSCR	8	0	0	96	48	1
NMSTR	8	0	4
BRSCR	8	0	4	96	48	5
CNSI_	8	144	1	0	72	3
CNSI_	8	144	5	0	72	7
CNSI_	8	216	3	0	72	6
CNSI_	8	216	7	0	72	2
NMHLD	9	0	1	96
NMHLD	9	96	3	96
NMHLD	9	192	5	96
BRTAP	9	288	7
NMTAP	10	0	1
NMTAP	10	24	3
NMTAP	10	48	1
NMTAP	10	72	3
NMHLD	10	96	1	144
NMTAP	10	144	2
NMTAP	10	192	2
NMTAP	10	240	3
NMTAP	10	288	2
NMTAP	10	288	4
NMTAP	11	0	6
NMTAP	11	24	4
NMTAP	11	48	6
NMTAP	11	72	4
NMTAP	11	96	6
NMSTR	11	192	7
BRSI_	11	192	7	96	48	3
NMTAP	11	216	7
BRTAP	11	288	0
BRTAP	11	288	7
NMTAP	12	0	2
NMTAP	12	0	4
NMTAP	12	48	1
NMTAP	12	96	0
NMTAP	12	96	3
NMTAP	12	144	4
NMTAP	12	192	3
NMTAP	12	192	5
NMTAP	12	240	6
NMTAP	12	288	4
NMTAP	12	288	7
EXSTR	12	336	3
NMSI_	12	336	3	96	48	1
EXSTR	13	0	4
NMSI_	13	0	4	96	48	6
EXSTR	13	48	3
NMSI_	13	48	3	96	48	7
EXSTR	13	96	4
NMSI_	13	96	4	96	48	0
EXSTR	13	144	3
NMSCL	13	144	3	96	48	1
EXSTR	13	192	4
NMSCR	13	192	4	96	48	6
EXSTR	13	240	3
BRSI_	13	240	3	96	48	7
EXTAP	13	288	4
BXTAP	13	336	3
NMHLD	14	0	6	48
NMTAP	14	96	4
NMTAP	14	96	5
NMTAP	14	144	3
NMTAP	14	192	4
NMTAP	14	192	5
NMTAP	14	240	7
NMTAP	14	288	4
NMTAP	14	288	6
NMTAP	14	336	3
NMSTR	15	0	4
NMSXR	15	0	4	96	192	7
NMTAP	15	0	6
EXHLD	15	72	5	216
NMTAP	15	336	0
NMTAP	16	0	1
NMTAP	16	0	3
NMTAP	16	48	4
NMTAP	16	96	1
NMTAP	16	96	3
NMTAP	16	144	0
NMTAP	16	192	2
NMTAP	16	192	3
NMTAP	16	240	4
NMTAP	16	288	2
NMTAP	16	288	3
NMTAP	16	336	1
NMTAP	17	0	2
NMHLD	17	0	3	72
NMHLD	17	72	4	72
NMTAP	17	144	5
NMSTR	17	192	5
NMSI_	17	192	5	96	48	0
NMTAP	17	288	4
BRTAP	17	288	5
NMTAP	18	0	1
NMTAP	18	0	7
NMTAP	18	48	1
NMTAP	18	48	7
NMTAP	18	96	2
NMTAP	18	120	3
NMTAP	18	144	1
NMTAP	18	168	4
NMTAP	18	192	0
NMTAP	18	240	5
NMTAP	18	240	7
NMTAP	18	288	4
NMTAP	18	336	3
NMTAP	18	336	4
BRTAP	19	0	1
BRTAP	19	0	3
BRTAP	19	72	4
BRTAP	19	72	6
BRTAP	19	144	2
BRTAP	19	144	5
BRTAP	19	192	0
BRTAP	19	192	7
NMTAP	19	288	6
NMTAP	19	288	7
NMTAP	19	336	5
NMSTR	19	360	7
NMSSR	19	360	7	96	72	3
NMTAP	20	0	6
NMTAP	20	24	0
NMHLD	20	72	2	72
NMSTR	20	192	0
NMSUL	20	192	0	96	48	4
NMTAP	20	192	1
NMTAP	20	216	0
NMTAP	20	216	1
NMHLD	20	264	7	72
BRHLD	21	0	3	144
BRHLD	21	0	5	192
EXSTR	21	288	1
NMSI_	21	288	1	96	48	4
EXTAP	21	288	7
NMSTR	22	0	7
NMSI_	22	0	7	96	48	3
NMTAP	22	48	6
NMSTR	22	96	0
NMSI_	22	96	0	96	48	4
NMTAP	22	144	1
NMTAP	22	192	5
NMTAP	22	240	5
NMTAP	22	288	3
NMSTR	22	288	6
NMSI_	22	288	6	96	48	3
NMSTR	23	0	0
NMSI_	23	0	0	96	48	4
NMTAP	23	48	1
NMSTR	23	96	7
NMSI_	23	96	7	96	48	3
NMTAP	23	144	6
NMTAP	23	192	2
NMTAP	23	240	2
NMTAP	23	288	1
NMTAP	23	288	4
NMSTR	24	0	2
NMSCL	24	0	2	96	48	7
NMTAP	24	48	2
NMTAP	24	96	3
NMTAP	24	144	4
NMSTR	24	192	5
NMSCR	24	192	5	96	48	0
NMTAP	24	240	5
NMTAP	24	288	4
NMTAP	24	336	3
NMTAP	25	0	2
NMTAP	25	0	7
NMTTP	25	48	3	E	0	M1
NMTTP	25	72	5	E	0	M1
NMTTP	25	96	1	E	0	M1
NMTTP	25	120	7	E	0	M1
EXTAP	25	144	0
EXSTR	25	192	0
NMSF_	25	192	0	96	48	4
NMTAP	25	240	1
NMTAP	25	240	7
NMTTP	25	288	0	A	1	M1
EXSTR	26	0	3
NMSUL	26	0	3	96	48	7
NMTTP	26	72	6	E	0	M1
NMTAP	26	144	4
NMSTR	26	192	4
NMSUR	26	192	4	96	48	0
NMTTP	26	264	2	E	0	M1
NMTAP	26	336	3
NMSTR	27	0	3
NMSLL	27	0	3	96	48	7
NMTTP	27	72	6	B	0	M1
NMTTP	27	72	6	E	0	M1
NMTAP	27	144	4
NMSTR	27	192	4
NMSLR	27	192	4	96	48	0
NMTTP	27	264	2	B	0	M1
NMTTP	27	264	2	E	0	M1
NMTAP	27	336	3
NMSTR	28	0	3
NMSCL	28	0	3	96	48	7
NMTTP	28	72	6	B	0	M1
NMTTP	28	72	7	B	0	M1
NMTTP	28	72	7	E	0	M1
NMTAP	28	144	4
NMSTR	28	192	4
NMSCR	28	192	4	96	48	0
NMTTP	28	264	2	B	0	M1
NMTTP	28	264	3	B	0	M1
NMTTP	28	264	3	E	0	M1
NMTAP	28	336	1
NMTAP	29	0	0
NMTAP	29	0	7
NMTAP	29	48	5
NMTAP	29	48	6
NMTAP	29	96	3
NMTAP	29	96	4
NMTAP	29	144	1
NMTAP	29	144	2
NMSTR	29	192	0
BRSI_	29	192	0	96	48	4
NMSTR	29	192	7
BRSI_	29	192	7	96	48	3
BRTAP	29	288	0
BRTAP	29	288	7
NMHLD	30	0	2	768
NMTTP	30	96	3	B	0	M1
NMTTP	30	96	3	E	0	M1
NMTTP	30	96	3	A	0	M1
NMTTP	30	192	1	B	0	M1
NMTTP	30	192	1	A	0	M1
NMTTP	30	192	2	E	0	M1
NMTTP	30	288	4	B	0	M1
NMTTP	30	288	4	E	0	M1
NMTTP	30	288	4	A	0	M1
NMTTP	31	0	0	B	0	M1
NMTTP	31	0	0	A	0	M1
NMTTP	31	0	1	E	0	M1
NMTTP	31	96	3	B	0	M1
NMTTP	31	96	3	E	0	M1
NMTTP	31	96	3	A	0	M1
BRTAP	31	192	6
BRTAP	31	288	1
NMHLD	32	0	5	768
NMTTP	32	96	4	B	0	M1
NMTTP	32	96	4	A	0	M1
NMTTP	32	96	5	E	0	M1
NMTTP	32	192	6	B	0	M1
NMTTP	32	192	6	E	0	M1
NMTTP	32	192	6	A	0	M1
NMTTP	32	288	3	B	0	M1
NMTTP	32	288	3	A	0	M1
NMTTP	32	288	4	E	0	M1
NMTTP	33	0	7	B	0	M1
NMTTP	33	0	7	E	0	M1
NMTTP	33	0	7	A	0	M1
NMTTP	33	96	4	B	0	M1
NMTTP	33	96	4	A	0	M1
NMTTP	33	96	5	E	0	M1
BRTAP	33	192	1
BRTAP	33	288	6
NMSTR	34	0	2
NMSCL	34	0	2	96	96	7
NMSTR	34	96	7
NMSCL	34	96	7	96	96	4
NMSTR	34	192	4
NMSCL	34	192	4	96	96	1
NMSTR	34	288	1
NMSCL	34	288	1	96	96	6
NMSTR	35	0	6
NMSCL	35	0	6	96	96	3
NMSTR	35	96	3
NMSCL	35	96	3	96	96	0
NMSTR	35	192	0
NMSCL	35	192	0	96	96	5
NMSTR	35	288	5
NMSCL	35	288	5	96	96	1
NMSTR	36	0	1
NMSCL	36	0	1	96	96	5
NMSTR	36	96	5
NMSCL	36	96	5	96	96	1
NMTAP	36	192	1
NMTAP	36	288	6
NMTAP	36	312	6
NMTAP	36	336	0
NMTAP	36	360	0
NMHLD	37	0	7	288
NMTTP	37	48	1	E	0	M1
NMTTP	37	48	1	D	0	M1
NMTTP	37	96	5	B	0	M1
NMTTP	37	96	5	E	0	M1
NMTTP	37	96	5	A	0	M1
NMTTP	37	96	5	D	0	M1
NMTTP	37	144	2	B	0	M1
NMTTP	37	144	2	A	0	M1
NMTTP	37	144	3	E	0	M1
NMTTP	37	144	3	D	0	M1
NMTTP	37	192	6	B	0	M1
NMTTP	37	192	6	A	0	M1
NMTTP	37	192	7	E	0	M1
NMTTP	37	192	7	D	0	M1
NMTTP	37	240	3	B	0	M1
NMTTP	37	240	4	B	0	M1
NMTTP	37	240	4	E	0	M1
NMTTP	37	240	4	D	0	M1
NMTTP	37	288	0	E	1	M1
NMHLD	38	0	1	48
NMTAP	38	0	7
NMTAP	38	48	3
NMTAP	38	96	0
NMHLD	38	96	6	48
NMTAP	38	144	4
NMHLD	38	192	2	48
NMTAP	38	192	7
NMTAP	38	240	3
NMTAP	38	288	0
NMHLD	38	288	1	48
NMTAP	38	336	3
NMSTR	39	0	1
NMSI_	39	0	1	96	48	4
NMSTR	39	0	5
NMSI_	39	0	5	96	48	0
NMTAP	39	48	2
NMTAP	39	48	6
NMSTR	39	96	1
NMSCL	39	96	1	96	48	6
NMSTR	39	96	5
NMSCL	39	96	5	96	48	2
NMTAP	39	192	1
NMTAP	39	192	5
BRTAP	39	288	0
BRTAP	39	288	7
NMSTR	40	0	6
NMSUL	40	0	6	96	48	2
NMSTR	40	0	7
NMSV_	40	0	7	96	48	2
NMTAP	40	48	0
NMTAP	40	48	1
NMTAP	40	96	6
NMTAP	40	96	7
NMSTR	40	192	0
NMSV_	40	192	0	96	48	5
NMSTR	40	192	1
NMSUR	40	192	1	96	48	5
NMTAP	40	240	6
NMTAP	40	240	7
NMTAP	40	288	0
NMTAP	40	288	1
NMTAP	41	0	3
NMSTR	41	0	4
NMSV_	41	0	4	96	48	7
NMTAP	41	48	2
NMTAP	41	48	6
NMTAP	41	96	3
NMTAP	41	96	4
NMSTR	41	192	3
BRSV_	41	192	3	96	48	0
NMTAP	41	192	4
NMTAP	41	240	1
NMTAP	41	240	5
BRTAP	41	288	3
BRTAP	41	288	4
NMTAP	42	0	0
NMHLD	42	0	6	48
NMTAP	42	48	4
NMHLD	42	96	1	48
NMTAP	42	96	7
NMTAP	42	144	3
NMTAP	42	192	0
NMHLD	42	192	5	48
NMTAP	42	240	4
NMHLD	42	288	6	48
NMTAP	42	288	7
NMTAP	42	336	4
NMSTR	43	0	2
NMSI_	43	0	2	96	48	7
NMSTR	43	0	6
NMSI_	43	0	6	96	48	3
NMTAP	43	48	1
NMTAP	43	48	5
NMSTR	43	96	2
NMSCR	43	96	2	96	48	5
NMSTR	43	96	6
NMSCR	43	96	6	96	48	1
NMTAP	43	192	2
NMTAP	43	192	6
BRTAP	43	288	0
BRTAP	43	288	7
NMTAP	44	0	0
NMSTR	44	0	1
NMSCL	44	0	1	96	48	6
NMTAP	44	48	2
NMTAP	44	96	1
NMTAP	44	96	3
NMTAP	44	144	4
NMSTR	44	192	6
NMSCR	44	192	6	96	48	1
NMTAP	44	192	7
NMTAP	44	240	5
NMTAP	44	288	4
NMTAP	44	288	6
NMTAP	44	336	3
NMTAP	45	0	3
NMTAP	45	0	4
NMSTR	45	96	3
NMSSR	45	96	3	96	48	7
NMSTR	45	96	4
NMSSL	45	96	4	96	48	0
BRTAP	45	192	3
BRTAP	45	192	4
BRTAP	45	288	1
BRTAP	45	288	6
NMTAP	46	0	2
NMHLD	46	0	4	48
NMHLD	46	96	4	48
NMTTP	46	144	0	A	0	M1
NMTTP	46	144	1	E	0	M1
NMTTP	46	144	1	A	0	M1
NMTTP	46	144	1	D	0	M1
NMHLD	46	192	4	48
NMHLD	46	288	4	48
NMTTP	46	336	6	A	0	M1
NMTTP	46	336	7	E	0	M1
NMTTP	46	336	7	A	0	M1
NMTTP	46	336	7	D	0	M1
NMHLD	47	0	4	48
NMSTR	47	96	4
NMSCL	47	96	4	96	48	2
NMSTR	47	192	1
NMSI_	47	192	1	96	48	4
NMSTR	47	288	6
NMSI_	47	288	6	96	48	4
NMHLD	48	0	3	48
NMHLD	48	96	3	48
NMTTP	48	144	6	A	0	M1
NMTTP	48	144	7	E	0	M1
NMTTP	48	144	7	A	0	M1
NMTTP	48	144	7	D	0	M1
NMHLD	48	192	3	48
NMHLD	48	288	3	48
NMTTP	48	336	0	A	0	M1
NMTTP	48	336	1	E	0	M1
NMTTP	48	336	1	A	0	M1
NMTTP	48	336	1	D	0	M1
NMTAP	49	0	3
NMTAP	49	48	3
NMTAP	49	48	4
NMTAP	49	96	4
NMTAP	49	96	5
NMTAP	49	144	5
NMTAP	49	144	6
NMTAP	49	192	5
NMHLD	49	192	6	96
NMTTP	49	288	0	A	0	M1
NMTTP	49	296	1	D	0	M1
NMTTP	49	304	1	A	0	M1
NMTTP	49	312	2	D	0	M1
NMTTP	49	320	2	A	0	M1
NMTTP	49	328	3	D	0	M1
NMTTP	49	336	7	A	0	M1
NMTTP	49	344	7	D	0	M1
NMTTP	49	352	6	A	0	M1
NMTTP	49	360	6	D	0	M1
NMTTP	49	368	5	A	0	M1
NMTTP	49	376	5	D	0	M1
BRTAP	50	0	0
EXHLD	50	96	7	48
NMTTP	50	144	4	A	0	M1
NMTTP	50	144	5	E	0	M1
NMTTP	50	144	5	A	0	M1
NMTTP	50	144	5	D	0	M1
NMHLD	50	192	7	48
NMHLD	50	288	7	48
NMTTP	50	336	2	A	0	M1
NMTTP	50	336	3	E	0	M1
NMTTP	50	336	3	A	0	M1
NMTTP	50	336	3	D	0	M1
EXTAP	51	0	7
EXTAP	51	72	3
EXTAP	51	72	6
EXSTR	51	144	1
NMSCR	51	144	1	96	48	5
EXTAP	51	144	4
NMTAP	51	240	6
NMTAP	51	288	6
NMTAP	52	0	4
NMSTR	52	0	5
NMSI_	52	0	5	96	48	0
NMTAP	52	48	5
NMTAP	52	96	4
NMTAP	52	144	3
NMSTR	52	192	2
NMSI_	52	192	2	96	48	7
NMTAP	52	240	2
NMTAP	52	288	4
NMTAP	52	336	5
NMTAP	53	0	6
NMTAP	53	0	7
NMTAP	53	48	6
NMTAP	53	48	7
NMSTR	53	96	0
NMSCR	53	96	0	96	48	3
NMSTR	53	96	7
NMSCL	53	96	7	96	48	4
NMTAP	53	288	1
NMTAP	53	288	6
BRHLD	54	0	0	48
BRTAP	54	0	6
NMTAP	54	48	2
NMTAP	54	96	1
NMHLD	54	96	7	48
NMTAP	54	144	5
NMHLD	54	192	0	48
NMTAP	54	192	6
NMTAP	54	240	3
NMHLD	54	288	1	48
NMTAP	54	288	7
NMTAP	54	336	3
NMSTR	55	0	1
NMSUR	55	0	1	96	48	5
NMSTR	55	0	5
NMSUR	55	0	5	96	48	1
NMTAP	55	48	2
NMTAP	55	48	6
NMSTR	55	96	1
NMSLL	55	96	1	96	48	5
NMSTR	55	96	5
NMSLL	55	96	5	96	48	1
NMTAP	55	192	1
NMTAP	55	192	5
BRTAP	55	288	0
BRTAP	55	288	7
NMSTR	56	0	6
NMSCL	56	0	6	96	48	2
NMSTR	56	0	7
NMSV_	56	0	7	96	48	2
NMTAP	56	48	0
NMTAP	56	48	1
NMTAP	56	96	6
NMTAP	56	96	7
NMSTR	56	192	0
NMSV_	56	192	0	96	48	5
NMSTR	56	192	1
NMSCR	56	192	1	96	48	5
NMTAP	56	240	6
NMTAP	56	240	7
NMTAP	56	288	0
NMTAP	56	288	1
NMTAP	57	0	2
NMSTR	57	0	4
NMSUL	57	0	4	96	48	7
NMTAP	57	48	1
NMTAP	57	48	7
NMTAP	57	96	3
NMTAP	57	96	4
NMSTR	57	192	3
BRSUR	57	192	3	96	48	0
NMTAP	57	192	5
NMTAP	57	240	0
NMTAP	57	240	6
BRTAP	57	288	3
BRTAP	57	288	4
NMTAP	58	0	1
NMHLD	58	0	7	48
NMTAP	58	48	5
NMHLD	58	96	0	48
NMTAP	58	96	6
NMTAP	58	144	2
NMTAP	58	192	1
NMHLD	58	192	7	48
NMTAP	58	240	4
NMTAP	58	288	0
NMHLD	58	288	6	48
NMTAP	58	336	4
NMSTR	59	0	2
NMSUL	59	0	2	96	48	6
NMSTR	59	0	6
NMSUL	59	0	6	96	48	2
NMTAP	59	48	1
NMTAP	59	48	5
NMSTR	59	96	2
NMSLR	59	96	2	96	48	6
NMSTR	59	96	6
NMSLR	59	96	6	96	48	2
NMTAP	59	192	2
NMTAP	59	192	6
BRTAP	59	288	0
BRTAP	59	288	7
NMTAP	60	0	0
NMSTR	60	0	1
NMSI_	60	0	1	96	48	5
NMTAP	60	48	2
NMTAP	60	96	1
NMTAP	60	96	3
NMTAP	60	144	4
NMSTR	60	192	6
NMSI_	60	192	6	96	48	3
NMTAP	60	192	7
NMTAP	60	240	5
NMSTR	60	288	4
BRSI_	60	288	4	96	48	2
NMTAP	60	288	6
NMTAP	60	336	2
NMHLD	61	0	1	240
CNSI_	61	48	2	0	48	5
CNSI_	61	96	5	0	48	1
CNSI_	61	144	1	0	48	6
CNSI_	61	192	6	0	48	0
EXTAP	61	288	0
EXSTR	61	288	1
NMSI_	61	288	1	96	48	4
NMTAP	62	0	1
NMSTR	62	0	7
NMSUL	62	0	7	96	48	3
NMTAP	62	48	6
NMSTR	62	96	0
NMSCR	62	96	0	96	48	4
NMTAP	62	96	7
NMTAP	62	144	1
NMTAP	62	192	0
NMSTR	62	192	5
NMSV_	62	192	5	96	48	0
NMTAP	62	240	6
NMTAP	62	288	3
NMTAP	62	288	5
NMTAP	62	336	2
NMTAP	63	0	0
NMTAP	63	0	1
NMTAP	63	48	0
NMTAP	63	48	1
NMTAP	63	96	2
NMHLD	63	96	7	96
NMTAP	63	192	3
NMTAP	63	204	4
NMTAP	63	216	5
NMTAP	63	228	6
NMTAP	63	240	7
NMTAP	63	252	0
NMTAP	63	264	1
NMTAP	63	276	2
NMTAP	63	288	3
NMTAP	63	300	4
NMTAP	63	312	5
NMTAP	63	324	6
NMTAP	63	336	7
NMTAP	63	348	0
NMTAP	63	360	1
NMTAP	63	372	2
NMSTR	64	0	3
NMSI_	64	0	3	96	48	7
NMSTR	64	0	4
NMSI_	64	0	4	96	48	0
BRTAP	64	96	3
BRTAP	64	96	4
NMTTP	64	104	4	E	0	M1
NMTTP	64	112	0	C	1	M1
NMTTP	64	120	0	E	0	M1
NMSTR	64	192	1
NMSI_	64	192	1	96	48	4
NMTAP	64	240	1
NMSTR	64	288	7
NMSI_	64	288	7	96	48	3
NMTAP	64	336	7
NMSTR	65	0	0
NMSI_	65	0	0	96	48	4
NMTAP	65	48	0
NMTAP	65	96	6
NMTAP	65	144	6
NMHLD	65	192	4	48
NMHLD	65	192	6	48
NMHLD	65	264	2	48
NMHLD	65	264	5	48
NMHLD	65	336	0	24
NMHLD	65	336	3	24
NMTAP	66	0	0
NMTAP	66	0	3
NMHLD	66	96	1	48
NMTAP	66	144	2
NMTAP	66	168	2
NMTAP	66	216	6
NMTAP	66	240	6
NMTAP	66	264	5
NMTAP	66	288	5
NMTAP	66	312	6
NMTAP	66	336	6
NMTAP	67	0	4
NMTAP	67	0	7
NMTAP	67	48	2
NMTAP	67	48	5
NMTAP	67	96	0
NMTAP	67	96	3
NMTAP	67	144	2
NMTAP	67	144	5
NMTAP	67	192	4
NMHLD	67	192	6	96
EXTAP	67	240	3
EXTAP	67	252	2
EXTAP	67	264	1
EXTAP	67	276	0
BXTAP	67	288	7
NMTAP	68	0	1
NMTAP	68	0	4
NMTAP	68	96	2
NMTAP	68	120	1
NMTAP	68	120	3
NMTAP	68	192	5
NMTAP	68	216	4
NMTAP	68	216	6
NMTAP	68	288	0
NMTAP	68	288	7
NMTAP	68	312	1
NMTAP	68	312	6
NMTTP	69	0	2	B	0	M1
NMTTP	69	0	2	E	0	M1
NMTTP	69	0	2	A	1	M1
NMTTP	69	0	2	D	0	M1
NMTTP	69	0	3	E	0	M1
NMTTP	69	0	3	D	0	M1
BXTAP	69	0	7
BXTAP	69	72	1
NMTTP	69	72	5	B	0	M1
NMTTP	69	72	5	E	0	M1
NMTTP	69	72	5	A	1	M1
NMTTP	69	72	5	D	0	M1
NMTTP	69	72	6	E	0	M1
NMTTP	69	72	6	D	0	M1
NMTTP	69	144	0	B	0	M1
NMTTP	69	144	0	E	0	M1
NMTTP	69	144	0	A	0	M1
NMTTP	69	144	0	D	1	M1
BXTAP	69	144	3
NMTTP	69	144	7	B	0	M1
NMTTP	69	144	7	A	0	M1
NMTAP	69	240	2
NMTAP	69	240	3
NMTAP	69	288	2
NMTAP	69	288	3
NMTAP	69	336	1
NMTAP	69	336	4
NMSTR	70	0	1
NMSCR	70	0	1	96	48	5
NMTAP	70	0	4
NMTAP	70	48	5
NMTAP	70	72	5
NMTAP	70	96	1
NMHLD	70	144	6	48
NMSTR	70	192	7
NMSCL	70	192	7	96	48	4
NMTAP	70	240	0
NMTAP	70	264	0
NMTAP	70	288	7
NMTAP	70	336	2
NMSTR	71	0	3
NMSI_	71	0	3	96	48	0
NMSTR	71	0	5
NMSV_	71	0	5	96	48	0
NMTAP	71	48	1
NMTAP	71	48	7
NMTAP	71	96	3
NMTAP	71	96	5
NMSTR	71	192	2
NMSI_	71	192	2	96	48	6
NMSTR	71	192	4
NMSI_	71	192	4	96	48	0
NMTAP	71	240	0
NMTAP	71	240	6
NMTAP	71	288	2
NMTAP	71	288	4
NMTTP	72	0	1	B	0	M1
NMTTP	72	0	1	A	0	M1
NMTTP	72	0	5	B	0	M1
NMTTP	72	0	5	A	0	M1

T_REC_TAP	354
T_REC_BRK	38
T_REC_XTP	12
T_REC_BXX	5
T_REC_HLD	50
T_REC_XHO	2
T_REC_BHO	3
T_REC_BXH	0
T_REC_STR	88
T_REC_BST	0
T_REC_XST	12
T_REC_XBS	0
T_REC_TTP	146
T_REC_THO	1
T_REC_SLD	91
T_REC_BSL	9
T_REC_ALL	811
T_NUM_TAP	612
T_NUM_BRK	55
T_NUM_HLD	53
T_NUM_SLD	91
T_NUM_ALL	811
T_JUDGE_TAP	655
T_JUDGE_HLD	127
T_JUDGE_SLD	100
T_JUDGE_ALL	882
TTM_EACHPAIRS	172
TTM_SCR_TAP	306000
TTM_SCR_BRK	143000
TTM_SCR_HLD	53000
TTM_SCR_SLD	136500
TTM_SCR_ALL	638500
TTM_SCR_S	614050
TTM_SCR_SS	633000
TTM_RAT_ACV	10086

