VERSION	0.00.00	1.04.00
FES_MODE	0
BPM_DEF	132.000	132.000	132.000	132.000
MET_DEF	4	4
RESOLUTION	384
CLK_DEF	384
COMPATIBLE_CODE	MA2

BPM	0	0	132.000
MET	0	0	4	4

NMHLD	2	0	4	96
NMHLD	2	0	6	96
NMHLD	2	192	1	96
NMHLD	2	192	3	96
NMTAP	3	0	3
NMTAP	3	0	5
NMTAP	3	96	2
NMSTR	3	96	4
NMSSL	3	96	4	96	144	0
NMHLD	4	0	1	192
NMTAP	4	192	0
NMTAP	4	288	0
NMTAP	4	288	1
NMHLD	5	0	2	96
NMHLD	5	0	7	96
NMTAP	5	192	4
NMTAP	5	192	5
NMTAP	5	288	2
NMTAP	5	288	3
NMHLD	6	0	1	96
NMHLD	6	0	3	96
NMHLD	6	192	4	96
NMHLD	6	192	6	96
NMTAP	7	0	7
NMTAP	7	48	7
NMSTR	7	96	0
NMSSL	7	96	0	96	144	4
NMTAP	7	96	6
NMSTR	7	288	5
BRSCR	7	288	5	96	288	4
BXTAP	8	0	1
NMSTR	9	0	1
NMSI_	9	0	1	96	48	3
NMSTR	9	96	7
NMSI_	9	96	7	96	48	5
NMSTR	9	192	0
BRSI_	9	192	0	96	48	4
EXHLD	9	288	7	96
NMTAP	10	0	5
NMTAP	10	96	3
NMTAP	10	192	2
NMHLD	10	288	0	96
NMTAP	11	0	2
NMTAP	11	48	3
NMSTR	11	96	4
NMSCR	11	96	4	96	48	7
NMSTR	11	192	1
NMSCR	11	192	1	96	48	4
EXTAP	11	288	6
NMTTP	12	0	6	E	0	M1
NMTTP	12	96	5	E	0	M1
NMTTP	12	192	4	E	0	M1
NMTTP	12	288	3	E	0	M1
NMTAP	13	0	2
NMTAP	13	0	4
NMTAP	13	72	2
NMTAP	13	72	4
NMTAP	13	144	1
NMTAP	13	144	5
NMSTR	13	192	1
NMSI_	13	192	1	96	48	4
NMHLD	13	192	5	96
EXTAP	13	288	1
NMTAP	14	0	6
NMTAP	14	48	6
NMTAP	14	96	4
NMTAP	14	96	5
NMTAP	14	192	1
NMTAP	14	240	1
NMTAP	14	288	2
NMTAP	14	288	3
NMSTR	15	0	1
NMSCR	15	0	1	96	96	4
NMSTR	15	0	5
NMSCR	15	0	5	96	96	0
NMTAP	15	288	3
NMTAP	15	288	7
NMTAP	16	0	1
NMTAP	16	48	1
NMTAP	16	96	2
NMTAP	16	96	3
NMTAP	16	192	6
NMTAP	16	240	6
NMTAP	16	288	4
NMTAP	16	288	5
NMSTR	17	0	2
NMSXR	17	0	2	96	144	4
NMHLD	17	96	6	192
BXTAP	17	288	5
NMTAP	18	0	6
NMTAP	18	0	7
NMTAP	18	48	6
NMTAP	18	48	7
NMTAP	18	96	0
NMTAP	18	96	5
NMTAP	18	192	0
NMTAP	18	192	1
NMTAP	18	240	0
NMTAP	18	240	1
NMTAP	18	288	2
NMTAP	18	288	7
BXTAP	19	0	6
BXTAP	19	0	7
BXTAP	19	72	3
BXTAP	19	72	4
BXTAP	19	144	0
BXTAP	19	144	1
BXTAP	19	192	0
BXTAP	19	192	1
NMTAP	19	288	3
NMTAP	19	288	4
NMSTR	20	0	6
NMSI_	20	0	6	96	48	3
NMSTR	20	0	7
NMSI_	20	0	7	96	48	3
NMSTR	20	192	0
NMSI_	20	192	0	96	48	4
NMSTR	20	192	1
NMSI_	20	192	1	96	48	4
EXHLD	21	0	3	96
EXHLD	21	0	5	96
NMTAP	21	144	2
NMTAP	21	144	6
NMHLD	21	192	2	96
NMSTR	21	192	6
NMSI_	21	192	6	96	48	3
EXTAP	21	288	6
NMSTR	22	0	0
NMSCR	22	0	0	96	96	4
NMSTR	22	96	4
NMSCR	22	96	4	96	96	0
NMTAP	22	192	0
NMTAP	22	288	4
NMSTR	23	0	7
NMSCL	23	0	7	96	96	3
NMSTR	23	96	3
NMSCL	23	96	3	96	96	7
NMTAP	23	192	7
NMTAP	23	288	3
NMTAP	24	0	2
NMTAP	24	48	2
NMTAP	24	96	4
NMTAP	24	144	4
NMTAP	24	192	1
NMTAP	24	240	1
NMTAP	24	288	7
NMTAP	24	336	7
BXTAP	25	0	0
BXTAP	25	0	6
BXTAP	25	48	0
BXTAP	25	48	6
BXTAP	25	96	0
BXTAP	25	96	6
NMTAP	25	144	2
NMTAP	25	144	4
NMTAP	25	192	2
NMTAP	25	192	4
EXTAP	25	240	1
EXTAP	25	240	5
EXTAP	25	288	1
EXTAP	25	288	5
NMSTR	26	0	6
NMSCL	26	0	6	96	48	3
NMTAP	26	96	2
NMSTR	26	192	0
NMSI_	26	192	0	96	48	3
NMSI_	26	192	0	96	48	5
NMSTR	27	0	1
NMSCR	27	0	1	96	48	4
NMTAP	27	96	5
NMSTR	27	192	7
NMSV_	27	192	7	96	48	2
NMSV_	27	192	7	96	48	4
NMHLD	28	0	1	48
NMHLD	28	0	5	48
NMTAP	28	96	2
NMTAP	28	144	2
NMTAP	28	192	3
NMTAP	28	192	4
NMTAP	28	240	3
NMTAP	28	240	4
NMTAP	28	288	2
NMTAP	28	288	5
BRTAP	29	0	0
BRTAP	29	0	7
BRTAP	29	48	0
BRTAP	29	48	7
BRTAP	29	96	1
BRTAP	29	96	6
BRTAP	29	144	2
BRTAP	29	144	5
BRSTR	29	192	3
BRSCL	29	192	3	96	48	0
BRSTR	29	192	4
BRSCR	29	192	4	96	48	7
NMTTP	30	0	0	B	0	M1
NMTTP	30	0	0	C	0	M1
NMTTP	30	0	0	A	0	M1
NMTTP	30	96	0	C	0	M1
NMTTP	30	96	7	B	0	M1
NMTTP	30	96	7	A	0	M1
NMTTP	30	192	0	C	0	M1
NMTTP	30	192	6	B	0	M1
NMTTP	30	192	6	A	0	M1
NMTTP	30	288	0	C	0	M1
NMTTP	30	288	5	B	0	M1
NMTTP	30	288	5	A	0	M1
NMTTP	31	0	0	C	0	M1
NMTTP	31	0	4	B	0	M1
NMTTP	31	0	4	A	0	M1
EXSTR	31	96	1
NMSI_	31	96	1	96	96	5
CNSI_	31	288	5	0	48	2
NMTTP	32	0	0	C	0	M1
NMTTP	32	0	7	B	0	M1
NMTTP	32	0	7	A	0	M1
NMTTP	32	96	0	B	0	M1
NMTTP	32	96	0	C	0	M1
NMTTP	32	96	0	A	0	M1
NMTTP	32	192	0	C	0	M1
NMTTP	32	192	1	B	0	M1
NMTTP	32	192	1	A	0	M1
NMTTP	32	288	0	C	0	M1
NMTTP	32	288	2	B	0	M1
NMTTP	32	288	2	A	0	M1
NMTTP	33	0	0	C	0	M1
NMTTP	33	0	3	B	0	M1
NMTTP	33	0	3	A	0	M1
NMSTR	33	96	6
NMSCL	33	96	6	96	96	3
CNSXL	33	288	3	0	48	5
NMTAP	34	0	1
NMTAP	34	96	0
NMTAP	34	96	2
NMTAP	34	192	6
NMTAP	34	288	5
NMTAP	34	288	7
NMTAP	35	0	2
NMTAP	35	96	1
NMTAP	35	96	4
NMTAP	35	192	5
NMSTR	35	288	3
NMSCL	35	288	3	96	288	4
NMTAP	35	288	6
NMTAP	36	0	4
NMTAP	36	96	4
NMTAP	36	192	3
NMTAP	36	288	3
BXHLD	37	0	2	96
BXHLD	37	0	5	96
NMSTR	37	192	0
NMSI_	37	192	0	96	48	4
NMSTR	37	192	7
NMSI_	37	192	7	96	48	3
EXTAP	37	288	0
EXTAP	37	288	7
NMHLD	38	0	0	48
NMTAP	38	0	5
NMTAP	38	48	5
NMTAP	38	96	2
NMHLD	38	96	7	48
NMTAP	38	144	2
NMHLD	38	192	0	48
NMTAP	38	192	5
NMTAP	38	240	5
NMHLD	38	288	0	48
NMTAP	38	288	4
NMTAP	38	336	4
NMTAP	39	0	1
NMTAP	39	0	5
NMTAP	39	48	2
NMTAP	39	48	6
NMTAP	39	96	1
NMTAP	39	96	5
NMTAP	39	144	1
NMTAP	39	144	5
NMTTP	39	192	0	C	0	M1
NMTTP	39	192	2	B	0	M1
NMTTP	39	192	3	B	1	M1
NMTTP	39	192	4	B	0	M1
EXTAP	39	288	0
EXTAP	39	288	7
NMSTR	40	0	1
NMSI_	40	0	1	96	48	5
NMSTR	40	96	6
NMSI_	40	96	6	96	48	2
NMSTR	40	192	3
NMSI_	40	192	3	96	48	0
NMTAP	40	288	5
NMSTR	41	0	6
NMSI_	41	0	6	96	48	3
NMSTR	41	0	7
NMSI_	41	0	7	96	48	3
EXTAP	41	96	6
EXTAP	41	96	7
NMSTR	41	192	0
NMSI_	41	192	0	96	48	4
NMSTR	41	192	1
NMSI_	41	192	1	96	48	4
EXTAP	41	288	0
EXTAP	41	288	1
NMHLD	42	0	0	48
NMTAP	42	0	5
NMTAP	42	48	5
NMTAP	42	96	2
NMHLD	42	96	7	48
NMTAP	42	144	2
NMHLD	42	192	0	48
NMTAP	42	192	5
NMTAP	42	240	5
NMHLD	42	288	0	48
NMTAP	42	288	4
NMTAP	42	336	4
NMTAP	43	0	1
NMTAP	43	0	5
NMTAP	43	48	2
NMTAP	43	48	6
NMTAP	43	96	1
NMTAP	43	96	5
NMTAP	43	144	1
NMTAP	43	144	5
NMTTP	43	192	0	C	0	M1
NMTTP	43	192	2	B	0	M1
NMTTP	43	192	3	B	1	M1
NMTTP	43	192	4	B	0	M1
EXTAP	43	288	0
EXTAP	43	288	7
NMSTR	44	0	5
NMSCL	44	0	5	96	48	2
NMSTR	44	96	1
NMSCL	44	96	1	96	48	6
NMSTR	44	192	4
NMSI_	44	192	4	96	48	0
NMTAP	44	288	2
NMHLD	45	0	7	192
EXTAP	45	192	0
BRTAP	45	288	2
BRTAP	45	288	5
NMHLD	46	0	1	48
NMHLD	46	0	4	48
NMTAP	46	96	1
NMTAP	46	96	4
EXTAP	46	144	5
NMHLD	46	192	3	48
NMHLD	46	192	6	48
NMTAP	46	288	3
NMTAP	46	288	6
EXTAP	46	336	2
NMHLD	47	0	1	48
NMHLD	47	0	3	48
NMSTR	47	96	1
NMSI_	47	96	1	96	48	4
NMTAP	47	96	3
NMSTR	47	192	5
NMSI_	47	192	5	96	48	0
NMTAP	47	288	3
NMHLD	48	0	2	48
NMHLD	48	0	7	48
NMTAP	48	96	2
NMTAP	48	96	7
EXTAP	48	144	6
NMHLD	48	192	0	48
NMHLD	48	192	5	48
NMTAP	48	288	0
NMTAP	48	288	5
EXTAP	48	336	1
NMTAP	49	0	2
NMTAP	49	0	3
NMTAP	49	48	4
NMTAP	49	96	3
NMSTR	49	96	5
NMSUL	49	96	5	96	144	4
NMTAP	49	192	4
NMHLD	50	0	3	48
NMHLD	50	0	6	48
NMTAP	50	96	3
NMTAP	50	96	6
EXTAP	50	144	2
NMHLD	50	192	1	48
NMHLD	50	192	4	48
NMTAP	50	288	1
NMTAP	50	288	4
EXTAP	50	336	5
NMTAP	51	0	3
NMTAP	51	0	5
NMTAP	51	72	2
NMTAP	51	72	4
NMTAP	51	144	1
NMTAP	51	144	5
NMTAP	51	192	1
NMSTR	51	192	5
NMSI_	51	192	5	96	48	3
NMHLD	52	0	0	48
NMHLD	52	0	5	48
NMTAP	52	96	0
NMTAP	52	96	5
NMTAP	52	144	1
NMHLD	52	192	2	48
NMHLD	52	192	7	48
NMTAP	52	288	2
NMTAP	52	288	7
NMTAP	52	336	6
NMSTR	53	0	3
NMSCL	53	0	3	96	48	0
NMSTR	53	0	5
NMSI_	53	0	5	96	48	0
EXTAP	53	192	3
EXTAP	53	192	5
BRTAP	53	288	2
BRTAP	53	288	6
NMSTR	54	0	0
NMSI_	54	0	0	96	48	4
NMSTR	54	0	1
NMSI_	54	0	1	96	48	3
EXTAP	54	96	0
EXTAP	54	96	1
NMSTR	54	192	6
NMSI_	54	192	6	96	48	4
NMSTR	54	192	7
NMSI_	54	192	7	96	48	3
EXTAP	54	288	6
EXTAP	54	288	7
NMTAP	55	0	1
NMTAP	55	0	7
NMTAP	55	48	1
NMTAP	55	48	7
NMSTR	55	96	2
NMSI_	55	96	2	96	48	7
NMSTR	55	96	6
NMSI_	55	96	6	96	48	3
EXTAP	55	192	2
EXTAP	55	192	6
EXTAP	55	288	1
EXSTR	55	288	5
NMSCL	55	288	5	96	48	2
NMSTR	56	0	0
NMSI_	56	0	0	96	48	5
NMSTR	56	96	4
NMSI_	56	96	4	96	48	7
NMSTR	56	192	3
NMSI_	56	192	3	96	48	0
NMTAP	56	288	6
NMSTR	57	0	6
NMSI_	57	0	6	96	48	3
NMHLD	57	0	7	96
NMTAP	57	96	6
NMHLD	57	192	0	96
NMSTR	57	192	1
NMSI_	57	192	1	96	48	4
NMTAP	57	288	1
NMSTR	58	0	6
NMSI_	58	0	6	96	48	4
NMSTR	58	0	7
NMSI_	58	0	7	96	48	3
EXTAP	58	96	6
EXTAP	58	96	7
NMSTR	58	192	0
NMSI_	58	192	0	96	48	4
NMSTR	58	192	1
NMSI_	58	192	1	96	48	3
EXTAP	58	288	0
EXTAP	58	288	1
NMTAP	59	0	0
NMTAP	59	0	6
NMTAP	59	48	0
NMTAP	59	48	6
NMSTR	59	96	1
NMSI_	59	96	1	96	48	4
NMSTR	59	96	5
NMSI_	59	96	5	96	48	0
EXTAP	59	192	1
EXTAP	59	192	5
EXSTR	59	288	2
NMSCR	59	288	2	96	48	5
EXTAP	59	288	6
NMSTR	60	0	7
NMSI_	60	0	7	96	48	2
NMSTR	60	96	3
NMSI_	60	96	3	96	48	0
NMSTR	60	192	4
NMSI_	60	192	4	96	48	7
NMSTR	60	288	1
NMSI_	60	288	1	96	48	6
NMSTR	61	0	5
NMSI_	61	0	5	96	48	2
NMSTR	61	96	0
NMSCR	61	96	0	96	96	5
BRTAP	61	192	7
NMHLD	62	0	4	48
NMHLD	62	0	6	48
NMHLD	62	96	4	48
NMHLD	62	96	7	48
NMHLD	62	192	1	48
NMHLD	62	192	3	48
NMSTR	62	288	0
NMSSL	62	288	0	96	144	4
NMHLD	62	288	3	48
NMTAP	63	192	5
NMTAP	63	224	5
NMTAP	63	256	5
NMTAP	63	288	1
NMTAP	63	320	1
NMTAP	63	352	1
NMSTR	64	0	0
NMSI_	64	0	0	96	48	4
NMSTR	64	0	7
NMSI_	64	0	7	96	48	3
EXTAP	64	96	0
EXTAP	64	96	7
NMTAP	64	192	2
NMTAP	64	192	5
NMTAP	64	288	2
NMTAP	64	288	4
NMTAP	65	0	3
NMSTR	65	0	5
NMSI_	65	0	5	96	48	0
NMSTR	65	96	1
NMSI_	65	96	1	96	48	4
NMTAP	65	192	7
NMTAP	65	288	7
NMSTR	66	0	3
NMSI_	66	0	3	96	48	1
NMSTR	66	0	4
NMSI_	66	0	4	96	48	0
NMSTR	66	192	3
NMSI_	66	192	3	96	48	7
NMSTR	66	192	4
NMSI_	66	192	4	96	48	6
EXHLD	67	0	4	48
EXHLD	67	0	5	48
EXHLD	67	96	2	48
EXHLD	67	96	3	48
NMSTR	67	192	1
NMSI_	67	192	1	96	48	5
NMTAP	67	192	4
EXTAP	67	288	1
NMTAP	67	288	7
NMTAP	68	0	7
NMHLD	68	96	4	48
NMHLD	68	96	6	48
NMHLD	68	192	1	48
NMHLD	68	192	3	48
NMHLD	68	288	3	48
NMHLD	68	288	4	48
NMTTP	69	0	6	B	0	M1
NMTTP	69	0	6	E	0	M1
NMTTP	69	0	6	A	1	M1
NMTTP	69	72	0	B	0	M1
NMTTP	69	72	0	A	1	M1
NMTTP	69	72	1	E	0	M1
NMTTP	69	144	3	B	0	M1
NMTTP	69	144	4	B	0	M1
NMTTP	69	144	4	E	1	M1
NMTAP	69	240	2
NMTAP	69	240	5
NMTAP	69	288	2
NMTAP	69	288	5
NMHLD	70	0	4	96
NMSTR	70	0	6
NMSI_	70	0	6	96	48	0
NMTAP	70	96	6
NMSTR	70	192	1
NMSI_	70	192	1	96	48	7
NMHLD	70	192	3	96
NMTAP	70	288	1
NMTAP	71	0	4
NMTAP	71	0	6
NMTAP	71	48	4
NMTAP	71	48	7
NMTAP	71	96	4
NMTAP	71	96	7
NMTAP	71	192	1
NMTAP	71	192	3
NMTAP	71	240	0
NMTAP	71	240	3
NMSTR	71	288	0
NMSI_	71	288	0	96	48	4
NMHLD	71	288	3	96
BXTAP	72	0	0

T_REC_TAP	208
T_REC_BRK	13
T_REC_XTP	43
T_REC_BXX	17
T_REC_HLD	62
T_REC_XHO	7
T_REC_BHO	0
T_REC_BXH	2
T_REC_STR	81
T_REC_BST	2
T_REC_XST	3
T_REC_XBS	0
T_REC_TTP	51
T_REC_THO	0
T_REC_SLD	84
T_REC_BSL	4
T_REC_ALL	577
T_NUM_TAP	386
T_NUM_BRK	38
T_NUM_HLD	69
T_NUM_SLD	84
T_NUM_ALL	577
T_JUDGE_TAP	418
T_JUDGE_HLD	103
T_JUDGE_SLD	88
T_JUDGE_ALL	609
TTM_EACHPAIRS	158
TTM_SCR_TAP	193000
TTM_SCR_BRK	98800
TTM_SCR_HLD	69000
TTM_SCR_SLD	126000
TTM_SCR_ALL	486800
TTM_SCR_S	468550
TTM_SCR_SS	483000
TTM_RAT_ACV	10078

