VERSION	0.00.00	1.04.00
FES_MODE	0
BPM_DEF	132.000	132.000	132.000	132.000
MET_DEF	4	4
RESOLUTION	384
CLK_DEF	384
COMPATIBLE_CODE	MA2

BPM	0	0	132.000
MET	0	0	4	4

BXSTR	2	0	3
NMSI_	2	0	3	96	288	0
NMSTR	3	0	4
NMSI_	3	0	4	96	288	7
NMHLD	4	0	1	576
NMTTP	5	0	0	C	0	M1
NMTTP	5	192	0	E	0	M1
NMHLD	6	0	0	96
NMHLD	6	0	1	96
NMTAP	6	192	0
NMTAP	6	288	7
NMHLD	7	0	6	96
NMHLD	7	0	7	96
NMTAP	7	192	6
NMSTR	7	288	4
NMSI_	7	288	4	96	192	0
NMTAP	7	288	5
NMTAP	8	288	0
NMSTR	8	288	7
NMSSR	8	288	7	96	288	3
BXTAP	9	288	2
NMHLD	10	0	2	576
NMHLD	11	0	3	192
EXTAP	11	288	2
EXTAP	11	288	3
NMTAP	12	0	4
NMTAP	12	96	3
NMTAP	12	96	5
NMTAP	12	192	3
NMTAP	12	288	2
NMHLD	12	288	4	96
EXTAP	13	0	3
EXTAP	13	48	3
EXTAP	13	96	4
EXTAP	13	144	4
EXTAP	13	192	2
BRTAP	13	288	0
BRTAP	13	288	6
NMHLD	14	0	1	96
NMTAP	14	96	3
NMHLD	14	192	5	96
NMTAP	14	288	4
NMTAP	15	0	3
NMTAP	15	0	4
NMTAP	15	96	2
NMTAP	15	144	2
NMTAP	15	192	3
NMTAP	15	288	1
NMTAP	15	288	4
NMHLD	16	0	6	96
NMTAP	16	96	4
NMHLD	16	192	2	96
NMTAP	16	288	3
NMTAP	17	0	3
NMTAP	17	0	4
NMTAP	17	96	5
NMTAP	17	144	5
NMTAP	17	192	4
NMTAP	17	288	2
NMTAP	17	288	6
NMTAP	18	0	1
NMTAP	18	0	5
NMTAP	18	96	6
NMTAP	18	192	3
NMTAP	18	192	5
NMSTR	18	288	2
NMSI_	18	288	2	96	96	5
EXTAP	19	192	7
NMTAP	19	288	0
NMTAP	19	288	6
NMHLD	20	0	2	96
NMTAP	20	0	4
NMTAP	20	96	4
NMTAP	20	192	3
NMHLD	20	192	5	96
NMTAP	20	288	3
NMHLD	21	0	2	144
NMHLD	21	0	6	192
BRTAP	21	288	0
NMTAP	22	0	1
NMTAP	22	0	4
NMTAP	22	96	2
NMTAP	22	144	2
NMTAP	22	192	3
NMTAP	22	288	4
NMTAP	22	288	5
NMSTR	23	0	6
NMSI_	23	0	6	96	96	2
NMSTR	23	192	1
NMSI_	23	192	1	96	96	5
NMHLD	24	0	6	96
NMTAP	24	96	7
NMTAP	24	144	7
NMTAP	24	192	6
NMTAP	24	288	6
NMTAP	24	288	7
EXTAP	25	0	4
EXTAP	25	0	6
NMTAP	25	96	3
NMTAP	25	96	4
NMTAP	25	192	2
NMTAP	25	240	3
BXTAP	25	288	1
BXTAP	25	288	4
EXSTR	26	0	2
NMSI_	26	0	2	96	96	7
NMSTR	26	192	6
NMSI_	26	192	6	96	96	3
NMSTR	27	0	2
NMSCL	27	0	2	96	96	7
NMSTR	27	192	6
BRSCL	27	192	6	96	96	3
NMTAP	28	0	2
NMTAP	28	48	2
NMTAP	28	96	2
NMTAP	28	96	3
NMTAP	28	192	5
NMTAP	28	240	5
NMTAP	28	288	4
NMSTR	28	288	5
NMSCR	28	288	5	96	192	2
EXTAP	29	288	1
EXTAP	29	288	5
EXTAP	30	0	2
EXTAP	30	0	4
NMTAP	30	96	5
NMTAP	30	144	5
NMHLD	30	192	5	288
NMTAP	30	288	4
NMTAP	30	336	4
NMHLD	31	0	4	96
EXTAP	31	192	6
EXTAP	31	288	6
EXTAP	32	0	3
EXTAP	32	0	5
NMTAP	32	96	2
NMTAP	32	144	2
NMHLD	32	192	2	288
NMTAP	32	288	3
NMTAP	32	336	3
NMHLD	33	0	3	96
NMTAP	33	192	1
NMTAP	33	288	0
NMTAP	33	288	7
NMHLD	34	0	6	192
BXHLD	34	96	7	96
NMTAP	34	288	0
NMHLD	35	0	1	192
BXHLD	35	96	0	96
NMTAP	35	288	0
NMTAP	35	288	1
NMTAP	36	0	2
NMTAP	36	0	7
BXTAP	36	96	1
BXTAP	36	96	6
NMTAP	36	192	0
NMTAP	36	192	5
NMTAP	36	288	1
NMTAP	36	288	4
NMTAP	37	0	2
NMTAP	37	0	3
NMTAP	37	96	3
NMTAP	37	96	7
EXTAP	37	288	3
EXTAP	37	288	4
BRHLD	38	0	0	48
BRHLD	38	0	5	48
NMHLD	38	96	2	48
NMHLD	38	96	7	48
NMHLD	38	192	0	48
NMHLD	38	192	5	48
NMHLD	38	288	0	48
NMHLD	38	288	5	48
NMTAP	39	0	6
NMTAP	39	0	7
NMTAP	39	48	6
NMTAP	39	48	7
NMTAP	39	96	6
NMTAP	39	96	7
BRTAP	39	192	0
BRTAP	39	192	5
NMTAP	39	288	3
NMTAP	39	288	4
NMTAP	40	0	1
NMTAP	40	0	3
NMTAP	40	96	0
NMTAP	40	96	7
NMTAP	40	192	4
NMTAP	40	192	6
NMTAP	40	288	3
NMTAP	40	288	4
NMTAP	41	0	2
NMTAP	41	48	2
NMTAP	41	96	1
NMTAP	41	96	3
NMTAP	41	192	5
NMTAP	41	240	5
NMTAP	41	288	4
NMTAP	41	288	6
BRHLD	42	0	0	48
BRHLD	42	0	5	48
NMHLD	42	96	2	48
NMHLD	42	96	7	48
NMHLD	42	192	0	48
NMHLD	42	192	5	48
NMHLD	42	288	0	48
NMHLD	42	288	5	48
NMTAP	43	0	6
NMTAP	43	0	7
NMTAP	43	48	6
NMTAP	43	48	7
NMTAP	43	96	6
NMTAP	43	96	7
BRTAP	43	192	0
BRTAP	43	192	5
NMTAP	43	288	3
NMTAP	43	288	4
NMTAP	44	0	1
NMTAP	44	0	3
NMTAP	44	96	0
NMTAP	44	96	7
NMTAP	44	192	4
NMTAP	44	192	6
NMTAP	44	288	3
NMTAP	44	288	4
NMHLD	45	0	2	96
NMHLD	45	0	3	96
NMHLD	45	192	4	96
NMHLD	45	192	5	96
BXTAP	46	0	0
BXTAP	46	0	7
EXTAP	46	96	0
EXTAP	46	96	7
EXTAP	46	192	6
EXTAP	46	192	7
EXTAP	46	288	6
EXTAP	46	288	7
NMTAP	47	0	0
NMTAP	47	0	7
NMTAP	47	96	0
NMTAP	47	96	7
NMTAP	47	192	0
NMTAP	47	192	1
NMTAP	47	288	0
NMTAP	47	288	1
NMTAP	48	0	2
NMTAP	48	0	6
NMTAP	48	96	1
NMTAP	48	96	5
NMTAP	48	192	2
NMTAP	48	192	6
NMTAP	48	288	2
NMTAP	48	288	6
NMTAP	49	0	5
NMTAP	49	48	5
NMTAP	49	96	3
NMTAP	49	144	3
NMTAP	49	192	2
NMTAP	49	192	4
EXTAP	49	288	0
EXTAP	49	288	7
BRTAP	50	0	0
BRTAP	50	0	1
NMTAP	50	96	0
NMTAP	50	96	7
NMTAP	50	192	6
NMTAP	50	192	7
NMTAP	50	288	0
NMTAP	50	288	7
NMTAP	51	0	0
NMTAP	51	0	1
NMTAP	51	96	0
NMTAP	51	96	7
NMTAP	51	192	6
NMTAP	51	192	7
NMTAP	51	288	0
NMTAP	51	288	4
NMTAP	52	0	2
NMTAP	52	0	3
NMTAP	52	96	4
NMTAP	52	96	5
NMTAP	52	192	2
NMTAP	52	192	3
NMTAP	52	288	2
NMTAP	52	288	3
NMSTR	53	0	3
NMSI_	53	0	3	96	96	7
NMSTR	53	0	4
NMSI_	53	0	4	96	96	0
EXTAP	53	288	1
EXTAP	53	288	6
BRHLD	54	0	0	48
BRHLD	54	0	5	48
NMHLD	54	96	2	48
NMHLD	54	96	7	48
NMHLD	54	192	0	48
NMHLD	54	192	5	48
NMHLD	54	288	0	48
NMHLD	54	288	5	48
NMTAP	55	0	2
NMTAP	55	0	3
NMTAP	55	48	2
NMTAP	55	48	3
NMTAP	55	96	2
NMTAP	55	96	3
BRTAP	55	192	0
BRTAP	55	192	5
NMTAP	55	288	3
NMTAP	55	288	4
NMTAP	56	0	1
NMTAP	56	0	2
NMTAP	56	96	0
NMTAP	56	96	7
NMTAP	56	192	5
NMTAP	56	192	6
NMTAP	56	288	3
NMTAP	56	288	4
NMTAP	57	0	2
NMTAP	57	48	2
NMTAP	57	96	1
NMTAP	57	96	3
NMTAP	57	192	5
NMTAP	57	240	5
NMTAP	57	288	4
NMTAP	57	288	6
BRHLD	58	0	0	48
BRHLD	58	0	5	48
NMHLD	58	96	2	48
NMHLD	58	96	7	48
NMHLD	58	192	0	48
NMHLD	58	192	5	48
NMHLD	58	288	0	48
NMHLD	58	288	5	48
NMTAP	59	0	2
NMTAP	59	0	3
NMTAP	59	48	2
NMTAP	59	48	3
NMTAP	59	96	2
NMTAP	59	96	3
BRTAP	59	192	0
BRTAP	59	192	5
NMTAP	59	288	2
NMTAP	59	288	7
BXTAP	60	0	0
BXTAP	60	0	1
NMTAP	60	96	4
NMTAP	60	96	5
BXTAP	60	192	6
BXTAP	60	192	7
NMTAP	60	288	2
NMTAP	60	288	3
BXTAP	61	0	0
BXTAP	61	0	5
BXTAP	61	96	2
BXSTR	61	96	7
BRSCL	61	96	7	96	96	2
NMTAP	62	0	0
NMTAP	62	0	1
NMTAP	62	48	0
NMTAP	62	48	1
NMTAP	62	96	0
NMTAP	62	96	1
NMTAP	62	192	6
NMTAP	62	192	7
NMTAP	62	240	6
NMTAP	62	240	7
NMTAP	62	288	6
NMTAP	62	288	7
NMTAP	63	0	0
NMTAP	63	0	5
NMSTR	63	96	0
NMSCR	63	96	0	96	192	5
NMTAP	63	96	5
BRTAP	64	96	1
BRTAP	64	96	7
NMTAP	64	192	2
NMTAP	64	192	6
NMTAP	64	288	4
NMTAP	64	288	5
NMTAP	65	0	2
NMTAP	65	0	3
NMTAP	65	96	1
NMTAP	65	96	4
NMTAP	65	192	3
NMTAP	65	192	6
NMTAP	65	288	3
NMTAP	65	288	6
EXHLD	66	0	0	48
EXHLD	66	0	1	48
EXTAP	66	96	0
EXTAP	66	96	1
EXHLD	66	192	6	48
EXHLD	66	192	7	48
EXTAP	66	288	6
EXTAP	66	288	7
NMTAP	67	0	0
NMTAP	67	48	0
NMTAP	67	96	7
NMTAP	67	144	7
NMTAP	67	192	0
NMTAP	67	192	6
EXTAP	67	288	1
EXTAP	67	288	5
NMTAP	68	0	2
NMTAP	68	48	2
NMTAP	68	96	3
NMTAP	68	192	6
NMTAP	68	240	6
NMTAP	68	288	7
BXTAP	69	0	6
BXTAP	69	0	7
BXTAP	69	72	1
BXTAP	69	72	7
BXTAP	69	144	2
BXTAP	69	144	6
EXTAP	69	288	3
EXTAP	69	288	4
NMTAP	70	0	2
NMTAP	70	48	2
NMTAP	70	96	1
NMTAP	70	96	3
NMTAP	70	192	5
NMTAP	70	240	5
NMTAP	70	288	4
NMTAP	70	288	6
NMHLD	71	0	7	192
NMTAP	71	192	1
BRSTR	71	288	2
NMSI_	71	288	2	96	48	4
BRSTR	71	288	6
NMSI_	71	288	6	96	48	4

T_REC_TAP	254
T_REC_BRK	15
T_REC_XTP	38
T_REC_BXX	20
T_REC_HLD	52
T_REC_XHO	4
T_REC_BHO	8
T_REC_BXH	2
T_REC_STR	13
T_REC_BST	2
T_REC_XST	1
T_REC_XBS	2
T_REC_TTP	2
T_REC_THO	0
T_REC_SLD	16
T_REC_BSL	2
T_REC_ALL	431
T_NUM_TAP	308
T_NUM_BRK	51
T_NUM_HLD	56
T_NUM_SLD	16
T_NUM_ALL	431
T_JUDGE_TAP	347
T_JUDGE_HLD	135
T_JUDGE_SLD	18
T_JUDGE_ALL	500
TTM_EACHPAIRS	154
TTM_SCR_TAP	154000
TTM_SCR_BRK	132600
TTM_SCR_HLD	56000
TTM_SCR_SLD	24000
TTM_SCR_ALL	366600
TTM_SCR_S	350700
TTM_SCR_SS	361500
TTM_RAT_ACV	10141

