VERSION	0.00.00	1.04.00
FES_MODE	0
BPM_DEF	153.000	153.000	153.000	153.000
MET_DEF	4	4
RESOLUTION	384
CLK_DEF	384
COMPATIBLE_CODE	MA2

BPM	0	0	153.000
MET	0	0	4	4

BXTAP	2	0	4
BXTAP	2	0	5
NMTAP	2	96	2
NMTAP	2	96	3
NMHLD	2	192	1	72
NMHLD	2	264	3	72
NMTAP	2	336	2
NMHLD	3	0	6	72
NMHLD	3	72	4	72
NMTAP	3	144	5
NMTAP	3	192	3
NMTAP	3	216	4
NMTAP	3	240	3
BRTAP	3	288	2
BRTAP	3	288	5
NMTAP	4	0	1
NMTAP	4	24	3
NMTAP	4	48	2
NMTAP	4	96	3
NMTAP	4	96	4
NMSTR	4	144	5
NMSI_	4	144	5	96	48	3
NMHLD	4	192	5	72
NMSTR	4	336	1
NMSI_	4	336	1	96	48	3
NMHLD	5	0	1	72
NMSTR	5	144	5
NMSI_	5	144	5	96	48	3
NMHLD	5	192	5	72
EXTAP	5	336	2
NMTAP	6	0	2
NMTAP	6	24	3
NMTAP	6	48	1
NMTAP	6	96	0
NMTAP	6	96	7
NMTAP	6	144	6
EXTAP	6	192	4
EXTAP	6	192	6
NMTAP	6	264	3
NMTAP	6	264	4
NMTAP	6	336	1
NMTAP	6	336	3
NMHLD	7	0	0	24
NMHLD	7	48	0	24
NMHLD	7	96	1	24
NMHLD	7	96	7	24
NMTAP	7	144	1
NMTAP	7	144	7
NMTAP	7	192	6
NMTAP	7	216	2
NMTAP	7	240	6
NMTAP	7	264	2
NMTAP	7	288	5
NMTAP	7	312	3
NMTAP	7	336	5
NMTAP	7	360	3
NMTAP	8	0	6
NMTAP	8	24	4
NMTAP	8	48	5
NMTAP	8	96	3
NMTAP	8	96	4
NMSTR	8	144	2
NMSCL	8	144	2	96	48	7
NMHLD	8	192	2	72
NMSTR	8	336	5
NMSCR	8	336	5	96	48	0
NMHLD	9	0	5	72
NMSTR	9	144	1
NMSCR	9	144	1	96	48	4
NMHLD	9	192	1	72
EXTAP	9	336	5
NMTAP	10	0	5
NMTAP	10	24	4
NMTAP	10	48	6
NMTAP	10	96	0
NMTAP	10	96	7
NMTAP	10	144	1
EXTAP	10	192	1
EXTAP	10	192	3
NMTAP	10	264	3
NMTAP	10	264	4
NMTAP	10	336	4
NMTAP	10	336	6
NMHLD	11	0	7	24
NMHLD	11	48	7	24
NMHLD	11	96	0	24
NMHLD	11	96	6	24
NMTAP	11	144	0
NMTAP	11	144	6
NMTAP	11	192	5
NMTAP	11	216	1
NMTAP	11	240	5
NMTAP	11	264	1
NMTAP	11	288	4
NMTAP	11	312	2
NMTAP	11	336	4
BRTAP	12	0	1
BRTAP	12	0	5
NMTAP	12	48	2
NMTAP	12	96	3
NMTAP	12	144	4
NMHLD	12	192	5	72
NMTAP	12	264	4
NMTAP	12	288	5
NMTAP	12	336	7
NMHLD	13	0	2	72
NMTAP	13	72	3
NMTAP	13	96	2
NMTAP	13	144	0
NMHLD	13	192	7	72
NMTAP	13	264	0
NMTAP	13	288	6
NMSTR	13	336	1
NMSI_	13	336	1	96	48	7
NMTAP	13	336	5
NMTAP	14	0	4
EXTAP	14	48	1
NMTAP	14	96	3
NMTAP	14	144	4
NMHLD	14	192	3	48
NMHLD	14	192	5	48
NMHLD	14	288	4	48
NMHLD	14	288	6	48
NMTAP	15	0	6
NMTAP	15	48	5
NMSTR	15	96	4
NMSXL	15	96	4	96	120	4
NMSXR	15	96	4	96	120	4
NMTAP	15	144	3
BXTAP	16	0	2
BXTAP	16	0	6
NMTAP	16	48	6
NMSTR	16	96	4
NMSXL	16	96	4	96	144	3
NMHLD	16	96	5	96
EXTAP	17	0	2
NMTAP	17	48	2
NMHLD	17	96	2	96
NMSTR	17	96	3
NMSXR	17	96	3	96	144	5
NMHLD	18	0	3	72
NMHLD	18	0	6	72
NMTAP	18	96	3
NMTAP	18	96	6
NMTAP	18	144	2
NMTAP	18	144	5
NMHLD	18	192	1	72
NMHLD	18	192	4	72
NMTAP	18	288	1
NMTAP	18	288	4
NMTAP	18	336	2
NMTAP	18	336	3
NMTAP	19	0	5
NMTAP	19	24	5
NMTAP	19	48	4
NMTAP	19	96	2
NMTAP	19	120	2
NMTAP	19	144	3
NMTAP	19	192	4
NMTAP	19	240	3
NMTAP	19	240	5
BRTAP	19	288	1
BRTAP	19	288	7
NMTAP	20	0	1
NMTAP	20	24	0
NMTAP	20	48	1
NMTAP	20	96	2
NMTAP	20	96	7
NMSTR	20	144	6
NMSI_	20	144	6	96	48	3
NMHLD	20	192	6	72
NMSTR	20	336	1
NMSI_	20	336	1	96	48	6
NMHLD	21	0	1	72
NMSTR	21	144	4
NMSI_	21	144	4	96	48	1
NMHLD	21	192	4	72
EXTAP	21	336	0
NMTAP	22	0	1
NMTAP	22	24	3
NMTAP	22	48	2
NMTAP	22	96	3
NMTAP	22	96	4
NMSTR	22	144	5
NMSV_	22	144	5	96	48	0
NMHLD	22	192	5	72
EXTAP	22	336	0
NMHLD	23	0	7	24
NMHLD	23	48	7	24
NMHLD	23	96	0	24
NMHLD	23	96	6	24
NMTAP	23	144	0
NMTAP	23	144	6
NMTAP	23	192	1
NMTAP	23	216	5
NMTAP	23	240	1
NMTAP	23	264	5
NMTAP	23	288	2
NMTAP	23	312	4
NMTAP	23	336	2
NMTAP	24	0	3
NMSTR	24	0	5
NMSI_	24	0	5	96	48	0
NMTAP	24	48	6
NMTAP	24	96	4
NMTAP	24	144	3
NMHLD	24	192	2	72
NMTAP	24	264	3
NMTAP	24	288	2
NMTAP	24	336	1
NMTAP	24	336	4
NMHLD	25	0	5	72
NMTAP	25	72	4
NMTAP	25	96	5
NMTAP	25	144	3
NMTAP	25	144	6
NMHLD	25	192	1	72
NMTAP	25	264	0
NMTAP	25	288	1
NMTAP	25	336	2
NMSTR	25	336	7
NMSI_	25	336	7	96	48	3
NMTAP	26	0	6
EXTAP	26	48	7
NMTAP	26	96	2
NMTAP	26	144	1
NMSTR	26	192	5
NMSI_	26	192	5	96	48	0
NMTAP	26	240	5
NMTAP	26	288	3
NMTAP	27	0	2
NMTAP	27	0	4
NMTAP	27	48	1
NMSTR	27	96	3
NMSI_	27	96	3	96	48	5
NMTAP	27	96	5
NMTAP	27	144	6
CNSI_	27	240	5	0	48	1
CNSI_	27	288	1	0	48	4
BRTAP	28	0	7
NMHLD	28	48	6	96
NMTAP	28	96	4
NMTAP	28	144	4
NMHLD	28	192	3	144
NMTAP	28	192	5
NMTTP	28	264	4	B	0	M1
NMTTP	28	264	4	E	0	M1
NMTAP	28	336	5
NMTAP	29	0	2
NMHLD	29	48	1	96
NMTAP	29	96	3
NMTAP	29	144	3
NMTAP	29	192	2
NMHLD	29	192	4	144
NMTTP	29	264	3	B	0	M1
NMTTP	29	264	4	B	0	M1
NMTTP	29	264	4	E	0	M1
NMTAP	29	336	2
NMSTR	30	0	1
NMSCR	30	0	1	96	48	4
NMTAP	30	48	1
NMTAP	30	96	0
NMTAP	30	144	7
NMSTR	30	192	6
NMSCL	30	192	6	96	48	3
NMTAP	30	240	6
NMTAP	30	288	7
NMTAP	30	336	0
NMHLD	31	0	1	48
EXHLD	31	0	3	48
EXHLD	31	96	4	48
NMHLD	31	96	5	48
EXTAP	31	192	3
EXTAP	31	192	4
EXTAP	31	256	0
EXTAP	31	256	7
EXTAP	31	320	1
EXTAP	31	320	6
NMTAP	32	0	2
NMTAP	32	32	2
NMTAP	32	64	2
NMHLD	32	96	3	96
NMTAP	32	192	1
NMTAP	32	224	1
NMTAP	32	256	1
NMHLD	32	288	3	96
NMTAP	33	0	0
NMTAP	33	32	0
NMTAP	33	64	2
NMTAP	33	96	1
NMTAP	33	128	1
NMTAP	33	160	3
NMSTR	33	192	2
NMSI_	33	192	2	96	48	0
NMSI_	33	192	2	96	48	4
NMTAP	34	0	5
NMTAP	34	32	5
NMTAP	34	64	5
NMHLD	34	96	4	96
NMTAP	34	192	6
NMTAP	34	224	6
NMTAP	34	256	6
NMHLD	34	288	4	96
NMTAP	35	0	7
NMTAP	35	32	7
NMTAP	35	64	5
NMTAP	35	96	6
NMTAP	35	128	6
NMTAP	35	160	4
NMSTR	35	192	5
NMSI_	35	192	5	96	48	3
NMSI_	35	192	5	96	48	7
NMTAP	36	0	2
NMTAP	36	32	2
NMTAP	36	64	3
NMHLD	36	96	1	96
NMTAP	36	192	3
NMTAP	36	224	3
NMTAP	36	256	2
NMHLD	36	288	4	96
NMTAP	37	0	3
NMTAP	37	32	3
NMTAP	37	64	5
NMTAP	37	96	4
NMTAP	37	128	4
NMTAP	37	160	6
NMSTR	37	192	5
NMSI_	37	192	5	96	48	1
BRTAP	38	0	7
NMTAP	38	48	7
NMTAP	38	96	0
NMTAP	38	96	6
NMTAP	38	144	1
NMTAP	38	144	5
NMTAP	38	192	2
NMTAP	38	192	4
NMTAP	38	240	2
NMTAP	38	264	3
NMTAP	38	288	2
NMTAP	38	336	3
NMTAP	38	336	5
NMTAP	39	0	4
NMHLD	39	0	6	72
NMHLD	39	72	0	72
NMTAP	39	144	7
NMTAP	39	192	6
EXTAP	39	216	0
NMTAP	39	240	6
BRTAP	39	288	1
BRTAP	39	288	5
NMSTR	40	0	2
NMSI_	40	0	2	96	48	4
NMTAP	40	0	6
NMTAP	40	48	0
NMTAP	40	48	4
NMTAP	40	96	2
NMTAP	40	96	6
NMTAP	40	144	0
NMTAP	40	192	2
NMSTR	40	192	6
NMSI_	40	192	6	96	48	0
NMTAP	40	240	0
NMTAP	40	240	4
NMTAP	40	288	2
NMTAP	40	288	6
NMTAP	40	336	4
BRTAP	41	0	2
BRTAP	41	0	6
NMTAP	41	48	5
NMTAP	41	72	4
NMTAP	41	120	2
NMTAP	41	144	3
BRTAP	41	192	0
BRTAP	41	192	4
NMTAP	41	240	6
NMTAP	41	264	7
NMTAP	41	312	1
NMTAP	41	336	0
NMTAP	42	0	0
NMSTR	42	0	7
NMSI_	42	0	7	96	48	3
NMSTR	42	48	6
NMSI_	42	48	6	96	48	2
NMTAP	42	96	7
NMTAP	42	144	6
BRTAP	42	192	0
NMTAP	42	240	1
NMTAP	42	240	3
NMTAP	42	288	7
NMTAP	42	336	4
NMTAP	42	336	6
NMTAP	43	0	3
NMTAP	43	0	4
NMTAP	43	48	2
NMTAP	43	72	3
NMTAP	43	120	6
NMTAP	43	144	7
NMTAP	43	192	5
NMTAP	43	216	4
BRTAP	43	240	6
BRTAP	43	288	0
BRTAP	43	288	4
NMTAP	44	0	2
NMSTR	44	0	6
NMSI_	44	0	6	96	48	0
NMTAP	44	48	0
NMTAP	44	48	4
NMTAP	44	96	2
NMTAP	44	96	6
NMTAP	44	144	4
NMSTR	44	192	2
NMSI_	44	192	2	96	48	4
NMTAP	44	192	6
NMTAP	44	240	0
NMTAP	44	240	4
NMTAP	44	288	2
NMTAP	44	288	6
NMTAP	44	336	0
BRTAP	45	0	1
BRTAP	45	0	7
NMTAP	45	48	6
NMTAP	45	72	4
NMTAP	45	120	2
NMTAP	45	144	3
BRTAP	45	192	1
BRTAP	45	192	7
NMTAP	45	240	6
NMTAP	45	264	4
NMTAP	45	312	2
NMTAP	45	336	3
NMSTR	46	0	0
NMSI_	46	0	0	96	48	3
NMSTR	46	48	0
NMSI_	46	48	0	96	48	5
EXTAP	46	96	0
EXTAP	46	144	0
NMTAP	46	192	4
NMTAP	46	240	3
NMTAP	46	288	2
NMTAP	46	288	4
NMTAP	46	336	1
NMTAP	46	336	3
NMSTR	47	0	0
NMSCR	47	0	0	96	48	3
NMSTR	47	0	4
NMSI_	47	0	4	96	48	7
NMTAP	47	48	0
NMTAP	47	48	4
NMTAP	47	96	0
NMTAP	47	96	4
BRTAP	47	192	1
BRTAP	47	192	5
NMTAP	47	288	2
NMTAP	47	288	4
NMSTR	48	0	3
NMSI_	48	0	3	96	48	7
NMTAP	48	96	5
NMHLD	48	192	6	72
NMHLD	48	264	5	72
NMTAP	48	336	4
NMSTR	49	0	3
NMSCL	49	0	3	96	48	0
NMTAP	49	96	6
NMHLD	49	192	7	72
NMHLD	49	264	6	72
NMTAP	49	336	5
NMSTR	50	0	4
NMSI_	50	0	4	96	48	2
NMTAP	50	0	5
NMSTR	50	96	6
NMSI_	50	96	6	96	48	4
EXTAP	50	192	0
EXTAP	50	264	2
NMTAP	50	336	4
NMTAP	51	0	3
NMTAP	51	0	5
NMTAP	51	48	3
NMTAP	51	48	5
NMSTR	51	96	3
NMSSR	51	96	3	96	144	7
NMTAP	51	96	5
EXTAP	51	192	6
EXTAP	51	240	6
EXTAP	51	288	6
NMSTR	52	0	5
NMSI_	52	0	5	96	48	2
NMTAP	52	96	0
NMHLD	52	192	1	72
NMHLD	52	264	2	72
NMTAP	52	336	3
NMTAP	53	0	3
NMSTR	53	0	4
NMSCR	53	0	4	96	48	7
NMTAP	53	96	1
NMHLD	53	192	0	72
NMHLD	53	264	1	72
NMTAP	53	336	2
NMTAP	54	0	2
NMSTR	54	0	3
NMSI_	54	0	3	96	48	5
NMSTR	54	96	1
NMSI_	54	96	1	96	48	3
EXTAP	54	192	7
EXTAP	54	264	5
NMTAP	54	336	3
NMTAP	55	0	2
NMTAP	55	0	4
NMTAP	55	48	2
NMTAP	55	48	4
NMTAP	55	96	2
NMSTR	55	96	4
NMSXL	55	96	4	96	144	3
BXTAP	55	192	1
BXTAP	55	240	1
BXTAP	55	288	1
EXHLD	56	0	2	192
EXHLD	56	0	4	192
NMTAP	56	240	3
NMTAP	56	264	3
NMTAP	56	288	4
NMTAP	56	336	3
NMTAP	56	336	5
NMTAP	57	0	2
NMTAP	57	0	4
NMTAP	57	48	3
NMTAP	57	48	5
NMTAP	57	96	2
NMTAP	57	96	4
NMTAP	57	144	3
NMTAP	57	144	5
NMHLD	57	192	2	96
NMHLD	57	192	4	96
NMTAP	57	336	2
NMTAP	57	336	4
NMTAP	58	0	1
NMTAP	58	0	5
NMTAP	58	48	2
NMTAP	58	48	6
NMSTR	58	96	1
NMSI_	58	96	1	96	48	4
NMSTR	58	96	5
NMSI_	58	96	5	96	48	0
NMTAP	58	144	2
NMTAP	58	144	6
NMTAP	58	192	1
NMTAP	58	192	5
BRTAP	58	288	7
NMTAP	59	0	0
NMTAP	59	0	6
NMTAP	59	48	1
NMTAP	59	72	3
NMTAP	59	96	2
NMTAP	59	144	3
NMTAP	59	144	4
NMTAP	59	192	4
NMTAP	59	192	5
NMTAP	59	240	6
NMTAP	59	264	7
NMTAP	59	312	7
NMTAP	59	336	5
BRTAP	60	0	1
BRTAP	60	0	3
NMTAP	60	72	4
NMTAP	60	72	5
NMTAP	60	144	2
NMSTR	60	144	3
NMSI_	60	144	3	96	48	5
EXSTR	60	216	3
NMSI_	60	216	3	96	48	1
EXTAP	60	288	3
BXHLD	61	0	7	192
BXHLD	61	192	0	192
NMTAP	62	0	6
NMTAP	62	48	2
NMTAP	62	72	4
NMSTR	62	96	3
NMSF_	62	96	3	96	48	7
NMTAP	62	144	3
NMSTR	63	0	0
NMSI_	63	0	0	96	48	4
NMTAP	63	0	6
NMTAP	63	48	1
NMSTR	63	48	5
NMSI_	63	48	5	96	48	2
NMTAP	63	96	0
NMTAP	63	144	5
NMTAP	63	192	1
NMTAP	63	240	1
NMTAP	63	264	0
NMTAP	63	288	2
NMTAP	63	336	3
NMTAP	63	336	7
NMTAP	64	0	4
NMTAP	64	0	6
NMTAP	64	48	2
NMTAP	64	72	3
NMTAP	64	96	1
NMTAP	64	120	3
NMTAP	64	144	2
NMSTR	64	192	7
NMSI_	64	192	7	96	48	3
NMTAP	64	216	0
NMTAP	64	240	6
NMTAP	64	288	1
BRTAP	64	288	7
NMSTR	65	0	1
NMSCL	65	0	1	96	48	6
NMTAP	65	0	5
NMTAP	65	48	3
NMTAP	65	48	7
NMTAP	65	96	1
NMTAP	65	96	5
NMTAP	65	144	3
NMTAP	65	192	1
NMSTR	65	192	5
NMSCL	65	192	5	96	48	2
NMTAP	65	240	3
NMTAP	65	240	7
NMTAP	65	288	1
NMTAP	65	288	5
NMTAP	65	336	7
BRTAP	66	0	1
BRTAP	66	0	5
NMTAP	66	48	2
NMTAP	66	72	3
NMTAP	66	96	1
BRTAP	66	144	0
BRTAP	66	144	7
NMTAP	66	192	2
NMTAP	66	192	6
NMTAP	66	240	5
NMTAP	66	264	4
NMTAP	66	288	6
BRTAP	66	336	0
BRTAP	66	336	7
NMSTR	67	0	7
NMSI_	67	0	7	96	48	4
NMSTR	67	48	7
NMSI_	67	48	7	96	48	2
EXTAP	67	96	7
EXTAP	67	144	7
NMTAP	67	192	3
NMTAP	67	240	4
NMTAP	67	288	3
NMTAP	67	288	5
NMTAP	67	336	4
NMTAP	67	336	6
NMSTR	68	0	3
NMSCL	68	0	3	96	48	0
NMSTR	68	0	7
NMSI_	68	0	7	96	48	4
NMTAP	68	48	0
NMTAP	68	48	4
NMTAP	68	96	3
NMTAP	68	96	7
BRTAP	68	192	2
BRTAP	68	192	6
EXTAP	68	240	0
EXTAP	68	288	0
NMTAP	68	336	7
NMTAP	69	0	4
NMTAP	69	0	6
NMTAP	69	48	7
NMTAP	69	96	3
NMTAP	69	96	5
NMTAP	69	144	0
NMTAP	69	192	1
NMTAP	69	192	3
NMTAP	69	240	5
NMTAP	69	264	4
NMTAP	69	312	1
NMTAP	69	336	0
NMTAP	70	0	2
NMTAP	70	0	7
NMTAP	70	48	1
NMTAP	70	48	6
NMTAP	70	96	0
NMTAP	70	96	5
NMTAP	70	144	1
NMTAP	70	144	4
NMTAP	70	192	2
NMTAP	70	192	3
NMTAP	70	240	1
NMTAP	70	264	0
NMTAP	70	312	5
NMTAP	70	336	4
NMTAP	71	0	4
NMTAP	71	0	6
NMTAP	71	48	4
NMTAP	71	48	6
NMTAP	71	96	2
NMTAP	71	96	3
NMTAP	71	144	3
NMTAP	71	144	4
NMSTR	71	192	5
NMSI_	71	192	5	96	48	3
NMTAP	71	240	2
NMSTR	71	288	5
NMSI_	71	288	5	96	48	1
NMTAP	71	336	1
BXTAP	72	0	5
CNSI_	72	48	1	0	48	3
NMSTR	72	96	0
NMSI_	72	96	0	96	48	4
NMSTR	72	144	4
NMSI_	72	144	4	96	48	1
BXTAP	72	192	0
EXTAP	72	288	7
NMTAP	72	336	6
NMTAP	73	0	3
NMTAP	73	0	5
NMTAP	73	48	1
NMTAP	73	96	2
NMTAP	73	96	4
NMTAP	73	144	0
NMTAP	73	192	3
NMTAP	73	192	5
NMTAP	73	240	6
NMTAP	73	264	7
NMTAP	73	312	2
NMTAP	73	336	3
NMTAP	74	0	1
NMTAP	74	0	4
NMTAP	74	48	2
NMTAP	74	48	5
NMTAP	74	96	3
NMTAP	74	96	6
NMTAP	74	144	2
NMTAP	74	144	7
NMTAP	74	192	0
NMTAP	74	192	1
NMTAP	74	240	2
NMTAP	74	264	3
NMTAP	74	312	6
NMTAP	74	336	7
NMTAP	75	0	3
NMTAP	75	0	5
NMTAP	75	48	2
NMTAP	75	48	4
NMTAP	75	96	1
NMTAP	75	96	3
NMTAP	75	144	0
NMTAP	75	144	4
NMSTR	75	192	5
NMSI_	75	192	5	96	48	0
NMSTR	75	240	1
NMSI_	75	240	1	96	48	5
NMTAP	75	288	5
NMTAP	75	336	1
BRTAP	76	0	7
NMTAP	76	48	4
NMTAP	76	48	6
NMTAP	76	96	3
NMTAP	76	96	4
NMTAP	76	144	1
NMTAP	76	144	3
NMSTR	76	192	1
NMSCR	76	192	1	96	48	4
NMSTR	76	192	3
NMSI_	76	192	3	96	48	7
BRTAP	76	288	1
BRTAP	76	288	3
NMTAP	77	0	0
NMTAP	77	0	6
NMTAP	77	48	0
NMTAP	77	48	6
NMTAP	77	96	1
NMTAP	77	96	7
NMTAP	77	144	0
NMTAP	77	144	6
NMTAP	77	192	2
NMTAP	77	192	7
NMTAP	77	240	0
NMTAP	77	240	5
NMTAP	77	288	3
NMTAP	77	288	6
NMTAP	77	336	1
NMTAP	77	336	4
BRSTR	78	0	3
BRSCL	78	0	3	96	48	0
BRSTR	78	0	7
BRSI_	78	0	7	96	48	4
BRTAP	78	48	0
BRTAP	78	48	4
BRTAP	78	96	3
BRTAP	78	96	7
EXTAP	78	192	1
EXTAP	78	192	5
EXSTR	78	288	3
NMSI_	78	288	3	96	48	7
EXTAP	78	288	4
BRTAP	79	0	3
NMSTR	79	0	6
NMSI_	79	0	6	96	48	2
NMSTR	79	96	0
NMSCL	79	96	0	96	48	5
BRTAP	79	96	6
BRTAP	79	192	0
NMHLD	79	192	4	96
NMTTP	79	288	3	B	0	M1
NMTTP	79	288	4	B	0	M1
NMTTP	79	288	4	E	0	M1
NMTAP	80	0	1
NMTAP	80	24	0
NMTAP	80	48	1
NMTAP	80	96	2
NMTAP	80	96	7
NMSTR	80	144	6
NMSV_	80	144	6	96	48	3
NMHLD	80	192	6	72
NMSTR	80	336	2
NMSV_	80	336	2	96	48	7
NMHLD	81	0	2	72
NMSTR	81	144	5
NMSV_	81	144	5	96	48	0
NMHLD	81	192	5	72
EXTAP	81	336	0
NMTAP	82	0	1
NMTAP	82	24	3
NMTAP	82	48	2
NMTAP	82	96	3
NMTAP	82	96	4
NMTAP	82	144	4
NMTAP	82	144	5
NMHLD	82	192	6	72
NMTAP	82	264	4
NMTAP	82	336	3
NMTAP	82	336	4
NMTAP	83	0	2
NMTAP	83	24	2
NMTAP	83	48	3
NMTAP	83	72	3
NMTAP	83	96	1
NMTAP	83	120	1
NMHLD	83	144	7	48
NMTAP	83	192	0
NMTAP	83	216	1
NMTAP	83	240	2
NMTAP	83	264	3
NMTAP	83	288	6
NMTAP	83	312	4
NMTAP	83	336	6
NMTAP	83	360	4
NMTAP	84	0	5
NMTAP	84	24	4
NMTAP	84	48	6
NMTAP	84	96	0
NMTAP	84	96	7
NMSTR	84	144	1
NMSV_	84	144	1	96	48	4
NMHLD	84	192	1	72
NMSTR	84	336	5
NMSV_	84	336	5	96	48	0
NMHLD	85	0	5	72
NMSTR	85	144	2
NMSV_	85	144	2	96	48	7
NMHLD	85	192	2	72
EXTAP	85	336	7
NMTAP	86	0	6
NMTAP	86	24	4
NMTAP	86	48	5
NMTAP	86	96	3
NMTAP	86	96	4
NMTAP	86	144	2
NMTAP	86	144	3
NMHLD	86	192	1	72
NMTAP	86	264	3
NMTAP	86	336	3
NMTAP	86	336	4
NMTAP	87	0	5
NMTAP	87	24	5
NMTAP	87	48	4
NMTAP	87	72	4
NMTAP	87	96	6
NMTAP	87	120	6
NMHLD	87	144	0	48
NMTAP	87	192	7
NMTAP	87	216	6
NMTAP	87	240	5
NMTAP	87	264	4
NMTAP	87	288	1
NMTAP	87	312	3
NMTAP	87	336	1
NMTAP	87	360	3
BRTAP	88	0	2
NMTAP	88	48	1
NMTAP	88	72	1
NMTAP	88	72	3
NMTAP	88	120	5
NMTAP	88	144	4
NMTAP	88	144	5
NMTAP	88	192	0
NMTAP	88	192	7
NMTAP	88	240	4
NMTAP	88	240	6
NMTAP	88	264	4
NMTAP	88	264	6
NMTAP	88	312	2
NMTAP	88	312	3
NMTAP	88	336	2
NMTAP	88	336	3
BRHLD	89	0	0	48
BRHLD	89	0	1	48
NMHLD	89	72	3	48
NMHLD	89	72	7	48
NMHLD	89	144	1	72
NMHLD	89	144	5	144

T_REC_TAP	558
T_REC_BRK	47
T_REC_XTP	38
T_REC_BXX	9
T_REC_HLD	81
T_REC_XHO	4
T_REC_BHO	2
T_REC_BXH	2
T_REC_STR	72
T_REC_BST	2
T_REC_XST	2
T_REC_XBS	0
T_REC_TTP	8
T_REC_THO	0
T_REC_SLD	77
T_REC_BSL	2
T_REC_ALL	904
T_NUM_TAP	678
T_NUM_BRK	64
T_NUM_HLD	85
T_NUM_SLD	77
T_NUM_ALL	904
T_JUDGE_TAP	736
T_JUDGE_HLD	163
T_JUDGE_SLD	79
T_JUDGE_ALL	978
TTM_EACHPAIRS	195
TTM_SCR_TAP	339000
TTM_SCR_BRK	166400
TTM_SCR_HLD	85000
TTM_SCR_SLD	115500
TTM_SCR_ALL	705900
TTM_SCR_S	678550
TTM_SCR_SS	699500
TTM_RAT_ACV	10091

