VERSION	0.00.00	1.04.00
FES_MODE	0
BPM_DEF	153.000	153.000	153.000	153.000
MET_DEF	4	4
RESOLUTION	384
CLK_DEF	384
COMPATIBLE_CODE	MA2

BPM	0	0	153.000
MET	0	0	4	4

NMTAP	2	0	0
NMTAP	2	0	7
NMTAP	2	96	0
NMTAP	2	96	7
NMTAP	2	192	2
NMTAP	2	192	4
NMTAP	2	264	2
NMTAP	2	264	4
NMTAP	2	336	2
NMTAP	2	336	4
NMTAP	3	0	3
NMTAP	3	0	5
NMTAP	3	72	3
NMTAP	3	72	5
NMTAP	3	144	3
NMTAP	3	144	5
NMTAP	3	192	2
NMTAP	3	192	4
NMTAP	3	240	0
NMTAP	3	240	6
EXTAP	3	288	1
EXTAP	3	288	5
EXTAP	4	0	2
NMTAP	4	48	2
NMTAP	4	96	3
NMTAP	4	144	1
NMHLD	4	192	1	72
NMHLD	4	264	2	72
NMTAP	4	336	3
NMHLD	5	0	6	72
NMHLD	5	72	5	72
NMTAP	5	144	4
NMHLD	5	192	1	72
NMHLD	5	264	2	72
NMTAP	5	336	3
EXTAP	6	0	5
NMTAP	6	48	5
NMTAP	6	96	4
NMTAP	6	144	6
NMHLD	6	192	6	72
NMHLD	6	264	5	72
NMTAP	6	336	4
EXTAP	7	0	2
NMTAP	7	24	3
NMTAP	7	48	2
NMTAP	7	72	3
NMTAP	7	96	2
EXTAP	7	192	5
NMTAP	7	216	4
NMTAP	7	240	5
NMTAP	7	264	4
NMTAP	7	288	5
EXTAP	8	0	6
NMTAP	8	48	6
NMTAP	8	96	4
NMTAP	8	144	5
NMHLD	8	192	5	72
NMHLD	8	264	6	72
NMTAP	8	336	7
NMHLD	9	0	2	72
NMHLD	9	72	1	72
NMTAP	9	144	0
NMHLD	9	192	5	72
NMHLD	9	264	6	72
NMTAP	9	336	7
EXTAP	10	0	1
NMTAP	10	48	1
NMTAP	10	96	3
NMTAP	10	144	2
NMHLD	10	192	2	72
NMHLD	10	264	1	72
NMTAP	10	336	0
NMSTR	11	0	7
NMSI_	11	0	7	96	48	3
NMTAP	11	48	7
NMSTR	11	96	0
NMSI_	11	96	0	96	48	4
NMTAP	11	144	0
NMTAP	11	192	5
NMTAP	11	240	5
NMTAP	11	288	3
NMTAP	11	288	6
NMSTR	12	0	2
NMSCL	12	0	2	96	48	7
NMTAP	12	96	4
NMSTR	12	192	5
NMSCR	12	192	5	96	48	0
NMTAP	12	288	3
NMSTR	13	0	2
NMSCL	13	0	2	96	48	7
NMTAP	13	96	4
NMTAP	13	192	5
NMTAP	13	288	3
NMTAP	13	288	5
NMTAP	13	336	3
NMTAP	13	336	5
BRTAP	14	48	1
BRTAP	14	48	7
NMTAP	14	96	2
NMTAP	14	96	6
NMHLD	14	192	1	96
NMTAP	14	288	3
NMTAP	14	336	3
NMTAP	15	0	2
NMTAP	15	48	2
NMSTR	15	96	6
NMSCL	15	96	6	96	48	3
NMTAP	15	144	6
NMHLD	15	192	0	96
NMTAP	15	288	4
NMTAP	16	0	3
NMTAP	16	48	3
NMSTR	16	96	2
NMSLL	16	96	2	96	96	4
NMTAP	16	96	4
NMHLD	16	192	7	192
NMTAP	17	0	4
NMTAP	17	48	4
NMTAP	17	96	3
NMSTR	17	96	5
NMSLR	17	96	5	96	96	3
NMHLD	17	192	0	192
NMTAP	18	0	3
NMTAP	18	48	3
NMTAP	18	96	1
NMSTR	18	96	4
NMSI_	18	96	4	96	48	7
NMSTR	18	192	2
NMSI_	18	192	2	96	48	5
NMSTR	18	288	6
BRSI_	18	288	6	96	48	1
NMSTR	19	0	3
BRSI_	19	0	3	96	48	0
NMSTR	19	96	5
NMSI_	19	96	5	96	48	2
NMSTR	19	192	0
NMSI_	19	192	0	96	48	4
BXTAP	19	288	7
EXTAP	20	0	5
NMTAP	20	48	5
NMTAP	20	96	4
NMTAP	20	144	6
NMHLD	20	192	6	72
NMHLD	20	264	5	72
NMTAP	20	336	4
NMHLD	21	0	3	72
NMHLD	21	72	2	72
NMTAP	21	144	1
NMHLD	21	192	4	72
NMHLD	21	264	5	72
NMTAP	21	336	6
EXTAP	22	0	2
NMTAP	22	48	2
NMTAP	22	96	3
NMTAP	22	144	1
NMHLD	22	192	1	72
NMHLD	22	264	2	72
NMTAP	22	336	3
EXTAP	23	0	5
NMTAP	23	24	4
NMTAP	23	48	5
NMTAP	23	72	4
NMTAP	23	96	5
EXTAP	23	192	2
NMTAP	23	216	3
NMTAP	23	240	2
NMTAP	23	264	3
NMTAP	23	288	2
NMSTR	24	0	5
NMSCR	24	0	5	96	48	0
NMTAP	24	48	5
NMTAP	24	96	3
NMSTR	24	192	2
NMSCL	24	192	2	96	48	7
NMTAP	24	240	2
NMTAP	24	288	4
NMSTR	25	0	5
NMSCR	25	0	5	96	48	0
NMTAP	25	48	5
NMTAP	25	96	3
NMHLD	25	192	2	96
NMTAP	25	288	4
NMTAP	25	336	2
NMTAP	25	336	4
BRTAP	26	48	0
BRTAP	26	48	6
NMTAP	26	96	1
NMTAP	26	96	5
NMHLD	26	192	6	96
NMTAP	26	288	4
NMTAP	26	336	4
NMTAP	27	0	5
NMTAP	27	48	5
NMSTR	27	96	2
NMSCL	27	96	2	96	48	7
NMTAP	27	144	2
NMHLD	27	192	4	96
NMTAP	27	288	0
NMTAP	28	0	7
NMTAP	28	48	7
NMTAP	28	96	0
NMSTR	28	96	6
NMSLL	28	96	6	96	96	0
NMHLD	28	192	2	192
NMTAP	29	0	0
NMTAP	29	48	0
NMSTR	29	96	1
NMSLR	29	96	1	96	96	7
NMTAP	29	96	7
NMHLD	29	192	4	192
NMTAP	30	0	7
NMTAP	30	48	7
NMTAP	30	96	0
NMTAP	30	96	6
NMTAP	30	192	1
NMTAP	30	192	3
NMTAP	30	288	1
NMTAP	30	288	3
NMHLD	31	0	4	48
NMHLD	31	0	6	48
NMHLD	31	96	1	48
NMHLD	31	96	3	48
NMTAP	31	192	4
NMTAP	31	192	6
BXTAP	31	288	3
BXTAP	31	288	5
NMTAP	32	0	2
NMTAP	32	32	3
NMTAP	32	64	2
NMTAP	32	96	3
NMTAP	32	192	5
NMTAP	32	224	4
NMTAP	32	256	5
NMTAP	32	288	4
NMTAP	33	0	2
NMTAP	33	32	3
NMTAP	33	64	2
NMTAP	33	96	3
NMTAP	33	128	2
NMTAP	33	160	3
NMHLD	33	192	1	96
BRTAP	33	288	0
NMTAP	34	0	5
NMTAP	34	32	4
NMTAP	34	64	5
NMTAP	34	96	4
NMTAP	34	192	2
NMTAP	34	224	3
NMTAP	34	256	2
NMTAP	34	288	3
NMTAP	35	0	5
NMTAP	35	32	4
NMTAP	35	64	5
NMTAP	35	96	4
NMTAP	35	128	5
NMTAP	35	160	4
NMHLD	35	192	6	96
BRTAP	35	288	7
NMTAP	36	0	1
NMTAP	36	32	3
NMTAP	36	64	1
NMTAP	36	96	3
NMTAP	36	192	6
NMTAP	36	224	4
NMTAP	36	256	6
NMTAP	36	288	4
NMTAP	37	0	1
NMTAP	37	32	3
NMTAP	37	64	1
NMTAP	37	96	3
NMTAP	37	128	1
NMTAP	37	160	3
NMHLD	37	192	0	96
BRTAP	37	288	7
NMTAP	38	0	3
NMTAP	38	0	6
NMTAP	38	48	2
NMTAP	38	96	1
NMTAP	38	96	5
NMTAP	38	144	6
NMTAP	38	192	0
NMTAP	38	192	7
NMTAP	38	264	2
NMTAP	38	264	5
NMTAP	38	336	1
NMTAP	38	336	6
NMHLD	39	0	1	144
NMHLD	39	0	6	144
BXTAP	39	216	0
BXTAP	39	216	7
BXTAP	39	288	0
BXTAP	39	288	7
NMSTR	40	0	6
NMSI_	40	0	6	96	48	3
NMTAP	40	48	6
NMSTR	40	96	2
NMSI_	40	96	2	96	48	7
NMTAP	40	144	2
NMSTR	40	192	6
NMSI_	40	192	6	96	48	3
NMTAP	40	240	6
NMSTR	40	288	0
BRSI_	40	288	0	96	48	3
BRSCR	40	288	0	96	48	3
EXSTR	41	96	0
BRSUL	41	96	0	96	96	4
EXSTR	41	96	6
BRSI_	41	96	6	96	96	1
NMSTR	42	0	6
NMSCL	42	0	6	96	48	3
NMSTR	42	0	7
NMSCR	42	0	7	96	48	2
NMTAP	42	48	6
NMTAP	42	48	7
NMSTR	42	192	0
NMSCL	42	192	0	96	48	5
NMSTR	42	192	1
NMSCR	42	192	1	96	48	4
NMTAP	42	240	0
NMTAP	42	240	1
NMTAP	43	0	6
NMTAP	43	0	7
NMTAP	43	72	0
NMTAP	43	72	5
NMTAP	43	144	1
NMTAP	43	144	4
NMTAP	43	192	5
NMTAP	43	240	3
NMTAP	43	240	6
NMTAP	43	288	3
NMTAP	43	288	6
NMSTR	44	0	1
NMSI_	44	0	1	96	48	4
NMTAP	44	48	1
NMSTR	44	96	5
NMSI_	44	96	5	96	48	0
NMTAP	44	144	5
NMTAP	44	192	1
NMTAP	44	240	1
NMSTR	44	288	0
BRSI_	44	288	0	96	48	3
BRSCR	44	288	0	96	48	3
NMSTR	45	96	7
BRSI_	45	96	7	96	72	4
BRSUR	45	96	7	96	72	4
NMTAP	46	0	3
NMTAP	46	48	2
NMTAP	46	48	4
NMSTR	46	96	1
NMSCL	46	96	1	96	96	6
NMSTR	46	96	5
NMSCL	46	96	5	96	96	2
NMTAP	47	0	0
NMTAP	47	0	7
NMTAP	47	48	0
NMTAP	47	48	7
NMSTR	47	96	0
NMSCR	47	96	0	96	48	3
NMSTR	47	96	7
NMSCL	47	96	7	96	48	4
EXTAP	47	192	0
EXTAP	47	192	7
NMTAP	48	0	3
NMTAP	48	0	6
NMTAP	48	96	4
NMTAP	48	96	5
NMTAP	48	192	3
NMTAP	48	192	6
NMTAP	48	264	2
NMTAP	48	264	5
NMTAP	48	336	1
NMTAP	48	336	4
NMTAP	49	0	1
NMTAP	49	0	4
NMTAP	49	96	2
NMTAP	49	96	3
NMTAP	49	192	1
NMTAP	49	192	4
NMTAP	49	264	2
NMTAP	49	264	5
NMTAP	49	336	3
NMTAP	49	336	6
NMTAP	50	0	3
NMTAP	50	0	6
NMTAP	50	96	4
NMTAP	50	96	5
NMTAP	50	192	3
NMTAP	50	192	6
NMTAP	50	264	2
NMTAP	50	264	5
NMTAP	50	336	1
NMTAP	50	336	4
NMSTR	51	0	1
NMSI_	51	0	1	96	48	5
NMTAP	51	0	4
NMHLD	51	96	6	96
NMTAP	51	192	7
NMTAP	51	240	7
NMTAP	51	288	0
NMTAP	51	288	5
NMTAP	52	0	2
NMTAP	52	0	7
NMTAP	52	96	4
NMTAP	52	96	5
NMTAP	52	192	2
NMTAP	52	192	7
NMTAP	52	264	1
NMTAP	52	264	6
NMTAP	52	336	0
NMTAP	52	336	5
NMTAP	53	0	0
NMTAP	53	0	5
NMTAP	53	96	2
NMTAP	53	96	3
NMTAP	53	192	0
NMTAP	53	192	5
NMTAP	53	264	1
NMTAP	53	264	6
NMTAP	53	336	2
NMTAP	53	336	7
NMTAP	54	0	2
NMTAP	54	0	7
NMTAP	54	96	4
NMTAP	54	96	5
NMTAP	54	192	2
NMTAP	54	192	7
NMTAP	54	264	1
NMTAP	54	264	6
NMTAP	54	336	0
NMTAP	54	336	5
NMTAP	55	0	0
NMSTR	55	0	5
NMSI_	55	0	5	96	48	1
NMTAP	55	96	2
NMTAP	55	192	3
NMTAP	55	240	3
NMTAP	55	288	2
NMSTR	55	288	4
NMSCR	55	288	4	96	192	3
NMTTP	56	0	0	C	1	M1
NMTAP	56	336	2
NMTAP	56	336	3
NMTAP	57	0	2
NMTAP	57	0	3
NMSTR	57	96	0
NMSI_	57	96	0	96	48	4
NMSTR	57	96	1
NMSI_	57	96	1	96	48	3
NMTAP	57	192	0
NMTAP	57	192	1
NMTAP	57	336	4
NMTAP	57	336	5
NMTAP	58	0	4
NMTAP	58	0	5
NMSTR	58	96	6
NMSI_	58	96	6	96	48	4
NMSTR	58	96	7
NMSI_	58	96	7	96	48	3
NMTAP	58	192	6
NMTAP	58	192	7
NMHLD	58	288	2	96
NMSTR	59	0	3
NMSI_	59	0	3	96	48	7
NMSTR	59	192	4
NMSI_	59	192	4	96	48	0
NMSTR	59	192	5
NMSI_	59	192	5	96	48	1
NMTAP	60	0	2
NMTAP	60	0	7
NMTAP	60	72	3
NMTAP	60	72	6
NMTAP	60	144	4
NMTAP	60	144	5
NMTAP	60	192	4
NMTAP	60	192	5
BRTAP	60	288	2
BRTAP	60	288	3
NMHLD	61	0	0	96
NMHLD	61	0	1	96
NMHLD	61	192	0	96
NMHLD	61	192	7	96
NMTAP	62	0	6
NMSTR	62	0	7
NMSI_	62	0	7	96	72	1
CNSI_	62	168	1	0	72	5
CNSI_	62	240	5	0	48	3
NMSTR	63	0	0
NMSUR	63	0	0	96	48	5
NMSTR	63	0	1
NMSCR	63	0	1	96	48	4
NMSTR	63	192	6
NMSCL	63	192	6	96	48	3
NMSTR	63	192	7
NMSUL	63	192	7	96	48	2
NMTAP	64	0	0
NMTAP	64	0	1
NMTAP	64	72	2
NMTAP	64	72	7
NMTAP	64	144	3
NMTAP	64	144	6
NMTAP	64	192	2
NMTAP	64	240	1
NMTAP	64	240	4
NMTAP	64	288	1
NMTAP	64	288	4
NMSTR	65	0	6
NMSI_	65	0	6	96	48	3
NMTAP	65	48	6
NMSTR	65	96	2
NMSI_	65	96	2	96	48	7
NMTAP	65	144	2
NMTAP	65	192	4
NMTAP	65	240	4
NMSTR	65	288	3
BRSI_	65	288	3	96	48	0
BRSCL	65	288	3	96	48	0
NMSTR	66	96	4
BRSI_	66	96	4	96	72	7
BRSUL	66	96	4	96	72	7
NMTAP	67	0	7
NMTAP	67	48	7
NMTAP	67	96	0
NMTAP	67	96	6
NMTAP	67	144	0
NMTAP	67	144	6
NMTAP	67	192	1
NMTAP	67	192	5
NMTAP	67	240	1
NMTAP	67	240	5
NMTAP	67	288	4
NMTAP	67	336	3
NMSTR	68	0	2
NMSXR	68	0	2	96	192	4
NMSTR	68	0	5
NMSXL	68	0	5	96	192	3
NMTAP	68	48	2
NMTAP	68	48	5
NMSTR	69	0	0
NMSCR	69	0	0	96	96	4
NMSTR	69	96	4
NMSCR	69	96	4	96	96	0
NMSTR	69	192	0
NMSCR	69	192	0	96	96	4
NMSTR	69	288	4
NMSCR	69	288	4	96	96	0
NMSTR	70	0	0
NMSCR	70	0	0	96	96	4
NMSTR	70	96	4
NMSCR	70	96	4	96	96	0
NMTAP	70	192	0
NMTAP	70	288	4
NMTAP	71	0	5
NMTAP	71	48	4
NMTAP	71	48	6
NMTAP	71	96	4
NMTAP	71	96	6
NMTAP	71	192	2
NMTAP	71	240	1
NMTAP	71	240	3
NMSTR	71	288	1
NMSI_	71	288	1	96	48	6
NMTAP	71	288	3
NMTAP	72	0	4
NMSTR	72	96	5
NMSI_	72	96	5	96	48	2
NMTAP	72	192	0
BXTAP	72	288	0
NMSTR	73	0	7
NMSCL	73	0	7	96	96	3
NMSTR	73	96	3
NMSCL	73	96	3	96	96	7
NMSTR	73	192	7
NMSCL	73	192	7	96	96	3
NMSTR	73	288	3
NMSCL	73	288	3	96	96	7
NMSTR	74	0	7
NMSCL	74	0	7	96	96	3
NMSTR	74	96	3
NMSCL	74	96	3	96	96	7
NMTAP	74	192	7
NMTAP	74	288	3
NMTAP	75	0	2
NMTAP	75	48	1
NMTAP	75	48	3
NMTAP	75	96	1
NMTAP	75	96	3
NMTAP	75	192	5
NMTAP	75	240	4
NMTAP	75	240	6
NMTAP	75	288	4
NMTAP	75	288	6
NMTAP	76	0	2
NMTAP	76	0	4
NMTAP	76	48	2
NMTAP	76	48	4
NMSTR	76	96	1
NMSI_	76	96	1	96	48	5
NMTAP	76	96	5
NMTAP	76	192	1
NMHLD	76	192	6	96
BRTAP	76	288	7
NMTAP	77	0	6
NMTAP	77	48	4
NMTAP	77	48	5
NMTAP	77	96	4
NMTAP	77	96	5
NMTAP	77	192	1
NMTAP	77	240	2
NMTAP	77	240	3
NMTAP	77	288	2
NMTAP	77	288	3
NMTAP	78	0	3
NMTAP	78	0	5
NMTAP	78	48	3
NMTAP	78	48	5
NMTAP	78	96	2
NMSTR	78	96	6
NMSI_	78	96	6	96	48	2
NMHLD	78	192	1	96
NMTAP	78	192	6
BRSTR	78	288	0
NMSI_	78	288	0	96	48	4
NMSTR	79	0	2
NMSI_	79	0	2	96	48	5
NMSTR	79	96	6
NMSI_	79	96	6	96	48	1
NMHLD	79	192	2	96
NMTTP	79	288	2	B	0	M1
NMTTP	79	288	3	B	0	M1
NMTTP	79	288	3	E	0	M1
NMTAP	80	0	5
NMTAP	80	48	5
NMTAP	80	96	4
NMTAP	80	144	7
NMHLD	80	192	7	72
NMHLD	80	264	5	72
NMTAP	80	336	4
NMHLD	81	0	0	72
NMHLD	81	72	2	72
NMTAP	81	144	3
NMHLD	81	192	7	72
NMHLD	81	264	5	72
NMTAP	81	336	4
NMTAP	82	0	2
NMTAP	82	48	2
NMTAP	82	96	3
NMTAP	82	144	0
NMHLD	82	192	0	72
NMHLD	82	264	2	72
NMTAP	82	336	3
NMTAP	83	0	6
NMTAP	83	24	4
NMTAP	83	48	6
NMTAP	83	72	4
NMTAP	83	96	5
NMTAP	83	192	1
NMTAP	83	216	3
NMTAP	83	240	1
NMTAP	83	264	3
NMTAP	83	288	2
NMTAP	84	0	1
NMTAP	84	48	1
NMTAP	84	96	3
NMTAP	84	144	2
NMHLD	84	192	2	72
NMHLD	84	264	0	72
NMTAP	84	336	7
NMHLD	85	0	5	72
NMHLD	85	72	7	72
NMTAP	85	144	0
NMHLD	85	192	2	72
NMHLD	85	264	0	72
NMTAP	85	336	7
NMTAP	86	0	6
NMTAP	86	48	6
NMTAP	86	96	4
NMTAP	86	144	5
NMHLD	86	192	5	72
NMHLD	86	264	7	72
NMTAP	86	336	0
NMSTR	87	0	1
NMSI_	87	0	1	96	48	5
NMTAP	87	48	1
NMSTR	87	96	6
NMSI_	87	96	6	96	48	2
NMTAP	87	144	6
NMTAP	87	192	0
NMTAP	87	240	0
NMTAP	87	288	1
NMTAP	87	288	4
NMTAP	88	0	3
NMTAP	88	0	6
NMTAP	88	48	5
NMTAP	88	72	4
NMTAP	88	96	5
NMTAP	88	192	1
NMTAP	88	192	4
NMTAP	88	240	2
NMTAP	88	264	3
NMTAP	88	288	2
NMTTP	89	0	5	B	0	M1
NMTTP	89	0	5	A	0	M1
NMTTP	89	0	6	E	0	M1
NMTTP	89	72	2	B	0	M1
NMTTP	89	72	2	E	0	M1
NMTTP	89	72	2	A	0	M1
NMTTP	89	144	3	B	0	M1
NMTTP	89	144	4	B	0	M1
NMTTP	89	144	4	E	0	M1
NMTTP	89	216	1	E	0	M1
NMTTP	89	288	7	E	0	M1

T_REC_TAP	430
T_REC_BRK	10
T_REC_XTP	14
T_REC_BXX	8
T_REC_HLD	67
T_REC_XHO	0
T_REC_BHO	0
T_REC_BXH	0
T_REC_STR	77
T_REC_BST	1
T_REC_XST	2
T_REC_XBS	0
T_REC_TTP	15
T_REC_THO	0
T_REC_SLD	71
T_REC_BSL	14
T_REC_ALL	709
T_NUM_TAP	538
T_NUM_BRK	33
T_NUM_HLD	67
T_NUM_SLD	71
T_NUM_ALL	709
T_JUDGE_TAP	557
T_JUDGE_HLD	140
T_JUDGE_SLD	85
T_JUDGE_ALL	782
TTM_EACHPAIRS	142
TTM_SCR_TAP	269000
TTM_SCR_BRK	85800
TTM_SCR_HLD	67000
TTM_SCR_SLD	106500
TTM_SCR_ALL	528300
TTM_SCR_S	509250
TTM_SCR_SS	525000
TTM_RAT_ACV	10062

