VERSION	0.00.00	1.04.00
FES_MODE	0
BPM_DEF	153.000	153.000	153.000	153.000
MET_DEF	4	4
RESOLUTION	384
CLK_DEF	384
COMPATIBLE_CODE	MA2

BPM	0	0	153.000
MET	0	0	4	4

EXTAP	2	0	3
EXTAP	2	0	4
EXTAP	2	96	3
EXTAP	2	96	4
EXHLD	2	192	1	72
EXHLD	2	264	2	72
EXTAP	2	336	3
EXHLD	3	0	6	72
EXHLD	3	72	5	72
EXTAP	3	144	4
EXSTR	3	192	4
BRSI_	3	192	4	96	48	0
EXTAP	4	0	1
NMTAP	4	96	2
NMTAP	4	96	3
NMTAP	4	192	5
NMTAP	4	288	4
NMTAP	4	288	5
NMTAP	5	0	3
NMTAP	5	96	3
NMTAP	5	96	4
NMTAP	5	192	5
NMTAP	5	288	4
NMTAP	5	288	6
NMTAP	6	0	7
NMTAP	6	96	4
NMTAP	6	96	5
NMTAP	6	192	2
NMTAP	6	288	2
NMTAP	6	288	3
NMSTR	7	0	4
NMSCR	7	0	4	96	48	7
NMSTR	7	192	0
NMSCR	7	192	0	96	48	3
EXTAP	8	0	6
NMTAP	8	96	4
NMTAP	8	96	5
NMTAP	8	192	2
NMTAP	8	288	2
NMTAP	8	288	3
NMTAP	9	0	4
NMTAP	9	96	3
NMTAP	9	96	4
NMTAP	9	192	2
NMTAP	9	288	1
NMTAP	9	288	3
NMTAP	10	0	0
NMTAP	10	96	2
NMTAP	10	96	3
NMTAP	10	192	5
NMTAP	10	288	4
NMTAP	10	288	5
NMSTR	11	0	3
NMSI_	11	0	3	96	48	7
NMSTR	11	192	0
NMSI_	11	192	0	96	48	2
NMSTR	11	192	6
NMSI_	11	192	6	96	48	4
NMTAP	12	0	3
NMTAP	12	96	3
NMTAP	12	192	4
NMHLD	12	192	5	96
NMTAP	12	288	2
NMTAP	13	0	4
NMHLD	13	0	5	96
NMTAP	13	96	1
NMTAP	13	192	4
NMHLD	13	192	5	96
NMSTR	13	288	0
BRSI_	13	288	0	96	48	4
EXTAP	14	96	6
NMTAP	14	192	4
NMTAP	14	288	3
NMTAP	14	288	5
NMTAP	15	0	6
NMTAP	15	0	7
NMSTR	15	96	6
NMSCL	15	96	6	96	72	3
NMSTR	15	96	7
NMSCR	15	96	7	96	72	2
NMHLD	16	0	0	96
NMHLD	16	0	5	96
NMTTP	16	192	1	A	0	M1
NMTTP	16	192	3	E	0	M1
NMTTP	16	288	4	A	0	M1
NMTTP	16	288	5	A	0	M1
NMHLD	17	0	2	96
NMHLD	17	0	7	96
NMTTP	17	192	5	E	0	M1
NMTTP	17	192	6	A	0	M1
NMTTP	17	288	2	A	0	M1
NMTTP	17	288	3	A	0	M1
NMTAP	18	0	0
NMTAP	18	0	5
NMSTR	18	96	2
NMSI_	18	96	2	96	48	5
NMTAP	18	96	7
NMTAP	18	288	6
EXTAP	19	0	5
EXTAP	19	0	7
EXTAP	19	96	0
EXTAP	19	96	2
NMTAP	19	192	7
NMTAP	19	240	7
BRTAP	19	288	0
NMTAP	20	0	4
NMTAP	20	0	6
NMTAP	20	96	2
NMTAP	20	96	3
NMHLD	20	192	5	96
NMTAP	20	288	4
NMHLD	21	0	3	96
NMTAP	21	96	4
NMTAP	21	192	5
NMTAP	21	288	4
NMTAP	21	288	6
NMTAP	22	0	7
NMTAP	22	96	4
NMTAP	22	96	5
NMHLD	22	192	2	96
NMTAP	22	288	3
NMSTR	23	0	4
NMSCR	23	0	4	96	48	7
NMSTR	23	192	0
NMSCR	23	192	0	96	48	3
NMTAP	24	0	4
NMTAP	24	96	4
NMHLD	24	192	2	96
NMTAP	24	192	3
NMTAP	24	288	5
NMHLD	25	0	2	96
NMTAP	25	0	3
NMTAP	25	96	6
NMHLD	25	192	2	96
NMTAP	25	192	3
NMSTR	25	288	7
BRSI_	25	288	7	96	48	3
EXTAP	26	96	1
NMTAP	26	192	3
NMTAP	26	288	2
NMTAP	26	288	4
NMTAP	27	0	0
NMTAP	27	0	1
NMSTR	27	96	0
NMSCL	27	96	0	96	72	5
NMSTR	27	96	1
NMSCR	27	96	1	96	72	4
NMHLD	28	0	2	96
NMHLD	28	0	7	96
NMTTP	28	192	5	E	0	M1
NMTTP	28	192	6	A	0	M1
NMTTP	28	288	2	A	0	M1
NMTTP	28	288	3	A	0	M1
NMHLD	29	0	0	96
NMHLD	29	0	5	96
NMTTP	29	192	1	A	0	M1
NMTTP	29	192	3	E	0	M1
NMTTP	29	288	4	A	0	M1
NMTTP	29	288	5	A	0	M1
NMTAP	30	0	2
NMTAP	30	0	7
NMTAP	30	96	0
NMSTR	30	96	5
NMSI_	30	96	5	96	48	2
NMTAP	30	288	1
NMTAP	31	0	0
NMTAP	31	0	2
NMTAP	31	96	5
NMTAP	31	96	7
NMSTR	31	192	1
NMSI_	31	192	1	96	48	4
NMSTR	31	192	6
NMSI_	31	192	6	96	48	3
BXTAP	32	0	0
BXTAP	32	0	7
NMHLD	32	192	4	96
NMHLD	32	192	5	96
NMTAP	33	0	2
NMTAP	33	0	3
NMTAP	33	96	1
NMTAP	33	96	2
NMSTR	33	192	0
NMSI_	33	192	0	96	48	6
NMTAP	33	192	1
NMHLD	34	0	4	96
NMHLD	34	0	5	96
NMHLD	34	192	1	96
NMHLD	34	192	3	96
NMTAP	35	0	4
NMTAP	35	0	5
NMTAP	35	96	5
NMTAP	35	96	6
NMTAP	35	192	6
NMSTR	35	192	7
NMSI_	35	192	7	96	48	1
NMHLD	36	0	2	96
NMHLD	36	0	3	96
NMHLD	36	192	4	96
NMHLD	36	192	6	96
NMTAP	37	0	2
NMTAP	37	0	3
NMTAP	37	96	1
NMTAP	37	96	2
NMSTR	37	192	0
NMSI_	37	192	0	96	48	4
NMTAP	37	192	1
NMTAP	38	0	3
NMTAP	38	96	4
NMTAP	38	96	5
NMTAP	38	192	1
NMTAP	38	192	7
NMSTR	38	288	2
NMSCL	38	288	2	96	216	4
NMTAP	38	288	3
BRTAP	39	288	0
BRTAP	39	288	6
EXTAP	40	0	7
EXTAP	40	48	7
EXTAP	40	96	7
EXTAP	40	144	7
NMHLD	40	192	0	48
NMHLD	40	192	6	48
NMHLD	40	288	1	48
NMHLD	40	288	5	48
NMSTR	41	0	2
NMSV_	41	0	2	96	48	7
NMSTR	41	0	4
NMSV_	41	0	4	96	48	7
NMSTR	41	192	0
NMSCR	41	192	0	96	48	3
NMSTR	41	192	6
NMSCL	41	192	6	96	48	3
NMHLD	42	0	2	48
NMHLD	42	0	4	48
NMHLD	42	96	1	48
NMHLD	42	96	5	48
NMTAP	42	192	6
NMTAP	42	240	6
NMTAP	42	288	7
NMHLD	43	0	0	72
NMHLD	43	72	2	72
NMTAP	43	144	3
NMTAP	43	240	1
NMTAP	43	240	7
BRTAP	43	288	1
BRTAP	43	288	7
EXTAP	44	0	0
EXTAP	44	48	0
EXTAP	44	96	0
EXTAP	44	144	0
NMHLD	44	192	1	48
NMHLD	44	192	7	48
NMHLD	44	288	2	48
NMHLD	44	288	6	48
NMSTR	45	0	3
NMSI_	45	0	3	96	48	7
NMSTR	45	0	5
NMSI_	45	0	5	96	48	7
NMSTR	45	192	0
NMSI_	45	192	0	96	48	2
NMSI_	45	192	0	96	48	4
NMHLD	46	0	3	48
NMHLD	46	0	5	48
NMHLD	46	96	6	48
NMHLD	46	96	7	48
NMHLD	46	192	0	48
NMHLD	46	192	1	48
EXTAP	46	288	2
EXTAP	46	288	4
BRTAP	47	0	3
BRTAP	47	0	7
BRTAP	47	96	3
BRTAP	47	96	7
BRSTR	47	192	3
NMSI_	47	192	3	96	48	0
BRSTR	47	192	7
NMSI_	47	192	7	96	48	4
EXTAP	48	0	1
NMTAP	48	96	2
NMTAP	48	96	3
NMHLD	48	192	0	72
NMHLD	48	192	7	72
NMTAP	48	336	6
NMTAP	49	0	6
NMTAP	49	96	4
NMTAP	49	96	5
NMHLD	49	192	0	72
NMHLD	49	192	7	72
NMTAP	49	336	1
NMTAP	50	0	1
NMTAP	50	96	2
NMTAP	50	96	3
NMHLD	50	192	0	72
NMHLD	50	192	7	72
NMTAP	50	336	6
NMSTR	51	0	6
NMSI_	51	0	6	96	48	1
NMSTR	51	192	2
NMSI_	51	192	2	96	48	5
EXTAP	52	0	6
NMTAP	52	96	6
NMTAP	52	96	7
NMTAP	52	192	4
NMTAP	52	192	5
NMTAP	52	264	3
NMTAP	52	264	4
NMTAP	52	336	2
NMTAP	52	336	3
NMTAP	53	0	2
NMTAP	53	0	3
NMTAP	53	96	0
NMTAP	53	96	1
NMTAP	53	192	2
NMTAP	53	192	3
NMTAP	53	264	3
NMTAP	53	264	4
NMTAP	53	336	4
NMTAP	53	336	5
NMTAP	54	0	4
NMTAP	54	0	5
NMTAP	54	96	6
NMTAP	54	96	7
NMTAP	54	192	4
NMTAP	54	192	5
NMTAP	54	264	3
NMTAP	54	264	4
NMTAP	54	336	2
NMTAP	54	336	3
NMSTR	55	0	2
NMSCL	55	0	2	96	48	7
NMTAP	55	0	3
NMSTR	55	192	5
NMSCR	55	192	5	96	48	0
NMTHO	56	0	0	192	C	0	M1
NMTAP	57	0	6
NMTAP	57	48	6
NMTAP	57	96	4
NMTAP	57	96	5
NMTTP	57	192	0	B	0	M1
NMTTP	57	192	0	E	1	M1
NMTTP	57	192	7	B	0	M1
NMTAP	58	0	1
NMTAP	58	48	1
NMTAP	58	96	2
NMTAP	58	96	3
NMTTP	58	192	0	B	0	M1
NMTTP	58	192	0	E	1	M1
NMTTP	58	192	7	B	0	M1
NMTAP	59	0	3
NMTAP	59	0	4
NMTAP	59	48	3
NMTAP	59	48	4
NMTAP	59	96	3
NMTAP	59	96	4
NMSTR	59	192	1
NMSI_	59	192	1	96	48	5
NMTAP	59	192	6
EXHLD	60	0	7	72
EXHLD	60	72	5	72
EXHLD	60	144	3	72
EXHLD	60	216	1	72
EXTAP	60	288	7
BRHLD	61	0	5	96
BRHLD	61	0	6	96
BRHLD	61	192	1	96
BRHLD	61	192	2	96
NMSTR	62	0	0
NMSCR	62	0	0	96	48	3
NMSTR	62	0	6
NMSCL	62	0	6	96	48	3
EXHLD	62	192	7	192
BRTAP	63	0	0
NMTAP	63	48	0
NMTAP	63	96	6
NMTAP	63	144	6
NMTAP	63	192	2
NMTAP	63	240	2
NMTAP	63	288	3
NMHLD	64	0	7	72
NMHLD	64	72	5	72
NMTAP	64	144	4
NMTAP	64	240	1
NMTAP	64	240	7
BRTAP	64	288	1
BRTAP	64	288	7
EXTAP	65	0	0
EXTAP	65	48	0
EXTAP	65	96	0
EXTAP	65	144	0
NMHLD	65	192	1	48
NMHLD	65	192	7	48
NMHLD	65	288	2	48
NMHLD	65	288	6	48
NMSTR	66	0	3
NMSV_	66	0	3	96	48	0
NMSTR	66	0	5
NMSV_	66	0	5	96	48	0
NMSTR	66	192	1
NMSCR	66	192	1	96	48	4
NMSTR	66	192	7
NMSCL	66	192	7	96	48	4
EXHLD	67	0	0	48
EXHLD	67	0	1	48
EXHLD	67	96	6	48
EXHLD	67	96	7	48
NMTAP	67	192	5
NMTAP	67	240	5
EXTAP	67	288	4
NMTAP	68	0	3
NMTAP	68	0	7
NMTAP	68	48	3
NMTAP	68	48	7
NMSTR	68	96	3
NMSI_	68	96	3	96	48	0
NMSTR	68	96	7
NMSI_	68	96	7	96	48	4
BXTAP	68	288	1
BXTAP	68	288	5
NMTAP	69	0	2
NMTAP	69	0	3
NMTAP	69	96	4
NMTAP	69	96	5
NMHLD	69	192	6	96
NMHLD	69	192	7	96
NMTAP	70	0	6
NMTAP	70	0	7
NMTAP	70	96	4
NMTAP	70	96	5
NMTAP	70	192	2
NMSTR	70	192	3
NMSI_	70	192	3	96	48	7
NMTAP	71	0	1
NMTAP	71	48	1
NMTAP	71	96	0
NMTAP	71	96	2
NMTAP	71	192	6
NMTAP	71	240	6
NMTAP	71	288	5
NMTAP	71	288	7
NMSTR	72	0	0
NMSCR	72	0	0	96	48	3
NMSTR	72	192	6
NMSUL	72	192	6	96	48	2
NMTAP	73	0	0
NMTAP	73	96	2
NMTAP	73	96	3
NMHLD	73	192	0	96
NMHLD	73	192	1	96
NMTAP	74	0	0
NMTAP	74	0	1
NMTAP	74	96	2
NMTAP	74	96	3
NMSTR	74	192	4
NMSI_	74	192	4	96	48	0
NMTAP	74	192	5
NMTAP	75	0	6
NMTAP	75	48	6
NMTAP	75	96	5
NMTAP	75	96	7
NMTAP	75	192	1
NMTAP	75	240	1
NMTAP	75	288	0
NMTAP	75	288	2
NMTAP	76	0	1
NMTAP	76	0	5
NMTAP	76	48	1
NMTAP	76	48	5
NMTAP	76	96	1
NMTAP	76	96	5
NMTAP	76	192	0
NMSTR	76	192	6
BRSI_	76	192	6	96	48	2
NMTAP	77	0	1
NMTAP	77	48	1
NMTAP	77	96	0
NMTAP	77	96	2
NMTAP	77	192	6
NMTAP	77	240	6
NMTAP	77	288	5
NMTAP	77	288	7
NMTAP	78	0	2
NMTAP	78	0	6
NMTAP	78	48	2
NMTAP	78	48	6
NMTAP	78	96	2
NMTAP	78	96	6
NMSTR	78	192	1
NMSI_	78	192	1	96	48	5
NMTAP	78	192	7
BRTAP	79	0	4
BRTAP	79	0	6
BRTAP	79	96	1
BRTAP	79	96	3
BRSTR	79	192	4
NMSXL	79	192	4	96	120	4
NMSXR	79	192	4	96	120	4
EXTAP	80	96	3
EXTAP	80	96	5
NMTAP	80	192	2
NMTAP	80	288	2
NMTAP	80	288	3
NMTAP	81	0	5
NMTAP	81	96	4
NMTAP	81	96	5
NMTAP	81	192	2
NMTAP	81	288	1
NMTAP	81	288	3
NMTAP	82	0	0
NMTAP	82	96	2
NMTAP	82	96	3
NMTAP	82	192	5
NMTAP	82	288	4
NMTAP	82	288	6
NMSTR	83	0	3
NMSCL	83	0	3	96	48	0
NMSTR	83	192	7
NMSCL	83	192	7	96	48	4
NMTAP	84	0	1
NMTAP	84	96	2
NMTAP	84	96	3
NMTAP	84	192	4
NMTAP	84	288	3
NMTAP	84	288	5
NMTAP	85	0	2
NMTAP	85	96	2
NMTAP	85	96	3
NMTAP	85	192	5
NMTAP	85	288	4
NMTAP	85	288	6
NMTAP	86	0	7
NMTAP	86	96	4
NMTAP	86	96	5
NMTAP	86	192	2
NMTAP	86	288	1
NMTAP	86	288	3
NMSTR	87	0	4
NMSCR	87	0	4	96	48	7
NMSTR	87	192	0
NMSCR	87	192	0	96	48	3
EXTAP	88	0	4
EXTAP	88	0	5
EXTAP	88	96	1
EXTAP	88	96	3
NMHLD	88	192	7	72
NMHLD	88	264	6	72
NMTAP	88	336	5
NMHLD	89	0	1	72
NMHLD	89	72	2	72
NMTAP	89	144	3
NMTTP	89	216	6	E	0	M1
NMTTP	89	288	2	E	0	M1

T_REC_TAP	272
T_REC_BRK	16
T_REC_XTP	38
T_REC_BXX	4
T_REC_HLD	67
T_REC_XHO	13
T_REC_BHO	4
T_REC_BXH	0
T_REC_STR	51
T_REC_BST	3
T_REC_XST	1
T_REC_XBS	0
T_REC_TTP	24
T_REC_THO	1
T_REC_SLD	53
T_REC_BSL	4
T_REC_ALL	551
T_NUM_TAP	386
T_NUM_BRK	31
T_NUM_HLD	81
T_NUM_SLD	53
T_NUM_ALL	551
T_JUDGE_TAP	409
T_JUDGE_HLD	148
T_JUDGE_SLD	57
T_JUDGE_ALL	614
TTM_EACHPAIRS	164
TTM_SCR_TAP	193000
TTM_SCR_BRK	80600
TTM_SCR_HLD	81000
TTM_SCR_SLD	79500
TTM_SCR_ALL	434100
TTM_SCR_S	418100
TTM_SCR_SS	431000
TTM_RAT_ACV	10071

