VERSION	0.00.00	1.04.00
FES_MODE	0
BPM_DEF	203.000	203.000	203.000	135.000
MET_DEF	4	4
RESOLUTION	384
CLK_DEF	384
COMPATIBLE_CODE	MA2

BPM	0	0	203.000
BPM	106	192	135.000
MET	0	0	4	4
MET	105	0	4	6
MET	106	192	4	4

NMSTR	1	0	0
NMSI_	1	0	0	96	48	3
NMSTR	1	0	7
NMSI_	1	0	7	96	48	4
NMTAP	1	96	0
NMTAP	1	96	7
NMTAP	1	240	2
NMTAP	1	240	5
NMTAP	1	288	1
NMTAP	1	288	6
NMTAP	1	336	1
NMHLD	1	336	6	96
EXTAP	2	48	4
EXTAP	2	72	3
EXSTR	2	96	2
NMSI_	2	96	2	96	48	5
NMSTR	2	192	7
NMSV_	2	192	7	96	48	2
NMSV_	2	192	7	96	48	4
NMSTR	3	0	1
NMSI_	3	0	1	96	48	7
NMTAP	3	96	5
NMTAP	3	192	6
NMHLD	3	240	6	96
NMTAP	3	336	7
NMTAP	4	48	4
NMTAP	4	48	5
NMTAP	4	144	2
NMTAP	4	144	3
NMTAP	4	192	2
NMSTR	4	192	3
NMSI_	4	192	3	96	48	7
NMTAP	4	288	1
NMSTR	5	0	0
NMSI_	5	0	0	96	48	4
NMTAP	5	96	5
NMTAP	5	192	7
NMHLD	5	240	7	96
NMHLD	5	336	5	96
NMTAP	6	48	3
NMTAP	6	96	3
NMTAP	6	144	1
NMSTR	6	192	1
NMSI_	6	192	1	96	48	5
NMTAP	6	288	5
NMSTR	7	0	6
NMSI_	7	0	6	96	48	0
NMTAP	7	96	2
NMTAP	7	192	1
NMHLD	7	240	1	96
NMTAP	7	336	0
NMTAP	8	48	2
NMTAP	8	48	3
NMTAP	8	144	4
NMTAP	8	144	5
NMSTR	8	192	4
NMSI_	8	192	4	96	48	0
NMTAP	8	192	5
NMTAP	8	288	6
NMSTR	9	0	7
NMSI_	9	0	7	96	48	3
NMTAP	9	96	1
NMTAP	9	192	0
NMHLD	9	240	0	96
NMHLD	9	336	2	96
NMTAP	10	48	4
NMTAP	10	96	4
NMTAP	10	144	6
NMSTR	10	192	6
NMSI_	10	192	6	96	48	2
BRHLD	10	288	1	384
BRHLD	11	0	3	288
NMTAP	12	0	2
NMTAP	12	0	4
NMTAP	12	96	3
NMTAP	12	96	5
NMTAP	12	192	4
NMTAP	12	192	6
NMTAP	12	288	7
NMHLD	12	336	7	96
NMTAP	13	48	1
NMSTR	13	96	1
NMSI_	13	96	1	96	48	3
NMSTR	13	192	6
NMSI_	13	192	6	96	48	4
NMHLD	13	288	1	96
NMTAP	14	0	3
NMTAP	14	96	2
NMTAP	14	96	3
NMTAP	14	192	2
NMSTR	14	192	3
NMSLR	14	192	3	96	96	7
NMTAP	14	288	1
NMHLD	14	336	1	96
NMTAP	15	48	0
NMSTR	15	96	0
NMSI_	15	96	0	96	48	5
NMSTR	15	192	1
NMSI_	15	192	1	96	48	4
NMHLD	15	288	7	96
NMTAP	16	0	2
NMSTR	16	96	1
BRSV_	16	96	1	96	96	3
BRTAP	16	192	3
NMTAP	16	288	5
NMHLD	16	336	5	96
NMTAP	17	48	3
NMSTR	17	96	3
NMSCL	17	96	3	96	48	1
NMSTR	17	192	4
NMSCR	17	192	4	96	48	6
NMHLD	17	288	3	96
NMTAP	18	0	4
NMSTR	18	96	0
NMSCR	18	96	0	96	48	3
NMSTR	18	96	7
NMSI_	18	96	7	96	48	4
EXTAP	18	192	0
EXTAP	18	192	7
EXTAP	18	288	1
EXTAP	18	288	6
EXTAP	18	336	1
EXTAP	18	336	6
NMTAP	19	48	2
NMTAP	19	48	4
NMTAP	19	96	2
NMTAP	19	96	4
NMSTR	19	192	1
NMSI_	19	192	1	96	48	4
NMTAP	19	192	5
BRTAP	19	288	1
NMSTR	19	288	7
NMSCL	19	288	7	96	96	3
NMSTR	20	0	3
NMSCL	20	0	3	96	96	7
NMTAP	20	96	7
NMTAP	20	192	3
NMTAP	20	288	1
NMSTR	20	288	5
NMSV_	20	288	5	96	72	3
NMHLD	20	336	1	336
NMTAP	20	336	5
CNSLL	21	72	3	0	72	7
CNSI_	21	144	7	0	48	4
CNSI_	21	192	4	0	96	6
NMSTR	22	0	1
NMSI_	22	0	1	96	48	3
NMSTR	22	96	5
NMSI_	22	96	5	96	48	7
NMHLD	22	192	0	96
NMTAP	22	288	4
NMTAP	22	336	4
NMTAP	23	48	3
NMTAP	23	48	5
NMSTR	23	96	3
NMSI_	23	96	3	96	48	0
NMTAP	23	96	5
NMTAP	23	192	4
CNSCL	23	240	0	0	48	7
CNSI_	23	288	7	0	48	4
NMTTP	24	0	0	E	0	M1
NMTTP	24	96	1	B	0	M1
NMTTP	24	96	2	E	0	M1
NMTTP	24	96	4	B	0	M1
NMTTP	24	96	5	B	0	M1
NMSTR	24	192	6
NMSSL	24	192	6	96	192	2
NMTAP	24	288	3
NMTAP	24	336	3
EXTAP	25	48	0
EXSTR	25	96	0
NMSI_	25	96	0	96	48	3
NMHLD	25	192	7	96
NMTAP	25	288	4
BRSTR	26	0	3
NMSI_	26	0	3	96	48	0
BRSTR	26	96	4
NMSI_	26	96	4	96	48	7
BRSTR	26	192	2
NMSI_	26	192	2	96	48	0
BRTAP	26	288	5
NMSTR	26	336	5
NMSI_	26	336	5	96	48	7
NMTAP	27	48	0
NMTAP	27	96	0
BRSTR	27	192	1
NMSCL	27	192	1	96	96	6
NMTAP	27	288	4
NMSTR	28	0	5
NMSCL	28	0	5	96	96	2
NMTAP	28	96	0
NMSTR	28	192	1
NMSLL	28	192	1	96	96	5
NMHLD	28	288	3	96
CNSV_	29	0	5	0	96	2
NMTAP	29	144	5
NMSTR	29	192	6
NMSCR	29	192	6	96	96	1
NMTAP	29	288	3
NMSTR	30	0	2
NMSCR	30	0	2	96	96	5
NMTAP	30	96	7
NMSTR	30	192	6
BRSI_	30	192	6	96	48	1
NMTAP	30	288	4
NMHLD	30	336	4	96
NMTAP	31	48	7
NMSTR	31	96	7
NMSUL	31	96	7	96	48	3
NMSTR	31	192	2
NMSLL	31	192	2	96	144	3
NMSTR	32	0	6
NMSLL	32	0	6	96	144	7
NMTAP	32	192	1
NMTAP	32	288	2
NMTAP	32	336	2
NMTAP	33	48	3
NMTAP	33	48	6
NMTAP	33	96	5
NMTAP	33	120	4
NMTAP	33	144	5
NMTAP	33	192	2
NMTAP	33	216	3
NMTAP	33	240	2
NMSTR	33	288	1
NMSI_	33	288	1	96	48	4
NMSTR	34	0	5
NMSCR	34	0	5	96	48	0
NMHLD	34	96	1	96
NMTAP	34	192	3
NMSTR	34	288	2
NMSXL	34	288	2	96	288	5
NMHLD	34	336	2	336
NMHLD	36	0	3	96
NMHLD	36	0	6	96
NMHLD	36	192	1	96
NMHLD	36	192	4	96
NMHLD	37	0	4	48
NMHLD	37	0	6	48
NMHLD	37	96	1	48
NMHLD	37	96	3	48
NMSTR	37	192	3
NMSXR	37	192	3	96	96	3
NMTAP	37	192	5
NMSTR	37	288	3
NMSXL	37	288	3	96	96	3
BRTAP	37	288	4
EXTAP	38	0	7
EXTAP	38	96	7
NMSTR	38	192	7
NMSXR	38	192	7	96	96	7
NMTAP	38	288	0
NMSTR	38	288	7
NMSXL	38	288	7	96	96	7
EXTAP	39	0	3
EXTAP	39	96	3
NMTAP	39	192	4
NMSTR	39	288	2
NMSI_	39	288	2	96	48	0
NMSTR	39	288	6
NMSI_	39	288	6	96	48	4
NMSTR	40	0	2
NMSV_	40	0	2	96	48	7
NMSTR	40	0	6
NMSV_	40	0	6	96	48	3
NMTAP	40	192	0
NMTAP	40	192	4
NMTAP	40	288	2
NMSTR	40	288	6
NMSI_	40	288	6	96	48	2
NMSTR	41	0	0
NMSI_	41	0	0	96	48	4
NMTAP	41	0	6
NMTAP	41	96	0
NMTAP	41	96	3
NMTAP	41	240	1
NMTAP	41	240	5
NMTAP	41	288	1
NMTAP	41	288	5
NMSTR	42	0	0
NMSV_	42	0	0	96	48	3
NMSTR	42	0	6
NMSV_	42	0	6	96	48	3
BRTAP	42	96	0
BRTAP	42	96	6
NMTAP	42	192	2
NMTAP	42	192	4
NMTAP	42	288	3
NMTAP	42	288	5
NMSTR	43	0	4
NMSI_	43	0	4	96	48	7
NMSV_	43	0	4	96	48	1
NMTAP	43	192	0
NMSTR	43	288	7
NMSI_	43	288	7	96	48	4
NMSTR	44	0	1
NMSI_	44	0	1	96	48	3
NMTAP	44	0	7
NMTAP	44	96	1
NMSTR	44	96	6
NMSI_	44	96	6	96	48	4
NMSTR	44	192	0
NMSI_	44	192	0	96	48	3
NMTAP	44	192	6
NMTAP	44	288	0
NMSTR	44	288	7
NMSXR	44	288	7	96	144	7
NMTAP	45	0	2
NMTAP	45	96	2
NMTAP	45	192	1
NMSTR	45	288	0
NMSI_	45	288	0	96	48	2
NMSI_	45	288	0	96	48	3
NMSTR	46	0	0
NMSI_	46	0	0	96	48	5
NMSI_	46	0	0	96	48	6
NMSTR	46	96	0
NMSI_	46	96	0	96	48	2
NMSI_	46	96	0	96	48	3
NMSTR	46	192	0
NMSI_	46	192	0	96	48	5
NMSI_	46	192	0	96	48	6
EXTAP	47	0	3
EXTAP	47	24	2
EXTAP	47	48	1
EXTAP	47	72	0
EXTAP	47	96	7
NMHLD	47	192	3	48
NMHLD	47	192	5	48
NMHLD	47	288	1	48
NMHLD	47	288	3	48
NMSTR	48	0	0
NMSXL	48	0	0	96	48	2
NMSXR	48	0	0	96	48	6
NMTAP	48	192	4
NMTAP	48	288	3
NMTAP	48	288	5
NMTAP	48	336	3
NMTAP	48	336	5
NMTAP	49	48	1
NMTAP	49	48	7
NMSTR	49	96	1
NMSI_	49	96	1	96	48	5
NMTAP	49	96	7
NMTAP	49	192	0
NMTAP	49	192	1
NMSTR	49	288	7
NMSI_	49	288	7	96	48	4
NMSI_	49	288	7	96	48	5
NMSTR	50	0	7
NMSI_	50	0	7	96	48	1
NMSI_	50	0	7	96	48	2
NMSTR	50	96	7
NMSI_	50	96	7	96	48	4
NMSI_	50	96	7	96	48	5
NMSTR	50	192	7
NMSI_	50	192	7	96	48	1
NMSI_	50	192	7	96	48	2
EXTAP	51	0	4
EXTAP	51	24	5
EXTAP	51	48	6
EXTAP	51	72	7
EXTAP	51	96	0
NMHLD	51	192	2	48
NMHLD	51	192	4	48
NMHLD	51	288	4	48
NMHLD	51	288	6	48
NMSTR	52	0	7
NMSXL	52	0	7	96	48	1
NMSXR	52	0	7	96	48	5
NMTAP	52	192	3
NMTAP	52	288	2
NMTAP	52	288	4
NMTAP	52	336	2
NMTAP	52	336	4
NMTAP	53	48	0
NMTAP	53	48	6
NMTAP	53	96	0
NMSTR	53	96	6
NMSV_	53	96	6	96	48	3
NMSTR	53	192	2
NMSI_	53	192	2	96	48	7
NMTAP	53	192	6
NMTAP	53	288	2
NMTAP	53	288	4
NMTAP	54	0	1
NMTAP	54	0	5
NMTAP	54	48	1
NMTAP	54	48	5
NMTAP	54	96	1
NMTAP	54	96	5
NMTAP	54	144	1
NMTAP	54	144	5
NMTAP	54	192	0
NMTAP	54	192	4
NMTAP	54	240	0
NMTAP	54	240	4
NMTAP	54	288	0
NMTAP	54	288	4
NMTAP	54	336	0
NMSTR	54	336	4
NMSXL	54	336	4	96	144	7
NMTTP	55	48	1	E	0	M1
NMTTP	55	72	2	E	0	M1
NMTTP	55	96	3	E	0	M1
EXTAP	55	144	2
EXTAP	55	192	2
BRTAP	55	288	3
BRTAP	55	288	5
NMSTR	56	0	6
NMSI_	56	0	6	96	48	0
NMTAP	56	96	2
NMTAP	56	192	1
NMHLD	56	240	1	96
NMTAP	56	336	0
NMTAP	57	48	1
NMTAP	57	48	3
NMTAP	57	144	4
NMTAP	57	144	6
NMSTR	57	192	4
NMSUL	57	192	4	96	48	0
NMTAP	57	192	6
NMTAP	57	288	5
NMSTR	58	0	7
NMSUL	58	0	7	96	48	3
NMTAP	58	96	1
NMTAP	58	192	0
NMHLD	58	240	0	96
NMTAP	58	336	3
NMTTP	59	48	3	E	0	M1
NMTTP	59	72	4	E	0	M1
NMTTP	59	96	5	E	0	M1
EXTAP	59	144	6
EXSTR	59	192	6
NMSUL	59	192	6	96	48	2
NMTAP	59	288	2
NMSTR	60	0	1
NMSI_	60	0	1	96	48	7
NMTAP	60	96	5
NMTAP	60	192	6
NMHLD	60	240	6	96
NMTAP	60	336	7
NMTAP	61	48	4
NMTAP	61	48	6
NMTAP	61	144	1
NMTAP	61	144	3
NMTAP	61	192	1
NMSTR	61	192	3
NMSI_	61	192	3	96	48	7
NMTAP	61	288	2
NMSTR	62	0	0
NMSI_	62	0	0	96	48	4
NMTAP	62	96	6
NMTAP	62	192	7
NMHLD	62	240	7	96
NMTAP	62	336	4
NMTTP	63	48	5	E	0	M1
NMTTP	63	72	4	E	0	M1
NMTTP	63	96	3	E	0	M1
NMTAP	63	144	1
NMTAP	63	192	1
NMTAP	63	240	2
NMTAP	63	240	4
NMTAP	63	288	2
NMTAP	63	288	4
NMTTP	64	0	3	E	0	M1
NMTTP	64	0	6	E	1	M1
NMTTP	64	96	1	E	0	M1
NMTTP	64	96	4	B	0	M1
NMTTP	64	192	3	E	0	M1
NMTTP	64	192	7	B	0	M1
NMTTP	64	288	1	B	0	M1
NMTTP	64	288	5	E	0	M1
NMTTP	65	0	3	B	1	M1
NMTTP	65	0	7	E	0	M1
NMTTP	65	96	1	E	0	M1
NMTTP	65	96	5	B	0	M1
NMTTP	65	192	2	B	0	M1
NMTTP	65	192	6	B	0	M1
NMTTP	65	288	1	B	0	M1
NMTTP	65	288	5	E	0	M1
NMTTP	66	0	3	E	0	M1
NMTTP	66	0	6	E	1	M1
NMTTP	66	96	1	E	0	M1
NMTTP	66	96	4	B	0	M1
NMTTP	66	192	3	E	0	M1
NMTTP	66	192	7	B	0	M1
NMTTP	66	288	1	B	0	M1
NMTTP	66	288	5	E	0	M1
NMTTP	67	0	3	B	1	M1
NMTTP	67	0	7	E	0	M1
NMTTP	67	96	1	E	0	M1
NMTTP	67	96	5	B	0	M1
NMTTP	67	192	2	B	0	M1
NMTTP	67	192	6	B	0	M1
NMTTP	67	288	1	B	0	M1
NMTTP	67	288	5	E	0	M1
NMTTP	68	0	3	E	0	M1
NMTTP	68	0	3	A	0	M1
NMTTP	68	0	3	D	0	M1
NMTTP	68	0	6	E	0	M1
NMTTP	68	0	6	A	1	M1
NMTTP	68	0	6	D	0	M1
NMTTP	68	96	1	E	0	M1
NMTTP	68	96	1	A	0	M1
NMTTP	68	96	1	D	0	M1
NMTTP	68	96	4	A	0	M1
NMTTP	68	96	5	E	0	M1
NMTTP	68	96	5	D	0	M1
NMTTP	68	192	2	B	0	M1
NMTTP	68	192	3	B	0	M1
NMTTP	68	192	3	E	1	M1
NMTTP	68	192	7	B	0	M1
NMTTP	68	192	7	E	0	M1
NMTTP	68	192	7	A	0	M1
NMTTP	68	288	0	A	0	M1
NMTTP	68	288	1	E	0	M1
NMTTP	68	288	1	D	0	M1
NMTTP	68	288	6	E	0	M1
NMTTP	68	288	6	A	0	M1
NMTTP	68	288	6	D	0	M1
NMTTP	69	0	1	A	0	M1
NMTTP	69	0	2	E	0	M1
NMTTP	69	0	2	D	0	M1
NMTTP	69	0	4	B	0	M1
NMTTP	69	0	5	B	0	M1
NMTTP	69	0	5	E	1	M1
NMTTP	69	96	3	B	0	M1
NMTTP	69	96	3	E	0	M1
NMTTP	69	96	3	A	0	M1
NMTTP	69	96	7	B	0	M1
NMTTP	69	96	7	E	0	M1
NMTTP	69	96	7	A	0	M1
NMTTP	69	192	0	B	0	M1
NMTTP	69	192	1	B	0	M1
NMTTP	69	192	1	E	1	M1
NMTTP	69	192	4	E	0	M1
NMTTP	69	192	4	A	0	M1
NMTTP	69	192	4	D	0	M1
NMTTP	69	288	2	B	0	M1
NMTTP	69	288	2	E	0	M1
NMTTP	69	288	2	A	0	M1
NMTTP	69	288	5	B	0	M1
NMTTP	69	288	6	B	0	M1
NMTTP	69	288	6	E	0	M1
NMTTP	70	0	1	E	0	M1
NMTTP	70	0	1	A	0	M1
NMTTP	70	0	1	D	0	M1
NMTTP	70	0	5	E	0	M1
NMTTP	70	0	5	A	0	M1
NMTTP	70	0	5	D	1	M1
NMTTP	70	96	2	B	0	M1
NMTTP	70	96	3	B	0	M1
NMTTP	70	96	3	E	0	M1
NMTTP	70	96	7	B	0	M1
NMTTP	70	96	7	E	0	M1
NMTTP	70	96	7	A	0	M1
NMTTP	70	192	0	A	1	M1
NMTTP	70	192	1	E	0	M1
NMTTP	70	192	1	D	0	M1
NMTTP	70	192	6	E	0	M1
NMTTP	70	192	6	A	0	M1
NMTTP	70	192	6	D	0	M1
NMTTP	70	288	1	A	0	M1
NMTTP	70	288	2	E	0	M1
NMTTP	70	288	2	D	0	M1
NMTTP	70	288	4	B	0	M1
NMTTP	70	288	5	B	0	M1
NMTTP	70	288	5	E	0	M1
NMTTP	71	0	0	E	0	M1
NMTTP	71	0	0	D	0	M1
NMTTP	71	0	3	B	0	M1
NMTTP	71	0	3	E	0	M1
NMTTP	71	0	3	A	0	M1
NMTTP	71	0	3	D	0	M1
NMTTP	71	0	4	E	0	M1
NMTTP	71	0	4	D	0	M1
NMTTP	71	0	7	B	0	M1
NMTTP	71	0	7	E	1	M1
NMTTP	71	0	7	A	0	M1
NMTTP	71	0	7	D	0	M1
NMTTP	71	96	0	B	0	M1
NMTTP	71	96	0	A	0	M1
NMTTP	71	96	1	B	0	M1
NMTTP	71	96	1	E	0	M1
NMTTP	71	96	1	A	0	M1
NMTTP	71	96	1	D	0	M1
NMTTP	71	96	4	B	0	M1
NMTTP	71	96	4	A	0	M1
NMTTP	71	96	5	B	0	M1
NMTTP	71	96	5	E	0	M1
NMTTP	71	96	5	A	0	M1
NMTTP	71	96	5	D	0	M1
NMTTP	71	192	2	B	1	M1
NMTTP	71	192	2	E	0	M1
NMTTP	71	192	2	A	0	M1
NMTTP	71	192	2	D	0	M1
NMTTP	71	192	3	E	0	M1
NMTTP	71	192	3	D	0	M1
NMTTP	71	192	6	B	0	M1
NMTTP	71	192	6	E	0	M1
NMTTP	71	192	6	A	0	M1
NMTTP	71	192	6	D	0	M1
NMTTP	71	192	7	E	0	M1
NMTTP	71	192	7	D	0	M1
EXTAP	71	288	0
EXTAP	72	0	1
EXTAP	72	0	7
NMSTR	72	96	0
NMSCL	72	96	0	96	48	5
NMSCR	72	96	0	96	48	3
NMSTR	72	192	0
NMSSL	72	192	0	96	144	4
NMTAP	73	144	2
NMTAP	73	144	6
NMTAP	73	192	2
NMTAP	73	192	6
EXSTR	73	288	7
NMSI_	73	288	7	96	48	3
NMTAP	74	0	7
NMSTR	74	96	7
NMSCL	74	96	7	96	48	4
NMSCR	74	96	7	96	48	2
NMSTR	74	192	7
BRSSL	74	192	7	96	144	3
NMTAP	75	48	0
NMTAP	75	96	0
NMTAP	75	192	2
NMTAP	75	192	6
NMSTR	75	288	7
NMSI_	75	288	7	96	48	2
NMSI_	75	288	7	96	48	3
NMSTR	76	96	0
NMSI_	76	96	0	96	48	4
NMSI_	76	96	0	96	48	5
NMTAP	76	288	3
NMTAP	76	288	6
NMHLD	76	336	3	96
NMHLD	76	336	6	96
NMTAP	77	96	5
NMTAP	77	120	4
NMTAP	77	144	5
NMTAP	77	192	2
NMTAP	77	216	3
NMTAP	77	240	2
NMSTR	77	288	1
NMSI_	77	288	1	96	48	6
NMTAP	77	288	4
NMTAP	78	0	1
NMSTR	78	0	5
NMSI_	78	0	5	96	48	2
NMSTR	78	96	0
NMSI_	78	96	0	96	48	4
NMTAP	78	96	5
NMTAP	78	192	0
NMTAP	78	192	6
NMTAP	78	288	7
NMHLD	78	336	7	96
NMTAP	79	48	5
NMSTR	79	96	5
NMSCR	79	96	5	96	48	6
CNSSR	79	240	6	0	144	2
CNSCL	80	0	2	0	48	1
CNSSL	80	48	1	0	288	5
NMSTR	81	0	0
NMSCR	81	0	0	96	48	3
NMSTR	81	0	7
NMSCL	81	0	7	96	48	4
EXTAP	81	192	1
EXTAP	81	192	6
NMSTR	81	288	2
NMSCL	81	288	2	96	48	0
NMTAP	81	288	4
NMTAP	82	0	2
NMSTR	82	0	5
NMSCR	82	0	5	96	48	7
NMSTR	82	96	2
NMSI_	82	96	2	96	48	0
NMTAP	82	96	5
NMTAP	82	192	2
NMSTR	82	192	5
NMSI_	82	192	5	96	48	7
NMSTR	82	288	3
BRSF_	82	288	3	96	96	7
NMTAP	82	288	5
EXTAP	83	192	1
EXTAP	83	192	5
EXSTR	83	288	4
NMSI_	83	288	4	96	72	2
NMSCR	83	288	4	96	96	7
CNSCL	84	72	2	0	24	1
CNSV_	84	96	1	0	144	4
CNSV_	84	96	7	0	144	4
EXSTR	84	288	3
NMSCL	84	288	3	96	96	2
NMSCR	84	288	3	96	48	6
CNSV_	85	48	6	0	192	3
CNSI_	85	96	2	0	48	0
CNSV_	85	144	0	0	96	3
EXSTR	85	288	4
NMSI_	85	288	4	96	48	1
EXTAP	85	288	6
BXTAP	86	0	4
BXSTR	86	0	7
NMSI_	86	0	7	96	48	2
BXSTR	86	96	0
NMSI_	86	96	0	96	48	5
BXTAP	86	96	7
BXTAP	86	192	0
BXSTR	86	192	3
NMSI_	86	192	3	96	48	6
BXTAP	86	288	3
BXSTR	86	288	4
NMSV_	86	288	4	96	96	3
NMSV_	86	288	4	96	96	5
CNSI_	87	96	3	0	144	1
CNSCR	87	96	5	0	144	7
NMSTR	88	0	1
NMSV_	88	0	1	96	48	4
NMSTR	88	0	7
NMSV_	88	0	7	96	48	4
BRTAP	88	96	1
BRTAP	88	96	7
NMSTR	88	192	0
NMSI_	88	192	0	96	48	6
NMSTR	88	192	7
NMSI_	88	192	7	96	48	3
NMTAP	88	288	0
NMTAP	88	288	7
NMHLD	89	0	0	96
NMSTR	89	0	2
NMSUR	89	0	2	96	96	7
NMTAP	89	192	1
NMSTR	89	288	2
NMSI_	89	288	2	96	48	5
NMTAP	89	288	7
NMTAP	90	0	2
NMSTR	90	0	6
NMSI_	90	0	6	96	48	1
NMSTR	90	96	2
NMSI_	90	96	2	96	48	5
NMTAP	90	96	6
NMTAP	90	192	2
NMSTR	90	192	7
NMSXR	90	192	7	96	144	7
NMTAP	90	288	2
NMTAP	91	0	2
NMTAP	91	96	1
NMTAP	91	192	1
NMTAP	91	192	7
NMSTR	91	288	0
NMSI_	91	288	0	96	48	2
NMSI_	91	288	0	96	48	4
NMSTR	92	0	0
NMSI_	92	0	0	96	48	3
NMSI_	92	0	0	96	48	5
NMSTR	92	96	0
NMSI_	92	96	0	96	48	4
NMSI_	92	96	0	96	48	6
NMTTP	92	288	1	E	0	M1
NMTTP	92	304	1	B	0	M1
NMTTP	92	320	2	B	0	M1
NMTTP	92	336	3	E	0	M1
EXTAP	93	0	4
EXTAP	93	24	5
EXTAP	93	48	6
EXTAP	93	72	7
EXTAP	93	96	0
EXTAP	93	96	4
NMHLD	93	192	3	48
NMHLD	93	192	5	48
NMHLD	93	288	1	48
NMHLD	93	288	3	48
NMSTR	94	0	0
NMSV_	94	0	0	96	48	3
NMSXR	94	0	0	96	48	6
NMSTR	94	96	0
NMSI_	94	96	0	96	48	2
NMTAP	94	192	4
NMTAP	94	288	3
NMTAP	94	288	5
NMTAP	94	336	3
NMTAP	94	336	5
NMTAP	95	48	1
NMTAP	95	48	7
NMSTR	95	96	1
NMSI_	95	96	1	96	48	5
NMTAP	95	96	7
NMTAP	95	192	0
NMTAP	95	192	1
NMSTR	95	288	7
NMSI_	95	288	7	96	48	3
NMSI_	95	288	7	96	48	5
NMSTR	96	0	7
NMSI_	96	0	7	96	48	2
NMSI_	96	0	7	96	48	4
NMSTR	96	96	7
NMSI_	96	96	7	96	48	1
NMSI_	96	96	7	96	48	3
NMTTP	96	288	7	E	0	M1
NMTTP	96	304	6	B	0	M1
NMTTP	96	320	5	B	0	M1
NMTTP	96	336	5	E	0	M1
EXTAP	97	0	3
EXTAP	97	24	2
EXTAP	97	48	1
EXTAP	97	72	0
EXTAP	97	96	3
EXTAP	97	96	7
NMHLD	97	192	2	48
NMHLD	97	192	4	48
NMHLD	97	288	4	48
NMHLD	97	288	6	48
NMSTR	98	0	7
NMSV_	98	0	7	96	48	4
NMSXL	98	0	7	96	48	1
NMSTR	98	96	7
NMSI_	98	96	7	96	48	5
NMTAP	98	192	3
NMTAP	98	288	2
NMTAP	98	288	4
NMTAP	98	336	2
NMTAP	98	336	4
NMTAP	99	48	0
NMTAP	99	48	6
NMTAP	99	96	0
NMTAP	99	96	6
BRTAP	99	192	1
NMTAP	99	192	5
NMTAP	99	240	2
BRTAP	99	240	6
BRTAP	99	288	1
NMTAP	99	288	5
NMTAP	99	336	2
BRTAP	99	336	6
NMSTR	100	0	3
NMSI_	100	0	3	96	48	1
NMSXL	100	0	3	96	48	5
NMSTR	100	96	3
NMSV_	100	96	3	96	48	0
NMTAP	100	192	7
NMTAP	100	288	6
NMTAP	100	336	6
NMTAP	101	48	1
NMTAP	101	48	7
NMSTR	101	96	1
NMSV_	101	96	1	96	48	4
NMTAP	101	96	7
NMTAP	101	192	1
NMSTR	101	192	5
NMSI_	101	192	5	96	48	0
NMTAP	101	288	3
NMTAP	101	288	5
NMTAP	102	0	2
NMTAP	102	0	6
NMTAP	102	48	2
NMTAP	102	48	6
NMTAP	102	96	2
NMTAP	102	96	6
NMTAP	102	144	2
NMTAP	102	144	6
NMTAP	102	192	3
NMTAP	102	192	7
NMTAP	102	240	3
NMTAP	102	240	7
NMTAP	102	288	3
NMTAP	102	288	7
NMSTR	102	336	3
NMSXR	102	336	3	96	144	0
NMTAP	102	336	7
NMTTP	103	48	7	E	0	M1
NMTTP	103	72	6	E	0	M1
NMTTP	103	96	5	E	0	M1
EXTAP	103	144	5
EXTAP	103	192	5
BRTAP	103	288	2
BRSTR	103	288	6
NMSUL	103	288	6	96	384	3
NMTTP	104	0	0	C	1	M1
CNSLL	105	0	3	0	192	7
CNSI_	105	192	7	0	384	5
NMTHO	106	0	0	384	C	0	M1
NMTTP	106	0	2	B	0	M1
NMTTP	106	0	3	B	0	M1
NMHLD	107	0	7	384
NMHLD	107	192	1	192
NMSTR	108	96	0
NMSCR	108	96	0	96	288	4
NMTAP	108	96	6
NMHLD	108	192	4	48
NMHLD	108	288	5	48
NMHLD	109	0	6	48
NMSTR	109	96	7
NMSLL	109	96	7	96	288	3
NMHLD	109	192	3	48
NMHLD	109	288	2	48
NMHLD	110	0	1	48
NMSTR	110	96	0
NMSI_	110	96	0	96	96	6
NMHLD	110	192	3	48
NMHLD	110	288	4	48
CNSV_	110	288	6	0	144	3
NMHLD	111	0	5	48
NMSTR	111	96	7
NMSI_	111	96	7	96	96	1
NMHLD	111	192	4	48
CNSV_	111	288	1	0	144	4
NMHLD	111	288	3	48
NMHLD	112	0	2	48
NMSTR	112	96	1
NMSV_	112	96	1	96	96	6
NMHLD	112	192	7	48
NMHLD	112	288	0	48
CNSCL	112	288	6	0	96	4
CNSI_	113	0	4	0	96	2
NMHLD	113	0	7	48
NMSTR	113	96	6
NMSV_	113	96	6	96	96	1
NMHLD	113	192	0	48
CNSCR	113	288	1	0	96	3
NMHLD	113	288	7	48
NMHLD	114	0	0	48
CNSI_	114	0	3	0	96	5
NMSTR	114	96	1
NMSI_	114	96	1	96	96	6
NMHLD	114	192	7	48
NMHLD	114	288	0	48
CNSI_	114	288	6	0	48	4
CNSCL	114	336	4	0	48	3
CNSV_	115	0	3	0	48	2
NMHLD	115	0	7	48
NMSTR	115	96	6
NMSI_	115	96	6	96	96	1
NMHLD	115	192	0	48
CNSI_	115	288	1	0	48	3
NMHLD	115	288	7	48
CNSCR	115	336	3	0	48	4
NMHLD	116	0	0	48
CNSV_	116	0	4	0	48	5
BRSTR	116	96	1
NMSCR	116	96	1	96	24	2
NMSCR	116	96	1	96	48	2
CNSI_	116	216	2	0	48	4
CNSI_	116	240	2	0	48	4
CNSI_	116	264	4	0	48	6
CNSI_	116	288	4	0	48	6
CNSCR	116	312	6	0	72	7
CNSCR	116	336	6	0	96	7
CNSV_	117	0	7	0	192	1
CNSV_	117	48	7	0	144	4

T_REC_TAP	274
T_REC_BRK	15
T_REC_XTP	48
T_REC_BXX	4
T_REC_HLD	78
T_REC_XHO	0
T_REC_BHO	2
T_REC_BXH	0
T_REC_STR	129
T_REC_BST	6
T_REC_XST	7
T_REC_XBS	4
T_REC_TTP	168
T_REC_THO	1
T_REC_SLD	171
T_REC_BSL	4
T_REC_ALL	911
T_NUM_TAP	626
T_NUM_BRK	35
T_NUM_HLD	79
T_NUM_SLD	171
T_NUM_ALL	911
T_JUDGE_TAP	655
T_JUDGE_HLD	152
T_JUDGE_SLD	175
T_JUDGE_ALL	982
TTM_EACHPAIRS	150
TTM_SCR_TAP	313000
TTM_SCR_BRK	91000
TTM_SCR_HLD	79000
TTM_SCR_SLD	256500
TTM_SCR_ALL	739500
TTM_SCR_S	713950
TTM_SCR_SS	736000
TTM_RAT_ACV	10047

