VERSION	0.00.00	1.04.00
FES_MODE	0
BPM_DEF	203.000	203.000	203.000	135.000
MET_DEF	4	4
RESOLUTION	384
CLK_DEF	384
COMPATIBLE_CODE	MA2

BPM	0	0	203.000
BPM	106	192	135.000
MET	0	0	4	4
MET	105	0	4	6
MET	106	192	4	4

EXTAP	1	0	4
NMTAP	1	96	4
NMTAP	1	192	3
NMTAP	1	288	3
NMHLD	2	0	2	96
NMHLD	2	0	4	96
NMTAP	2	192	1
NMTAP	2	192	5
NMTAP	3	0	2
NMTAP	3	96	2
NMTAP	3	192	2
NMTAP	3	192	3
NMTAP	3	288	2
NMTAP	3	288	3
NMTAP	4	0	5
NMTAP	4	96	5
NMTAP	4	192	4
NMTAP	4	192	6
NMTAP	4	288	4
NMTAP	4	288	6
NMTAP	5	0	3
NMTAP	5	96	3
NMTAP	5	192	2
NMTAP	5	192	3
NMTAP	5	288	2
NMTAP	5	288	3
NMTAP	6	0	1
NMTAP	6	96	0
NMTAP	6	96	1
NMHLD	6	192	0	96
NMHLD	6	192	1	96
NMTAP	7	0	2
NMTAP	7	96	2
NMTAP	7	192	1
NMTAP	7	192	3
NMTAP	7	288	2
NMTAP	7	288	4
NMTAP	8	0	5
NMTAP	8	96	5
NMTAP	8	192	4
NMTAP	8	192	6
NMTAP	8	288	3
NMTAP	8	288	5
NMTAP	9	0	2
NMTAP	9	96	1
NMTAP	9	192	0
NMTAP	9	192	1
NMTAP	9	288	0
NMTAP	9	288	1
NMTAP	10	0	7
NMTAP	10	96	6
NMTAP	10	192	4
NMTAP	10	192	5
NMTAP	10	288	4
NMSTR	10	288	5
NMSCR	10	288	5	96	288	0
NMTTP	12	0	1	E	0	M1
NMTTP	12	0	1	A	0	M1
NMTTP	12	192	2	A	0	M1
NMTTP	12	192	3	E	0	M1
NMTTP	13	0	0	C	0	M1
NMTTP	13	96	4	B	0	M1
NMTTP	13	192	4	A	0	M1
NMTTP	14	0	6	A	0	M1
NMTTP	14	0	7	E	0	M1
NMTTP	14	192	4	B	0	M1
NMTTP	14	192	5	E	0	M1
NMTTP	15	0	0	A	0	M1
NMTTP	15	96	0	B	0	M1
NMTTP	15	192	0	C	0	M1
NMTTP	16	0	4	B	0	M1
NMTTP	16	0	5	B	0	M1
NMTTP	16	0	5	E	0	M1
NMTTP	16	192	1	B	0	M1
NMTTP	16	192	2	B	0	M1
NMTTP	16	192	2	E	0	M1
NMTTP	17	0	0	E	0	M1
NMTTP	17	96	0	C	0	M1
NMTTP	17	192	4	E	0	M1
NMTAP	18	0	0
NMTAP	18	96	0
NMTAP	18	192	0
NMTAP	18	192	7
EXTAP	18	288	1
EXTAP	18	288	6
EXHLD	18	336	1	144
EXHLD	18	336	6	144
EXTAP	19	192	0
EXTAP	19	192	7
EXTAP	19	288	0
EXTAP	19	288	7
NMHLD	20	0	1	96
NMTAP	20	96	3
NMHLD	20	192	5	96
NMTAP	20	288	4
NMTAP	21	0	3
NMTAP	21	0	6
NMTAP	21	96	3
NMTAP	21	96	6
NMTAP	21	192	2
NMTAP	21	192	7
NMTAP	21	288	3
NMTAP	21	288	6
NMHLD	22	0	5	96
NMTAP	22	96	4
NMHLD	22	192	1	96
NMTAP	22	288	3
NMTAP	23	0	0
NMTAP	23	0	4
NMTAP	23	96	0
NMTAP	23	96	4
NMTAP	23	192	1
NMTAP	23	192	5
NMTAP	23	288	0
NMTAP	23	288	4
NMHLD	24	0	1	96
NMTAP	24	96	3
NMTAP	24	192	2
NMTAP	24	192	4
NMTAP	24	288	5
NMTAP	25	0	5
NMTAP	25	96	4
NMTAP	25	96	5
NMTAP	25	192	3
NMTAP	25	192	4
NMTAP	25	288	2
NMTAP	25	288	3
NMTAP	26	0	1
NMTAP	26	0	4
NMTAP	26	96	1
NMTAP	26	96	4
NMTAP	26	192	0
NMTAP	26	192	5
NMTAP	26	288	6
NMTAP	26	336	6
NMTAP	27	48	0
NMTAP	27	96	0
NMTAP	27	192	1
NMTAP	27	192	7
NMSTR	28	0	6
NMSI_	28	0	6	96	96	3
NMSTR	28	192	1
NMSI_	28	192	1	96	96	4
NMHLD	29	0	5	192
NMTAP	29	192	4
NMTAP	29	288	4
NMSTR	30	0	6
NMSI_	30	0	6	96	96	3
NMSTR	30	192	1
NMSI_	30	192	1	96	96	4
EXHLD	31	0	6	192
EXTAP	31	192	5
NMSTR	32	0	6
NMSI_	32	0	6	96	96	2
NMSTR	32	192	1
NMSI_	32	192	1	96	96	5
NMHLD	33	0	7	96
NMTAP	33	192	6
NMTAP	33	288	5
NMHLD	34	0	2	96
NMHLD	34	0	4	96
NMHLD	34	192	3	96
NMHLD	34	192	5	96
NMHLD	35	0	4	96
NMHLD	35	0	6	96
NMTAP	35	192	4
NMTAP	35	192	5
NMTAP	35	288	3
NMTAP	35	288	4
NMHLD	36	0	2	384
NMTAP	36	0	3
NMTAP	37	0	4
NMTAP	37	96	5
NMTAP	37	192	0
NMTAP	37	192	6
NMHLD	38	0	1	96
BRTAP	38	96	0
NMTAP	38	144	0
NMTAP	38	240	2
NMTAP	38	240	7
NMTAP	38	288	2
NMTAP	38	288	7
NMHLD	39	0	6	96
NMTAP	39	96	7
NMTAP	39	144	7
NMTAP	39	240	0
NMTAP	39	240	5
NMTAP	39	288	0
NMTAP	39	288	5
NMTAP	40	0	1
NMTAP	40	0	3
NMTAP	40	96	0
NMTAP	40	96	7
NMTAP	40	192	4
NMTAP	40	192	5
NMTAP	40	288	2
NMTAP	40	288	3
NMTAP	41	0	0
NMTAP	41	0	1
NMTAP	41	96	7
NMTAP	41	144	7
NMTAP	41	240	0
NMTAP	41	240	6
NMTAP	41	288	0
NMTAP	41	288	6
NMHLD	42	0	5	96
NMTAP	42	96	4
NMTAP	42	144	4
NMTAP	42	240	3
NMTAP	42	240	6
NMTAP	42	288	3
NMTAP	42	288	6
NMHLD	43	0	2	96
NMTAP	43	96	3
NMTAP	43	144	3
NMTAP	43	240	1
NMTAP	43	240	4
NMTAP	43	288	1
NMTAP	43	288	4
NMTAP	44	0	2
NMTAP	44	0	5
NMTAP	44	96	3
NMTAP	44	96	6
NMTAP	44	192	2
NMTAP	44	192	5
NMTAP	44	288	1
NMTAP	44	288	4
EXTAP	45	0	0
EXTAP	45	0	7
EXTAP	45	96	1
EXTAP	45	96	6
EXTAP	45	192	3
EXTAP	45	192	4
EXTAP	45	288	2
EXTAP	45	288	5
BRTAP	46	0	6
BRTAP	46	0	7
BRTAP	46	96	6
BRTAP	46	96	7
BRTAP	46	192	0
BRTAP	46	192	1
BRTAP	46	288	0
BRTAP	46	288	1
NMTAP	47	0	2
NMTAP	47	48	3
NMTAP	47	96	2
NMTAP	47	192	4
NMTAP	47	192	6
NMTAP	47	288	0
NMTAP	47	288	7
NMTAP	48	0	2
NMTAP	48	48	3
NMTAP	48	96	2
NMTAP	48	192	4
NMTAP	48	192	6
NMTAP	48	288	1
NMHLD	48	336	1	96
NMTAP	49	48	0
NMTAP	49	96	0
NMTAP	49	192	2
NMTAP	49	192	6
NMTAP	49	288	2
NMTAP	49	288	6
BRTAP	50	0	0
BRTAP	50	0	1
BRTAP	50	96	0
BRTAP	50	96	1
BRTAP	50	192	6
BRTAP	50	192	7
BRTAP	50	288	6
BRTAP	50	288	7
NMTAP	51	0	5
NMTAP	51	48	4
NMTAP	51	96	5
NMTAP	51	192	1
NMTAP	51	192	3
NMTAP	51	288	0
NMTAP	51	288	7
NMTAP	52	0	5
NMTAP	52	48	4
NMTAP	52	96	5
NMTAP	52	192	1
NMTAP	52	192	3
NMTAP	52	288	6
NMHLD	52	336	6	96
NMTAP	53	48	7
NMTAP	53	96	7
NMTAP	53	192	3
NMTAP	53	192	4
NMSTR	53	288	0
NMSSL	53	288	0	96	288	4
NMTAP	53	288	1
EXTAP	55	48	3
EXTAP	55	48	5
EXTAP	55	96	3
EXTAP	55	96	5
BXTAP	55	192	1
BXTAP	55	192	7
NMSTR	56	0	6
NMSI_	56	0	6	96	96	3
NMTAP	56	192	2
NMTAP	56	288	2
NMTAP	57	0	1
NMTAP	57	0	3
NMTAP	57	96	2
NMTAP	57	96	4
NMHLD	57	192	5	96
NMTAP	57	288	4
NMSTR	58	0	2
NMSI_	58	0	2	96	96	7
NMTAP	58	192	6
NMTAP	58	288	6
NMTAP	59	0	6
NMTAP	59	0	7
NMTAP	59	96	5
NMTAP	59	96	6
NMHLD	59	192	4	96
NMHLD	59	192	5	96
NMHLD	60	0	2	96
NMHLD	60	0	3	96
NMTAP	60	192	1
NMTAP	60	288	0
NMTAP	60	288	1
NMTAP	61	0	2
NMTAP	61	96	2
NMTAP	61	96	3
NMTAP	61	192	3
NMTAP	61	192	4
NMTAP	61	288	4
NMTAP	61	288	5
NMSTR	62	0	6
NMSI_	62	0	6	96	96	1
NMSTR	62	192	2
NMSI_	62	192	2	96	96	5
NMTAP	63	0	7
NMTAP	63	96	7
NMTAP	63	192	0
NMTAP	63	192	6
BRTAP	64	0	4
BRTAP	64	0	5
BRTAP	64	96	4
BRTAP	64	96	5
BRTAP	64	192	2
BRTAP	64	192	3
BRTAP	64	288	2
BRTAP	64	288	3
BRTAP	65	0	4
BRTAP	65	0	6
BRTAP	65	96	4
BRTAP	65	96	6
BRTAP	65	192	1
BRTAP	65	192	3
BRTAP	65	288	1
BRTAP	65	288	3
BRTAP	66	0	6
BRTAP	66	0	7
BRTAP	66	96	6
BRTAP	66	96	7
BRTAP	66	192	0
BRTAP	66	192	1
BRTAP	66	288	0
BRTAP	66	288	1
BRTAP	67	0	5
BRTAP	67	0	6
BRTAP	67	96	5
BRTAP	67	96	6
BRTAP	67	192	1
BRTAP	67	192	2
BRTAP	67	288	1
BRTAP	67	288	2
BRTAP	68	0	3
BRTAP	68	0	4
BRTAP	68	96	3
BRTAP	68	96	4
BRTAP	68	192	4
BRTAP	68	192	6
BRTAP	68	288	4
BRTAP	68	288	6
BRTAP	69	0	0
BRTAP	69	0	7
BRTAP	69	96	0
BRTAP	69	96	7
BRTAP	69	192	1
BRTAP	69	192	3
BRTAP	69	288	1
BRTAP	69	288	3
BRTAP	70	0	3
BRTAP	70	0	4
BRTAP	70	96	4
BRTAP	70	96	6
BRTAP	70	192	0
BRTAP	70	192	7
BRTAP	70	288	1
BRTAP	70	288	3
BRTAP	71	0	4
BRTAP	71	0	6
BRTAP	71	96	0
BRTAP	71	96	7
BRTAP	71	192	2
BRTAP	71	192	6
NMSTR	72	0	1
NMSI_	72	0	1	96	96	4
NMSTR	72	192	5
NMSI_	72	192	5	96	96	0
NMHLD	73	0	1	192
NMTAP	73	192	0
NMTAP	73	288	0
NMTAP	73	288	7
NMSTR	74	0	6
NMSI_	74	0	6	96	96	3
NMSTR	74	192	2
NMSI_	74	192	2	96	96	7
NMHLD	75	0	6	192
EXTAP	75	192	0
NMSTR	76	0	1
NMSI_	76	0	1	96	96	6
NMTAP	76	0	4
NMSTR	76	192	5
NMSI_	76	192	5	96	96	2
NMHLD	77	0	1	192
NMTAP	77	192	0
NMTAP	77	288	2
NMTAP	77	288	7
NMTAP	78	0	3
NMTAP	78	0	6
NMTAP	78	96	3
NMTAP	78	96	6
NMTAP	78	192	4
NMTAP	78	192	5
NMTAP	78	288	3
NMTAP	78	288	4
NMTAP	79	0	2
NMTAP	79	0	3
NMTAP	79	96	2
NMTAP	79	96	3
NMTAP	79	192	3
NMTAP	79	192	4
NMTAP	79	288	4
NMTAP	79	288	5
NMHLD	80	0	3	96
NMHLD	80	0	6	96
NMHLD	80	192	1	96
NMHLD	80	192	4	96
NMTAP	81	0	2
NMTAP	81	0	3
NMTAP	81	96	2
NMTAP	81	96	3
NMTAP	81	192	1
NMTAP	81	192	4
NMTAP	82	0	5
NMTAP	82	48	5
NMTAP	82	96	4
NMTAP	82	192	2
NMTAP	82	240	2
NMTAP	82	288	3
NMTAP	83	0	2
NMTAP	83	0	4
NMTAP	83	96	3
NMTAP	83	96	5
NMHLD	83	192	3	192
NMTAP	83	192	4
EXSTR	84	0	4
BRSXL	84	0	4	96	480	3
BXHLD	84	96	2	480
EXTAP	86	0	2
EXTAP	86	0	3
EXTAP	86	96	2
EXTAP	86	96	3
EXTAP	86	192	4
EXTAP	86	192	6
EXTAP	86	288	4
EXTAP	86	288	6
NMTAP	87	0	7
NMTAP	87	48	7
NMTAP	87	96	0
NMTAP	87	144	7
NMTAP	87	240	1
NMTAP	87	240	6
NMSTR	87	288	1
NMSI_	87	288	1	96	48	4
NMSTR	87	288	6
BRSI_	87	288	6	96	48	3
BXTAP	88	96	2
BXTAP	88	96	5
NMTAP	88	192	0
NMTAP	88	192	7
NMTAP	88	240	0
NMTAP	88	240	7
NMTAP	88	288	0
NMTAP	88	288	7
NMTAP	89	0	4
NMTAP	89	0	5
NMTAP	89	96	1
NMTAP	89	96	3
NMTAP	89	144	1
NMTAP	89	144	3
NMTAP	89	240	6
NMTAP	89	240	7
NMTAP	89	288	6
NMTAP	89	288	7
NMTAP	90	0	5
NMTAP	90	48	4
NMTAP	90	96	5
NMTAP	90	192	3
NMTAP	90	192	6
NMTAP	90	288	2
NMTAP	90	288	7
EXTAP	91	0	1
EXTAP	91	0	6
EXTAP	91	96	0
EXTAP	91	96	5
EXTAP	91	192	1
EXTAP	91	192	6
EXTAP	91	288	3
EXTAP	91	288	4
BRTAP	92	0	0
BRTAP	92	0	2
BRTAP	92	96	0
BRTAP	92	96	2
BRTAP	92	192	5
BRTAP	92	192	7
BRTAP	92	288	5
BRTAP	92	288	7
NMTAP	93	0	2
NMTAP	93	48	3
NMTAP	93	96	2
NMTAP	93	192	0
NMTAP	93	192	1
NMTAP	93	288	6
NMTAP	93	288	7
NMTAP	94	0	5
NMTAP	94	48	4
NMTAP	94	96	5
NMTAP	94	192	0
NMTAP	94	192	7
NMTAP	94	288	2
NMTAP	94	288	3
NMTAP	94	336	2
NMHLD	94	336	3	96
NMTAP	95	48	4
NMTAP	95	96	4
NMTAP	95	192	2
NMTAP	95	192	6
NMTAP	95	288	2
NMTAP	95	288	6
BRTAP	96	0	5
BRTAP	96	0	7
BRTAP	96	96	5
BRTAP	96	96	7
BRTAP	96	192	0
BRTAP	96	192	2
BRTAP	96	288	0
BRTAP	96	288	2
NMTAP	97	0	5
NMTAP	97	48	4
NMTAP	97	96	5
NMTAP	97	192	6
NMTAP	97	192	7
NMTAP	97	288	0
NMTAP	97	288	1
NMTAP	98	0	2
NMTAP	98	48	3
NMTAP	98	96	2
NMTAP	98	192	0
NMTAP	98	192	7
NMTAP	98	288	4
NMTAP	98	288	5
NMTAP	98	336	4
NMHLD	98	336	5	96
NMTAP	99	48	7
NMTAP	99	96	7
NMTAP	99	192	0
NMTAP	99	192	1
NMTAP	99	288	2
NMTAP	99	336	2
NMTAP	100	0	1
NMTAP	100	0	3
NMTAP	100	96	4
NMTAP	100	96	5
NMTAP	100	192	6
NMTAP	100	192	7
NMTAP	100	288	0
NMTAP	100	288	1
NMTAP	100	336	0
NMHLD	100	336	1	96
NMTAP	101	48	3
NMTAP	101	96	3
NMTAP	101	192	4
NMTAP	101	192	5
NMSTR	101	288	6
BRSCL	101	288	6	96	384	7
NMTAP	101	288	7
CNSUL	103	0	7	0	384	4
BXHLD	104	0	3	1344
NMHLD	107	0	4	1872
EXTAP	108	0	2
NMHLD	108	192	3	48
NMHLD	108	288	3	48
NMHLD	109	0	1	48
NMHLD	109	96	1	48
NMHLD	109	192	7	48
NMHLD	109	288	7	48
NMHLD	110	0	5	48
NMHLD	110	96	5	48
NMHLD	110	192	7	48
NMHLD	110	288	7	48
NMHLD	111	0	1	48
NMHLD	111	96	1	48
NMHLD	111	192	3	48
NMHLD	111	288	3	48
NMTAP	112	0	3
NMTAP	112	0	4
NMHLD	112	96	3	1728
NMTAP	112	96	4
NMHLD	112	192	4	48
NMHLD	112	288	4	48
NMHLD	113	0	2	48
NMHLD	113	96	2	48
NMHLD	113	192	0	48
NMHLD	113	288	0	48
NMHLD	114	0	2	48
NMHLD	114	96	2	48
NMHLD	114	192	4	48
NMHLD	114	288	2	48
NMHLD	115	0	4	48
NMSTR	115	96	2
BRSI_	115	96	2	96	96	0
CNSI_	115	288	0	0	96	4
CNSI_	116	0	4	0	96	7
BXHLD	116	192	7	96

T_REC_TAP	348
T_REC_BRK	95
T_REC_XTP	38
T_REC_BXX	4
T_REC_HLD	67
T_REC_XHO	3
T_REC_BHO	0
T_REC_BXH	3
T_REC_STR	22
T_REC_BST	0
T_REC_XST	1
T_REC_XBS	0
T_REC_TTP	23
T_REC_THO	0
T_REC_SLD	19
T_REC_BSL	4
T_REC_ALL	627
T_NUM_TAP	432
T_NUM_BRK	106
T_NUM_HLD	70
T_NUM_SLD	19
T_NUM_ALL	627
T_JUDGE_TAP	531
T_JUDGE_HLD	246
T_JUDGE_SLD	23
T_JUDGE_ALL	800
TTM_EACHPAIRS	202
TTM_SCR_TAP	216000
TTM_SCR_BRK	275600
TTM_SCR_HLD	70000
TTM_SCR_SLD	28500
TTM_SCR_ALL	590100
TTM_SCR_S	562150
TTM_SCR_SS	579500
TTM_RAT_ACV	10182

