VERSION	0.00.00	1.04.00
FES_MODE	0
BPM_DEF	203.000	203.000	203.000	135.000
MET_DEF	4	4
RESOLUTION	384
CLK_DEF	384
COMPATIBLE_CODE	MA2

BPM	0	0	203.000
BPM	106	192	135.000
MET	0	0	4	4
MET	105	0	4	6
MET	106	192	4	4

NMHLD	3	0	2	192
NMHLD	3	192	3	192
NMHLD	4	0	4	192
NMTAP	4	192	5
NMHLD	5	0	5	192
NMHLD	5	192	4	192
NMHLD	6	0	3	192
NMTAP	6	192	2
NMHLD	7	0	1	192
NMHLD	7	192	0	192
NMHLD	8	0	7	192
NMTAP	8	192	6
NMHLD	9	0	6	192
NMHLD	9	192	7	192
NMHLD	10	0	0	192
NMTAP	10	192	1
NMTAP	11	0	0
NMTAP	11	0	7
NMTAP	12	0	1
NMTAP	12	192	1
NMTAP	13	0	2
NMTAP	13	192	2
NMTAP	14	0	3
NMTAP	14	192	3
NMTAP	15	0	4
NMTAP	15	0	5
NMTAP	16	0	6
NMTAP	16	192	6
NMTAP	17	0	5
NMTAP	17	192	5
NMTAP	18	0	4
NMTAP	18	192	4
NMTAP	19	0	2
NMTAP	19	0	3
NMTAP	20	0	1
NMTAP	20	96	1
NMTAP	20	192	0
NMTAP	20	192	1
NMTAP	21	0	2
NMTAP	21	96	2
NMTAP	21	192	2
NMTAP	21	192	3
NMTAP	22	0	4
NMTAP	22	96	4
NMTAP	22	192	4
NMTAP	22	192	5
NMTAP	23	0	6
NMTAP	23	0	7
NMTAP	23	192	6
NMTAP	23	192	7
NMTAP	24	0	6
NMTAP	24	96	6
NMTAP	24	192	6
NMTAP	24	192	7
NMTAP	25	0	5
NMTAP	25	96	5
NMTAP	25	192	4
NMTAP	25	192	5
NMTAP	26	0	3
NMTAP	26	96	3
NMTAP	26	192	2
NMTAP	26	192	3
NMTAP	27	0	0
NMTAP	27	0	1
NMSTR	28	0	1
NMSI_	28	0	1	96	288	4
NMTAP	29	192	5
NMSTR	30	0	6
NMSI_	30	0	6	96	288	3
NMTAP	31	192	2
NMSTR	32	0	1
NMSI_	32	0	1	96	288	5
NMTAP	33	192	6
NMSTR	34	0	7
NMSI_	34	0	7	96	288	3
NMTAP	35	192	2
NMTAP	36	0	2
NMTAP	36	192	1
NMTAP	37	0	0
NMTAP	37	0	7
NMTAP	38	0	1
NMTAP	38	96	1
NMTAP	38	192	0
NMTAP	38	192	1
NMTAP	39	0	6
NMTAP	39	96	6
NMTAP	39	192	6
NMTAP	39	192	7
NMTAP	40	0	5
NMTAP	40	96	5
NMTAP	40	192	6
NMTAP	40	288	6
NMTAP	41	0	7
NMTAP	41	96	7
NMTAP	41	192	0
NMTAP	41	192	1
NMTAP	42	0	2
NMTAP	42	96	2
NMTAP	42	192	2
NMTAP	42	192	3
NMTAP	43	0	5
NMTAP	43	96	5
NMTAP	43	192	4
NMTAP	43	192	5
NMTAP	44	0	6
NMTAP	44	96	6
NMTAP	44	192	5
NMTAP	44	288	5
NMTAP	45	0	4
NMTAP	45	96	4
NMTAP	45	192	2
NMTAP	45	192	3
EXTAP	46	0	2
EXTAP	46	0	3
EXTAP	46	96	2
EXTAP	46	96	3
EXTAP	46	192	2
EXTAP	46	192	3
EXTAP	47	0	4
EXTAP	47	0	5
EXTAP	47	96	4
EXTAP	47	96	5
EXTAP	47	192	4
EXTAP	47	192	5
NMTAP	48	0	5
NMTAP	48	96	5
NMTAP	48	192	4
NMTAP	48	192	5
NMTAP	48	288	4
NMTAP	48	288	5
NMTAP	49	0	6
NMTAP	49	96	6
NMTAP	49	192	6
NMTAP	49	192	7
EXTAP	50	0	6
EXTAP	50	0	7
EXTAP	50	96	6
EXTAP	50	96	7
EXTAP	50	192	6
EXTAP	50	192	7
EXTAP	51	0	0
EXTAP	51	0	1
EXTAP	51	96	0
EXTAP	51	96	1
EXTAP	51	192	0
EXTAP	51	192	1
NMTAP	52	0	1
NMTAP	52	96	1
NMTAP	52	192	0
NMTAP	52	192	1
NMTAP	52	288	0
NMTAP	52	288	1
NMTAP	53	0	2
NMTAP	53	96	2
NMTAP	53	192	2
NMTAP	53	192	3
NMHLD	54	0	3	384
NMHLD	54	0	4	384
NMTTP	56	0	1	B	0	L1
NMTTP	56	96	2	B	0	L1
NMTTP	56	192	3	B	0	L1
NMTTP	57	0	6	B	0	L1
NMTTP	57	96	5	B	0	L1
NMTTP	57	192	4	B	0	L1
NMTTP	58	0	0	B	0	L1
NMTTP	58	96	1	B	0	L1
NMTTP	58	192	2	B	0	L1
NMTTP	58	288	3	B	0	L1
NMTTP	59	0	4	B	0	L1
NMTTP	59	96	5	B	0	L1
NMTTP	59	192	6	B	0	L1
NMTTP	59	192	7	B	0	L1
NMTTP	60	0	1	E	0	L1
NMTTP	60	96	1	B	0	L1
NMTTP	60	192	2	B	0	L1
NMTTP	61	0	7	E	0	L1
NMTTP	61	96	6	B	0	L1
NMTTP	61	192	5	B	0	L1
NMTTP	62	0	2	B	0	L1
NMTTP	62	96	3	B	0	L1
NMTTP	62	192	4	B	0	L1
NMTTP	62	288	5	B	0	L1
NMTTP	63	0	0	C	0	L1
NMTAP	64	0	0
NMTAP	64	96	0
NMTAP	64	192	1
NMTAP	64	288	1
NMTAP	65	0	2
NMTAP	65	96	2
NMTAP	65	192	3
NMTAP	65	192	4
NMTAP	65	288	3
NMTAP	65	288	4
NMTAP	66	0	5
NMTAP	66	96	5
NMTAP	66	192	6
NMTAP	66	288	6
NMTAP	67	0	7
NMTAP	67	96	7
EXTAP	67	192	0
EXTAP	67	192	7
NMTAP	68	0	7
NMTAP	68	96	7
NMTAP	68	192	6
NMTAP	68	288	6
NMTAP	69	0	5
NMTAP	69	96	5
NMTAP	69	192	3
NMTAP	69	192	4
NMTAP	69	288	3
NMTAP	69	288	4
NMTAP	70	0	2
NMTAP	70	96	2
NMTAP	70	192	1
NMTAP	70	288	1
NMTAP	71	0	0
NMTAP	71	96	0
BRTAP	71	192	0
BRTAP	71	192	7
NMHLD	72	0	1	192
NMTAP	72	192	0
NMTAP	73	0	0
NMTAP	73	0	1
NMTAP	73	192	0
NMTAP	73	192	1
NMHLD	74	0	2	192
NMTAP	74	192	3
NMTAP	75	0	2
NMTAP	75	0	3
NMTAP	75	192	2
NMTAP	75	192	3
NMHLD	76	0	5	192
NMTAP	76	192	4
NMTAP	77	0	4
NMTAP	77	0	5
NMTAP	77	192	4
NMTAP	77	192	5
NMHLD	78	0	6	192
NMTAP	78	192	7
NMTAP	79	0	6
NMTAP	79	0	7
NMTAP	79	192	6
NMTAP	79	192	7
NMSTR	80	0	6
NMSI_	80	0	6	96	288	3
NMTAP	81	192	2
NMSTR	82	0	1
NMSI_	82	0	1	96	288	4
NMTAP	83	192	4
NMTAP	83	192	5
NMTAP	84	0	6
NMTAP	84	96	6
NMTAP	84	192	6
NMTAP	85	0	5
NMTAP	85	96	5
NMTAP	85	192	5
NMTAP	86	0	4
NMTAP	86	96	4
NMTAP	86	192	4
NMHLD	87	0	3	144
NMHLD	87	0	4	144
NMTAP	88	0	5
NMTAP	88	96	5
NMTAP	88	192	6
NMTAP	88	192	7
NMTAP	88	288	6
NMTAP	88	288	7
NMTAP	89	0	0
NMTAP	89	96	1
NMTAP	89	192	2
NMTAP	89	192	3
NMTAP	90	0	2
NMTAP	90	96	2
NMTAP	90	192	0
NMTAP	90	192	1
NMTAP	90	288	0
NMTAP	90	288	1
NMTAP	91	0	7
NMTAP	91	96	6
NMTAP	91	192	4
NMTAP	91	192	5
EXTAP	92	0	3
EXTAP	92	0	5
EXTAP	92	96	3
EXTAP	92	96	5
EXTAP	92	192	3
EXTAP	92	192	5
EXTAP	93	0	2
EXTAP	93	0	4
EXTAP	93	96	2
EXTAP	93	96	4
EXTAP	93	192	2
EXTAP	93	192	4
NMTAP	94	0	3
NMTAP	94	96	2
NMTAP	94	192	1
NMTAP	94	288	0
NMTAP	95	0	6
NMTAP	95	0	7
NMTAP	95	96	6
NMTAP	95	96	7
NMTAP	95	192	0
NMTAP	95	192	5
EXTAP	96	0	0
EXTAP	96	0	6
EXTAP	96	96	0
EXTAP	96	96	6
EXTAP	96	192	0
EXTAP	96	192	6
EXTAP	97	0	1
EXTAP	97	0	7
EXTAP	97	96	1
EXTAP	97	96	7
EXTAP	97	192	1
EXTAP	97	192	7
NMTAP	98	0	0
NMTAP	98	96	1
NMTAP	98	192	2
NMTAP	98	288	3
NMTAP	99	0	4
NMTAP	99	0	5
NMTAP	99	96	4
NMTAP	99	96	5
NMTAP	99	192	3
NMTAP	99	192	6
NMTAP	100	0	5
NMTAP	100	96	4
NMTAP	100	192	3
NMTAP	100	288	2
NMTAP	101	0	1
NMTAP	101	96	0
NMTAP	101	192	0
NMTAP	101	192	7
NMTAP	102	0	0
NMTAP	102	0	7
NMTAP	102	192	1
NMTAP	102	192	6
NMTAP	103	0	2
NMTAP	103	0	5
NMTAP	103	192	3
NMTAP	103	192	4
NMSTR	104	0	3
NMSXR	104	0	3	96	864	0
NMSTR	104	0	4
NMSXL	104	0	4	96	864	7
EXHLD	107	0	0	384
EXHLD	107	0	7	384
NMHLD	108	192	0	192
NMHLD	109	0	1	192
NMHLD	109	192	2	192
NMTAP	110	0	3
NMHLD	110	192	4	192
NMHLD	111	0	5	192
NMHLD	111	192	6	192
NMTAP	112	0	7
NMHLD	112	192	7	192
NMHLD	113	0	6	192
NMHLD	113	192	5	192
NMHLD	114	0	4	192
NMHLD	114	192	3	192
NMHLD	115	0	2	192
NMHLD	115	192	1	192
NMTAP	116	0	0
NMTTP	116	192	0	C	0	L1

T_REC_TAP	235
T_REC_BRK	2
T_REC_XTP	50
T_REC_BXX	0
T_REC_HLD	33
T_REC_XHO	2
T_REC_BHO	0
T_REC_BXH	0
T_REC_STR	8
T_REC_BST	0
T_REC_XST	0
T_REC_XBS	0
T_REC_TTP	26
T_REC_THO	0
T_REC_SLD	8
T_REC_BSL	0
T_REC_ALL	364
T_NUM_TAP	319
T_NUM_BRK	2
T_NUM_HLD	35
T_NUM_SLD	8
T_NUM_ALL	364
T_JUDGE_TAP	321
T_JUDGE_HLD	154
T_JUDGE_SLD	8
T_JUDGE_ALL	483
TTM_EACHPAIRS	85
TTM_SCR_TAP	159500
TTM_SCR_BRK	5200
TTM_SCR_HLD	35000
TTM_SCR_SLD	12000
TTM_SCR_ALL	211700
TTM_SCR_S	205200
TTM_SCR_SS	211500
TTM_RAT_ACV	10009

