VERSION	0.00.00	1.04.00
FES_MODE	0
BPM_DEF	104.000	104.000	208.000	104.000
MET_DEF	4	4
RESOLUTION	384
CLK_DEF	384
COMPATIBLE_CODE	MA2

BPM	0	0	104.000
BPM	26	0	208.000
MET	0	0	4	4
MET	9	0	4	2
MET	9	192	4	4
MET	25	192	4	2
MET	26	0	4	4

NMTAP	1	0	3
NMTAP	1	24	3
NMTAP	1	72	4
NMTAP	1	120	3
NMTAP	1	168	2
NMSTR	1	168	3
NMSCR	1	168	3	96	48	5
NMTTP	1	288	2	D	0	M1
NMTAP	2	0	4
NMTAP	2	24	4
NMTAP	2	72	3
NMTAP	2	120	4
NMSTR	2	168	4
NMSCL	2	168	4	96	48	2
NMTAP	2	168	5
NMTAP	2	288	5
NMTAP	3	0	2
NMTAP	3	24	2
NMTAP	3	72	4
NMTAP	3	120	3
NMTAP	3	168	2
NMSTR	3	168	3
NMSI_	3	168	3	96	48	5
NMTTP	3	288	2	D	0	M1
NMTAP	4	0	5
NMTAP	4	24	5
NMTAP	4	72	4
NMTAP	4	120	5
NMTAP	4	168	4
NMHLD	4	168	6	120
BXTAP	4	288	0
NMTAP	5	24	1
NMTAP	5	48	1
NMTAP	5	72	0
NMTAP	5	120	2
NMTAP	5	144	2
NMTAP	5	168	3
NMSTR	5	216	1
NMSLR	5	216	1	96	72	5
NMHLD	5	264	7	48
NMTAP	5	312	1
NMTAP	6	24	6
NMTAP	6	48	6
NMTAP	6	72	7
NMTAP	6	120	5
NMTAP	6	144	5
NMSTR	6	168	4
NMSCL	6	168	4	96	72	0
NMHLD	6	216	6	48
NMTAP	6	264	4
NMTAP	7	24	1
NMTAP	7	48	1
NMTAP	7	72	3
NMTAP	7	96	3
NMTAP	7	120	2
NMHLD	7	168	4	48
NMSTR	7	216	3
NMSSR	7	216	3	96	72	7
NMHLD	7	264	2	48
NMTAP	7	312	3
NMTAP	8	72	6
NMTAP	8	96	6
NMTAP	8	120	0
NMTAP	8	144	0
NMTAP	8	168	7
NMTAP	8	192	7
NMTAP	8	216	1
NMTAP	8	264	0
NMTAP	8	264	7
NMTAP	8	312	6
NMHLD	8	336	6	48
NMTTP	9	0	4	E	0	M1
NMTTP	9	12	3	E	0	M1
NMTTP	9	24	2	E	0	M1
NMTTP	9	36	1	E	0	M1
NMTTP	9	48	0	E	0	M1
NMTTP	9	60	7	E	0	M1
NMTTP	9	72	6	E	0	M1
NMTTP	9	84	5	E	0	M1
NMTTP	9	96	4	E	0	M1
BXSTR	9	192	1
NMSI_	9	192	1	96	48	4
BXTAP	9	192	7
NMTAP	9	240	2
NMTAP	9	264	3
NMTAP	9	288	1
NMTAP	9	336	5
NMSTR	10	0	6
NMSI_	10	0	6	96	48	3
NMTAP	10	48	5
NMTAP	10	72	4
NMTAP	10	96	6
NMTAP	10	144	2
NMSTR	10	192	1
NMSI_	10	192	1	96	48	5
NMTAP	10	240	0
NMTAP	10	264	7
NMTAP	10	288	1
NMTAP	10	336	6
NMSTR	11	0	7
NMSI_	11	0	7	96	48	3
NMTAP	11	48	6
NMTAP	11	72	4
BXTAP	11	96	7
BXTAP	11	144	0
BXTAP	11	192	1
BXSTR	11	192	5
NMSI_	11	192	5	96	48	0
NMTAP	11	240	6
NMTAP	11	264	4
NMTAP	11	288	5
NMTAP	11	336	1
NMSTR	12	0	2
NMSI_	12	0	2	96	48	7
NMTAP	12	48	1
NMTAP	12	72	3
NMTAP	12	96	2
NMTAP	12	144	5
NMSTR	12	192	6
NMSI_	12	192	6	96	48	3
NMTAP	12	240	5
NMTAP	12	264	4
NMTAP	12	288	6
NMTAP	12	336	2
NMSTR	13	0	0
BRSI_	13	0	0	96	48	4
NMTAP	13	48	1
NMTAP	13	72	7
BRTAP	13	96	0
EXSTR	13	192	6
NMSXR	13	192	6	96	192	3
NMHLD	13	288	0	192
NMTAP	14	144	1
NMSTR	14	192	2
NMSI_	14	192	2	96	48	4
NMHLD	14	288	5	144
CNSI_	14	336	4	0	96	0
CNSI_	15	48	0	0	48	6
NMTAP	15	96	5
NMTAP	15	144	5
NMTAP	15	192	3
NMSTR	15	192	4
NMSCR	15	192	4	96	96	0
NMSTR	15	288	0
NMSCR	15	288	0	96	96	4
NMSTR	16	0	4
NMSCR	16	0	4	96	96	0
NMTAP	16	96	0
NMTAP	16	144	1
NMTAP	16	192	1
NMTAP	16	288	2
NMTAP	16	288	3
NMTAP	17	0	5
NMTAP	17	24	5
NMTAP	17	72	0
NMTAP	17	72	7
BRTAP	17	96	1
BRTAP	17	96	6
NMTAP	17	192	5
NMTAP	17	216	5
NMTAP	17	240	3
NMTAP	17	264	3
NMTAP	17	288	7
NMSTR	17	312	7
NMSCL	17	312	7	96	48	4
NMTAP	17	360	0
NMTAP	17	360	6
NMTAP	18	24	3
NMTAP	18	48	2
NMTAP	18	72	1
NMTAP	18	120	0
NMTAP	18	120	1
NMTAP	18	168	2
NMTAP	18	168	7
NMTAP	18	216	6
NMTAP	18	240	6
NMSTR	18	264	4
NMSCR	18	264	4	96	48	7
NMTAP	18	312	3
NMTAP	18	312	5
NMTAP	18	360	2
NMTAP	19	24	1
NMTAP	19	72	0
NMTAP	19	72	6
NMTAP	19	120	1
NMTAP	19	120	5
NMTAP	19	144	1
NMTAP	19	144	5
NMTAP	19	216	2
NMTAP	19	240	2
NMTAP	19	264	3
NMTAP	19	288	3
NMSTR	19	312	0
NMSCR	19	312	0	96	48	3
NMTAP	19	360	1
NMTAP	19	360	7
NMTAP	20	24	4
NMTAP	20	72	5
NMHLD	20	120	4	48
NMHLD	20	120	5	48
NMTAP	20	192	3
NMSTR	20	192	6
NMSI_	20	192	6	96	48	3
NMTAP	20	336	2
NMSTR	21	0	1
NMSV_	21	0	1	96	48	2
NMTAP	21	24	1
CNSI_	21	144	2	0	24	4
NMHLD	21	192	5	192
NMTTP	21	288	7	B	0	M1
NMTTP	21	288	7	E	0	M1
NMHLD	22	0	4	192
NMTTP	22	96	0	E	0	M1
NMTTP	22	96	7	B	0	M1
NMTAP	22	144	3
NMHLD	22	192	3	192
NMTTP	22	288	0	B	0	M1
NMTTP	22	288	0	E	0	M1
NMHLD	23	0	2	96
NMTTP	23	96	7	A	0	M1
NMTTP	23	108	6	A	0	M1
NMTTP	23	120	5	A	0	M1
NMTTP	23	132	4	A	0	M1
NMTTP	23	144	3	A	0	M1
NMTAP	23	192	0
NMTAP	23	192	1
NMTAP	23	240	2
NMTAP	23	264	2
NMTAP	23	264	3
NMTAP	23	312	5
NMTAP	23	336	4
NMTAP	23	336	5
NMTAP	24	0	6
NMTAP	24	0	7
NMTAP	24	48	5
NMTAP	24	72	4
NMTAP	24	72	6
NMTAP	24	120	2
NMTAP	24	144	1
NMTAP	24	144	3
NMTTP	24	192	2	E	0	M1
NMTTP	24	208	2	B	0	M1
NMTTP	24	224	3	B	0	M1
NMTTP	24	240	6	E	0	M1
NMTTP	24	256	5	B	0	M1
NMTTP	24	272	4	B	0	M1
NMTTP	24	288	1	E	0	M1
NMTTP	24	304	1	B	0	M1
NMTTP	24	320	2	B	0	M1
NMTTP	24	336	7	E	0	M1
NMTTP	24	352	6	B	0	M1
NMTTP	24	368	5	B	0	M1
NMTTP	25	0	0	A	0	M1
NMTTP	25	16	1	A	0	M1
NMTTP	25	32	2	A	0	M1
NMTTP	25	48	6	A	0	M1
NMTTP	25	64	5	A	0	M1
NMTTP	25	80	4	A	0	M1
EXHLD	25	96	3	288
EXTAP	25	96	7
EXTAP	25	192	0
NMTAP	26	0	2
NMSTR	26	96	2
NMSI_	26	96	2	96	48	7
NMSTR	26	96	3
NMSI_	26	96	3	96	48	6
NMTAP	26	192	2
NMTAP	26	192	3
NMTTP	26	204	3	E	0	M1
NMTTP	26	216	0	C	1	M1
NMTTP	26	228	7	E	0	M1
BXTAP	26	336	0
BXTAP	26	336	5
NMTAP	27	48	2
NMTAP	27	48	7
NMTAP	27	96	2
NMTAP	27	96	7
NMTAP	27	192	1
NMTAP	27	192	6
NMTAP	27	288	0
NMTAP	27	312	7
NMTAP	27	336	0
NMTAP	27	360	7
NMTAP	28	0	0
NMTAP	28	24	7
NMTAP	28	48	0
NMTAP	28	72	7
NMTAP	28	96	0
NMTAP	28	120	7
NMTAP	28	144	1
NMTAP	28	168	6
NMTAP	28	192	0
NMTAP	28	216	7
NMSTR	28	240	1
BRSI_	28	240	1	96	48	5
NMTAP	28	264	6
NMTAP	28	288	0
NMTAP	28	312	7
BXTAP	28	336	1
NMTAP	29	48	7
NMTAP	29	96	7
NMTAP	29	144	6
NMTAP	29	192	4
NMTAP	29	192	5
NMTAP	29	240	2
NMTAP	29	288	3
NMSTR	29	336	1
NMSI_	29	336	1	96	48	4
NMTAP	30	48	0
NMTAP	30	48	1
NMSTR	30	96	7
NMSCL	30	96	7	96	96	4
NMTAP	30	192	4
NMTAP	30	240	2
NMSTR	30	288	0
NMSI_	30	288	0	96	48	3
NMSI_	30	288	0	96	48	5
BRTAP	31	0	0
EXSTR	31	96	2
NMSI_	31	96	2	96	48	7
EXSTR	31	96	6
NMSI_	31	96	6	96	48	3
BRTAP	31	192	2
BRTAP	31	192	6
EXSTR	31	288	0
NMSCR	31	288	0	96	48	3
EXSTR	31	288	4
NMSCR	31	288	4	96	48	7
BRTAP	32	0	0
BRTAP	32	0	4
EXSTR	32	96	2
NMSI_	32	96	2	96	48	5
EXSTR	32	96	6
NMSI_	32	96	6	96	48	1
BRTAP	32	192	2
BRTAP	32	192	6
EXTAP	32	288	3
EXSTR	32	288	7
NMSI_	32	288	7	96	48	4
BRSTR	33	0	7
NMSCR	33	0	7	96	48	2
NMSTR	33	96	7
NMSCL	33	96	7	96	48	4
NMSTR	33	192	7
NMSI_	33	192	7	96	48	3
NMTAP	33	288	7
NMTAP	34	48	2
NMTAP	34	48	4
NMTAP	34	96	1
NMTAP	34	96	5
NMTAP	34	192	6
NMTAP	34	192	7
NMTAP	34	240	5
NMTAP	34	288	2
NMTAP	34	288	4
NMSTR	34	336	1
NMSI_	34	336	1	96	48	4
NMTAP	35	48	1
NMTAP	35	48	7
NMTAP	35	144	5
EXTAP	35	192	4
NMTAP	35	192	6
NMTAP	35	240	7
NMTAP	35	288	0
NMTAP	35	288	1
NMSTR	35	336	2
NMSI_	35	336	2	96	48	7
NMTAP	36	48	2
NMTAP	36	48	4
NMTAP	36	144	6
NMTAP	36	192	4
NMTAP	36	240	3
NMTAP	36	288	1
NMHLD	36	336	1	96
NMSTR	37	48	6
NMSI_	37	48	6	96	48	2
NMTAP	37	96	6
NMSTR	37	144	7
NMSI_	37	144	7	96	48	3
NMTAP	37	192	7
NMSTR	37	240	0
NMSI_	37	240	0	96	48	4
NMTAP	37	288	0
NMSTR	37	336	1
NMSI_	37	336	1	96	48	5
NMTAP	38	48	7
NMTAP	38	96	7
NMTAP	38	192	4
NMTAP	38	192	6
NMTAP	38	288	3
NMSTR	38	288	7
BRSI_	38	288	7	96	48	3
NMSTR	39	0	2
NMSI_	39	0	2	96	48	7
NMTAP	39	0	7
NMTAP	39	96	2
NMSTR	39	96	5
BRSI_	39	96	5	96	48	0
NMSTR	39	192	1
NMSI_	39	192	1	96	48	4
NMTAP	39	192	5
NMTAP	39	288	1
NMSTR	39	288	6
BRSI_	39	288	6	96	48	2
NMSTR	40	0	3
NMSI_	40	0	3	96	48	0
NMTAP	40	0	6
NMTAP	40	96	3
NMSTR	40	96	7
BRSI_	40	96	7	96	48	4
NMSTR	40	192	1
NMSI_	40	192	1	96	48	5
NMTAP	40	192	7
NMTAP	40	288	1
NMSTR	40	288	3
BRSF_	40	288	3	96	48	7
BRTAP	41	0	3
NMTAP	41	192	1
NMTAP	41	192	5
NMTAP	41	240	2
NMSTR	41	288	3
BRSI_	41	288	3	96	48	7
NMSTR	41	288	4
BRSI_	41	288	4	96	48	0
NMTAP	42	0	3
NMTAP	42	0	4
NMTTP	42	16	0	C	1	M1
EXTAP	42	240	1
EXTAP	42	240	6
BXTAP	42	288	1
BXTAP	42	288	6
NMTAP	43	0	3
NMTAP	43	0	4
NMTAP	43	96	2
NMTAP	43	128	2
NMTAP	43	160	3
NMTAP	43	192	1
NMTAP	43	288	5
NMTAP	43	320	5
NMTAP	43	352	4
NMTAP	44	0	6
NMTAP	44	96	2
NMTAP	44	128	3
NMTAP	44	160	2
NMTAP	44	192	5
NMTAP	44	224	4
NMTAP	44	256	5
NMSTR	44	288	3
NMSI_	44	288	3	96	48	7
NMTAP	44	320	4
NMTAP	44	352	2
NMTAP	45	0	3
NMTAP	45	96	2
NMTAP	45	128	2
NMTAP	45	160	3
NMTAP	45	192	0
NMTAP	45	288	5
NMTAP	45	320	5
NMTAP	45	352	4
NMTAP	46	0	7
NMTAP	46	96	1
NMTAP	46	128	3
NMTAP	46	160	2
NMTAP	46	192	6
NMTAP	46	224	4
NMTAP	46	256	5
NMSTR	46	288	3
NMSI_	46	288	3	96	48	7
NMTAP	46	320	4
NMTAP	46	352	2
NMTAP	47	0	3
NMTAP	47	96	1
NMTAP	47	128	0
NMTAP	47	160	1
NMTAP	47	192	2
NMTAP	47	192	7
NMTAP	47	288	6
NMTAP	47	320	7
NMTAP	47	352	6
NMTAP	48	0	0
NMTAP	48	0	5
NMTAP	48	96	2
NMTAP	48	128	3
NMTAP	48	160	1
NMTAP	48	192	5
NMTAP	48	224	4
NMTAP	48	256	6
NMSTR	48	288	3
NMSI_	48	288	3	96	48	7
NMTAP	48	320	5
NMTAP	48	352	1
EXTAP	49	0	3
NMTAP	49	96	2
NMTAP	49	128	3
NMTAP	49	160	2
NMTAP	49	192	1
NMTAP	49	192	4
NMTAP	49	288	5
NMTAP	49	320	4
NMTAP	49	352	5
NMTAP	50	0	3
NMTAP	50	0	6
NMTAP	50	96	6
NMTAP	50	128	4
NMTAP	50	160	5
NMTAP	50	192	1
NMTAP	50	224	3
NMTAP	50	256	2
NMTAP	50	288	7
NMTAP	50	320	5
NMHLD	50	352	6	176
NMTAP	51	144	4
NMTAP	51	168	4
NMTAP	51	192	5
EXTAP	51	240	2
NMSTR	51	336	0
BRSI_	51	336	0	96	48	4
NMTAP	51	336	4
NMTAP	52	48	7
BRTAP	52	96	7

T_REC_TAP	303
T_REC_BRK	12
T_REC_XTP	8
T_REC_BXX	10
T_REC_HLD	16
T_REC_XHO	1
T_REC_BHO	0
T_REC_BXH	0
T_REC_STR	50
T_REC_BST	1
T_REC_XST	8
T_REC_XBS	2
T_REC_TTP	44
T_REC_THO	0
T_REC_SLD	52
T_REC_BSL	10
T_REC_ALL	517
T_NUM_TAP	413
T_NUM_BRK	35
T_NUM_HLD	17
T_NUM_SLD	52
T_NUM_ALL	517
T_JUDGE_TAP	438
T_JUDGE_HLD	79
T_JUDGE_SLD	62
T_JUDGE_ALL	579
TTM_EACHPAIRS	72
TTM_SCR_TAP	206500
TTM_SCR_BRK	91000
TTM_SCR_HLD	17000
TTM_SCR_SLD	78000
TTM_SCR_ALL	392500
TTM_SCR_S	377350
TTM_SCR_SS	389000
TTM_RAT_ACV	10089

