VERSION	0.00.00	1.04.00
FES_MODE	0
BPM_DEF	104.000	104.000	208.000	104.000
MET_DEF	4	4
RESOLUTION	384
CLK_DEF	384
COMPATIBLE_CODE	MA2

BPM	0	0	104.000
BPM	26	0	208.000
MET	0	0	4	4
MET	9	0	4	2
MET	9	192	4	4
MET	25	192	4	2
MET	26	0	4	4

NMTAP	1	24	3
NMTAP	1	24	4
NMHLD	1	72	2	48
NMTAP	1	120	3
NMHLD	1	168	5	48
NMTAP	1	216	4
NMHLD	1	264	2	48
NMTAP	1	312	4
NMTAP	1	360	2
NMTAP	1	360	4
NMTAP	2	24	3
NMHLD	2	72	5	48
NMTAP	2	120	4
NMHLD	2	168	2	48
NMTAP	2	216	3
NMHLD	2	264	5	48
NMTAP	2	312	3
NMTAP	2	360	3
NMTAP	2	360	5
NMTAP	3	24	4
NMHLD	3	72	2	48
NMTAP	3	120	3
NMHLD	3	168	5	48
NMTAP	3	216	3
NMTAP	3	264	3
NMTAP	3	264	5
NMTAP	3	312	5
NMTAP	3	336	3
NMSTR	4	0	2
NMSXR	4	0	2	96	144	3
NMHLD	4	0	6	96
BXTAP	4	288	7
NMTAP	5	24	3
NMTAP	5	48	4
NMHLD	5	72	5	48
NMTAP	5	120	4
NMTAP	5	144	3
NMHLD	5	168	2	48
NMTAP	5	216	4
NMTAP	5	264	1
NMTAP	5	264	5
NMTAP	5	312	2
NMTAP	5	312	6
NMTAP	5	360	3
NMTAP	5	360	5
NMTAP	6	24	4
NMTAP	6	48	3
NMHLD	6	72	2	48
NMTAP	6	120	3
NMTAP	6	144	4
NMHLD	6	168	5	48
NMTAP	6	216	3
NMHLD	6	264	2	48
NMTAP	6	312	4
NMTAP	6	336	4
NMTAP	7	24	3
NMTAP	7	48	4
NMTAP	7	72	5
NMTAP	7	96	5
NMTAP	7	120	4
NMTAP	7	168	3
NMTAP	7	168	5
NMTAP	7	216	3
NMTAP	7	216	5
NMTAP	7	264	2
NMTAP	7	264	4
NMTAP	7	312	2
NMTAP	7	312	4
NMTAP	8	0	1
NMTAP	8	0	5
NMTAP	8	72	6
NMHLD	8	96	6	48
NMTAP	8	144	7
NMTAP	8	192	4
NMTAP	8	192	5
NMTAP	8	240	2
NMTAP	8	240	3
NMSTR	8	288	0
NMSSL	8	288	0	96	96	4
NMTAP	8	288	1
NMTAP	8	336	0
NMTAP	8	336	1
NMSTR	9	192	0
NMSLR	9	192	0	96	96	4
NMTAP	9	288	6
NMTAP	10	0	7
NMTAP	10	48	7
NMTAP	10	96	4
NMTAP	10	96	6
NMTAP	10	144	4
NMTAP	10	144	6
NMTAP	10	192	3
NMTAP	10	240	2
NMTAP	10	288	1
NMTAP	10	288	3
NMTAP	10	336	1
NMTAP	10	336	3
NMTAP	11	0	4
NMTAP	11	48	5
NMTAP	11	96	4
NMTAP	11	96	6
NMTAP	11	144	4
NMTAP	11	144	6
NMSTR	11	192	7
NMSLL	11	192	7	96	96	3
NMTAP	11	288	1
NMTAP	12	0	0
NMTAP	12	48	0
NMTAP	12	96	1
NMTAP	12	96	3
NMTAP	12	192	4
NMTAP	12	240	5
NMTAP	12	288	4
NMTAP	12	288	6
NMTAP	12	336	4
NMTAP	12	336	6
NMTAP	13	0	3
NMTAP	13	48	3
NMTAP	13	96	2
NMTAP	13	96	4
NMSTR	13	192	5
NMSCR	13	192	5	96	480	2
NMHLD	13	288	4	96
NMHLD	14	96	4	96
NMHLD	14	288	3	96
NMTAP	15	96	3
NMTAP	15	144	2
NMSTR	15	192	2
NMSCL	15	192	2	96	480	5
NMHLD	15	288	3	96
NMHLD	16	96	3	96
NMHLD	16	288	4	96
BRTAP	17	96	3
BRTAP	17	96	5
NMTAP	17	192	2
NMTAP	17	192	6
NMTAP	17	240	5
NMTAP	17	264	4
NMTAP	17	288	6
NMTAP	17	336	2
NMTAP	17	360	3
NMTAP	18	0	1
NMTAP	18	48	5
NMTAP	18	72	4
NMTAP	18	96	6
NMTAP	18	144	7
NMTAP	18	192	0
NMTAP	18	192	1
NMTAP	18	240	2
NMTAP	18	264	3
NMTAP	18	288	1
NMTAP	18	336	5
NMTAP	18	360	4
NMTAP	19	0	6
NMTAP	19	48	2
NMTAP	19	72	3
NMTAP	19	96	1
NMTAP	19	144	0
NMTAP	19	192	6
NMTAP	19	192	7
NMTAP	19	240	5
NMTAP	19	264	4
NMTAP	19	288	6
NMTAP	19	336	2
NMTAP	19	360	3
NMTAP	20	0	1
NMTAP	20	48	5
NMTAP	20	72	4
NMTAP	20	96	6
NMTAP	20	144	2
NMTAP	20	168	3
NMTAP	20	192	1
NMTAP	20	240	6
NMTAP	20	264	4
NMTAP	20	288	5
NMTAP	20	336	1
NMTAP	20	360	3
NMSTR	21	0	2
NMSCR	21	0	2	96	48	5
NMTAP	21	48	2
BRTAP	21	96	6
NMSTR	21	192	7
NMSXR	21	192	7	96	192	3
NMTAP	21	288	2
NMTAP	21	336	2
NMTAP	22	0	1
NMTAP	22	48	1
NMTAP	22	96	0
NMTAP	22	144	0
NMSTR	22	192	0
NMSXL	22	192	0	96	192	4
NMTAP	22	288	5
NMTAP	22	336	5
NMTAP	23	0	6
NMTAP	23	48	6
NMTAP	23	96	7
NMTAP	23	144	7
NMHLD	23	192	4	48
NMHLD	23	192	6	48
NMHLD	23	288	2	48
NMHLD	23	288	4	48
NMHLD	24	0	3	48
NMHLD	24	0	5	48
NMHLD	24	96	1	48
NMHLD	24	96	3	48
NMTTP	24	192	2	E	0	M1
NMTTP	24	208	2	B	0	M1
NMTTP	24	224	3	B	0	M1
NMTTP	24	240	4	E	0	M1
NMTTP	24	288	6	E	0	M1
NMTTP	24	304	5	B	0	M1
NMTTP	24	320	4	B	0	M1
NMTTP	24	336	4	E	0	M1
NMTAP	25	0	2
NMTAP	25	48	2
NMSTR	25	96	1
NMSCL	25	96	1	96	192	4
NMSTR	25	96	6
NMSCR	25	96	6	96	192	3
BRTAP	26	192	0
NMTAP	26	288	1
NMTAP	26	288	7
NMSTR	26	336	1
NMSI_	26	336	1	96	48	4
NMSTR	26	336	7
NMSI_	26	336	7	96	48	4
EXTAP	27	48	1
EXTAP	27	48	7
NMTAP	27	144	2
NMTAP	27	192	2
NMTAP	27	240	3
NMTAP	27	288	3
NMSTR	27	336	1
NMSCR	27	336	1	96	48	4
NMTAP	28	48	5
NMTAP	28	144	6
NMTAP	28	192	6
NMTAP	28	240	4
NMTAP	28	288	4
BXHLD	28	336	5	96
NMTAP	29	48	7
NMHLD	29	96	7	96
NMHLD	29	192	0	96
NMTAP	29	288	2
NMSTR	29	336	2
NMSI_	29	336	2	96	48	5
NMTAP	30	48	7
NMTAP	30	96	7
NMTAP	30	192	4
NMTAP	30	192	6
NMSTR	30	288	6
NMSI_	30	288	6	96	48	4
NMSTR	30	288	7
NMSI_	30	288	7	96	48	3
EXTAP	31	0	6
EXTAP	31	0	7
NMSTR	31	96	0
NMSI_	31	96	0	96	48	4
NMSTR	31	96	1
NMSI_	31	96	1	96	48	3
EXTAP	31	192	0
EXTAP	31	192	1
NMSTR	31	288	6
NMSI_	31	288	6	96	48	4
NMSTR	31	288	7
NMSI_	31	288	7	96	48	3
EXTAP	32	0	6
EXTAP	32	0	7
NMSTR	32	96	0
NMSI_	32	96	0	96	48	4
NMSTR	32	96	1
NMSI_	32	96	1	96	48	3
EXTAP	32	192	0
EXTAP	32	192	1
NMTAP	32	288	6
NMTAP	32	288	7
BRTAP	33	0	6
BRTAP	33	0	7
BRTAP	33	96	4
BRTAP	33	96	5
BRTAP	33	192	2
BRTAP	33	192	3
BRSTR	33	288	0
BRSCL	33	288	0	96	96	5
BRSTR	33	288	1
BRSCR	33	288	1	96	96	4
EXTAP	34	192	3
EXTAP	34	192	6
EXTAP	34	240	3
EXTAP	34	240	6
BRSTR	34	336	2
NMSCL	34	336	2	96	48	7
NMTAP	35	48	4
NMTAP	35	144	5
NMTAP	35	192	5
NMTAP	35	240	4
NMTAP	35	288	4
NMSTR	35	336	6
NMSI_	35	336	6	96	48	0
NMTAP	36	48	3
NMTAP	36	144	2
NMTAP	36	192	2
NMTAP	36	240	3
NMTAP	36	288	3
NMHLD	36	336	1	96
NMTAP	37	48	3
NMHLD	37	96	3	96
NMHLD	37	192	4	96
NMTAP	37	288	6
NMSTR	37	336	6
NMSCL	37	336	6	96	48	3
NMTAP	38	48	0
NMTAP	38	96	0
NMTAP	38	192	1
NMTAP	38	192	3
NMTAP	38	288	0
NMTAP	38	288	4
NMHLD	39	0	5	96
NMHLD	39	96	7	96
NMHLD	39	192	0	96
NMHLD	39	288	2	96
NMSTR	40	0	4
NMSCR	40	0	4	96	96	7
NMTAP	40	96	2
NMSTR	40	192	0
NMSCR	40	192	0	96	96	3
NMTAP	40	288	6
NMHLD	41	0	7	192
NMTAP	41	192	4
NMSTR	41	288	4
NMSXR	41	288	4	96	192	0
NMHLD	42	0	5	192
NMTAP	43	0	1
NMTAP	43	48	1
NMTAP	43	96	3
NMTAP	43	144	3
NMSTR	43	192	2
NMSI_	43	192	2	96	48	7
NMTAP	43	288	5
NMHLD	44	0	6	96
NMTAP	44	96	4
NMTAP	44	144	4
NMTAP	44	240	3
NMTAP	44	240	5
NMTAP	44	336	3
NMTAP	44	336	5
NMTAP	45	48	6
NMTAP	45	96	6
NMTAP	45	144	4
NMSTR	45	192	5
NMSI_	45	192	5	96	48	0
NMTAP	45	288	2
NMTAP	46	0	1
NMHLD	46	48	1	96
NMTAP	46	144	3
NMTAP	46	240	2
NMTAP	46	240	4
NMTAP	46	336	2
NMTAP	46	336	4
NMTAP	47	48	1
NMTAP	47	96	1
NMTAP	47	144	3
NMSTR	47	192	2
NMSI_	47	192	2	96	48	7
NMTAP	47	288	5
NMHLD	48	0	6	96
NMTAP	48	96	4
NMTAP	48	144	4
NMTAP	48	240	3
NMTAP	48	240	5
NMTAP	48	336	2
NMTAP	48	336	6
NMTAP	49	0	2
NMTAP	49	0	6
NMSTR	49	96	1
NMSI_	49	96	1	96	48	5
NMSTR	49	192	7
NMSI_	49	192	7	96	48	3
NMSTR	49	288	0
NMSI_	49	288	0	96	48	4
NMSTR	50	0	6
NMSI_	50	0	6	96	48	2
NMSTR	50	96	1
NMSI_	50	96	1	96	48	4
NMSTR	50	192	5
NMSI_	50	192	5	96	48	0
NMTAP	50	288	2
NMTAP	51	144	3
NMTAP	51	168	4
NMTAP	51	192	2
NMHLD	51	240	2	96
NMTAP	51	336	4
NMTAP	52	48	3
NMTAP	52	48	5
NMTAP	52	96	2
NMTAP	52	96	6

T_REC_TAP	238
T_REC_BRK	10
T_REC_XTP	14
T_REC_BXX	1
T_REC_HLD	44
T_REC_XHO	0
T_REC_BHO	0
T_REC_BXH	1
T_REC_STR	37
T_REC_BST	3
T_REC_XST	0
T_REC_XBS	0
T_REC_TTP	8
T_REC_THO	0
T_REC_SLD	38
T_REC_BSL	2
T_REC_ALL	396
T_NUM_TAP	297
T_NUM_BRK	17
T_NUM_HLD	44
T_NUM_SLD	38
T_NUM_ALL	396
T_JUDGE_TAP	311
T_JUDGE_HLD	108
T_JUDGE_SLD	40
T_JUDGE_ALL	459
TTM_EACHPAIRS	66
TTM_SCR_TAP	148500
TTM_SCR_BRK	44200
TTM_SCR_HLD	44000
TTM_SCR_SLD	57000
TTM_SCR_ALL	293700
TTM_SCR_S	283250
TTM_SCR_SS	292000
TTM_RAT_ACV	10058

