VERSION	0.00.00	1.04.00
FES_MODE	0
BPM_DEF	104.000	104.000	208.000	104.000
MET_DEF	4	4
RESOLUTION	384
CLK_DEF	384
COMPATIBLE_CODE	MA2

BPM	0	0	104.000
BPM	26	0	208.000
MET	0	0	4	4
MET	9	0	4	2
MET	9	192	4	4
MET	25	192	4	2
MET	26	0	4	4

NMHLD	1	0	5	192
NMHLD	1	192	4	192
NMHLD	2	0	3	192
NMTAP	2	192	2
NMHLD	3	0	2	192
NMHLD	3	192	3	192
NMHLD	4	0	4	192
NMTAP	4	192	5
NMTAP	5	0	6
NMTAP	5	192	6
NMTAP	6	0	7
NMTAP	6	192	7
NMTAP	7	0	0
NMTAP	7	192	0
NMTAP	8	0	1
NMTAP	8	192	1
BRTAP	9	0	1
NMTAP	9	192	2
NMTAP	9	288	2
NMTAP	10	0	3
NMTAP	10	96	3
NMTAP	10	192	4
NMTAP	10	288	4
NMTAP	11	0	5
NMTAP	11	192	5
NMTAP	11	288	5
NMTAP	12	0	4
NMTAP	12	96	4
NMTAP	12	192	3
NMTAP	12	288	3
NMTAP	13	0	2
NMSTR	13	192	2
NMSI_	13	192	2	96	192	5
NMSTR	14	192	6
NMSI_	14	192	6	96	192	3
NMSTR	15	192	1
NMSI_	15	192	1	96	192	5
NMSTR	16	192	7
NMSI_	16	192	7	96	192	3
NMTAP	17	192	2
NMTAP	17	288	2
NMTAP	18	0	2
NMTAP	18	0	3
NMTAP	18	96	2
NMTAP	18	96	3
NMTAP	18	192	1
NMTAP	18	288	1
NMTAP	19	0	0
NMTAP	19	0	1
NMTAP	19	192	7
NMTAP	19	288	7
NMTAP	20	0	6
NMTAP	20	0	7
NMTAP	20	96	6
NMTAP	20	96	7
NMTAP	20	192	5
NMTAP	20	288	5
BRTAP	21	0	4
BRTAP	21	0	5
NMTTP	21	192	3	B	0	L1
NMTTP	21	288	2	B	0	L1
NMTTP	22	0	1	B	0	L1
NMTTP	22	192	4	B	0	L1
NMTTP	22	288	5	B	0	L1
NMTTP	23	0	6	B	0	L1
NMTTP	23	192	3	B	0	L1
NMTTP	23	288	2	B	0	L1
NMTTP	24	0	1	B	0	L1
NMTTP	24	96	0	B	0	L1
NMTTP	24	192	7	B	0	L1
NMTTP	24	288	6	B	0	L1
NMTTP	25	0	5	B	0	L1
NMTTP	25	96	4	B	0	L1
NMTAP	26	0	2
NMTAP	26	96	2
NMTAP	26	192	2
EXTAP	27	0	1
EXTAP	27	96	1
EXTAP	27	192	1
NMTAP	28	0	0
NMTAP	28	96	0
NMTAP	28	192	0
NMTAP	29	0	7
NMTAP	29	96	7
NMTAP	29	192	7
NMTAP	30	0	6
NMTAP	30	96	6
NMTAP	30	192	6
BXTAP	31	0	4
BXTAP	31	0	5
BXTAP	31	192	4
BXTAP	31	192	5
BXTAP	32	0	2
BXTAP	32	0	3
BXTAP	32	192	2
BXTAP	32	192	3
NMTAP	33	0	4
NMTAP	33	96	4
NMTAP	33	192	4
NMTAP	34	0	5
NMTAP	34	96	5
NMTAP	34	192	5
EXTAP	35	0	6
EXTAP	35	96	6
EXTAP	35	192	6
NMTAP	36	0	7
NMTAP	36	96	7
NMTAP	36	192	7
NMTAP	37	0	0
NMTAP	37	96	0
NMTAP	37	192	0
NMTAP	38	0	1
NMTAP	38	96	1
NMTAP	38	192	1
NMTAP	39	0	2
NMTAP	39	96	2
NMTAP	39	192	2
NMTAP	40	0	3
NMTAP	40	96	3
NMTAP	40	192	3
NMTAP	41	0	4
NMTAP	41	96	4
NMTAP	41	192	4
BRTAP	42	0	3
BRTAP	42	0	4
NMHLD	43	0	2	192
NMTAP	43	192	3
NMTAP	44	0	2
NMTAP	44	0	3
NMTAP	44	192	2
NMTAP	44	192	3
NMHLD	45	0	5	192
NMTAP	45	192	4
NMTAP	46	0	4
NMTAP	46	0	5
NMTAP	46	192	4
NMTAP	46	192	5
NMHLD	47	0	6	192
NMTAP	47	192	7
NMTAP	48	0	6
NMTAP	48	0	7
NMTAP	48	192	6
NMTAP	48	192	7
NMHLD	49	0	1	192
NMTAP	49	192	0
NMTAP	50	0	0
NMTAP	50	0	1
NMTAP	50	192	0
NMTAP	50	192	1
NMSTR	51	0	0
NMSI_	51	0	0	96	384	3
NMSTR	51	0	7
NMSI_	51	0	7	96	384	4

T_REC_TAP	98
T_REC_BRK	5
T_REC_XTP	6
T_REC_BXX	8
T_REC_HLD	10
T_REC_XHO	0
T_REC_BHO	0
T_REC_BXH	0
T_REC_STR	6
T_REC_BST	0
T_REC_XST	0
T_REC_XBS	0
T_REC_TTP	14
T_REC_THO	0
T_REC_SLD	6
T_REC_BSL	0
T_REC_ALL	153
T_NUM_TAP	124
T_NUM_BRK	13
T_NUM_HLD	10
T_NUM_SLD	6
T_NUM_ALL	153
T_JUDGE_TAP	137
T_JUDGE_HLD	64
T_JUDGE_SLD	6
T_JUDGE_ALL	207
TTM_EACHPAIRS	20
TTM_SCR_TAP	62000
TTM_SCR_BRK	33800
TTM_SCR_HLD	10000
TTM_SCR_SLD	9000
TTM_SCR_ALL	114800
TTM_SCR_S	110100
TTM_SCR_SS	113500
TTM_RAT_ACV	10114

