VERSION	0.00.00	1.04.00
FES_MODE	0
BPM_DEF	104.000	104.000	208.000	104.000
MET_DEF	4	4
RESOLUTION	384
CLK_DEF	384
COMPATIBLE_CODE	MA2

BPM	0	0	104.000
BPM	26	0	208.000
MET	0	0	4	4
MET	9	0	4	2
MET	9	192	4	4
MET	25	192	4	2
MET	26	0	4	4

NMTAP	1	0	3
NMTAP	2	0	3
NMTAP	3	0	4
NMTAP	4	0	4
NMTAP	5	0	5
NMTAP	5	192	5
NMTAP	6	0	4
NMTAP	6	192	4
NMTAP	7	0	3
NMTAP	7	192	3
NMTAP	8	0	2
BXTAP	8	192	2
NMTTP	9	192	3	B	0	L1
NMTTP	10	0	2	B	0	L1
NMTTP	10	192	1	B	0	L1
NMTTP	11	0	0	B	0	L1
NMTTP	11	192	7	B	0	L1
NMTTP	12	0	6	B	0	L1
NMTTP	12	192	5	B	0	L1
NMTTP	13	0	4	B	0	L1
NMTAP	13	192	3
NMTAP	14	0	3
NMTAP	14	192	2
NMTAP	14	192	3
NMTAP	15	0	2
NMTAP	15	0	3
NMTAP	15	192	4
NMTAP	16	0	4
NMTAP	16	192	4
NMTAP	16	192	5
NMTAP	17	0	4
NMTAP	17	0	5
NMTAP	17	192	6
NMTAP	18	0	6
NMTAP	18	192	6
NMTAP	18	192	7
NMTAP	19	0	6
NMTAP	19	0	7
NMTAP	19	192	0
NMTAP	20	0	0
NMTAP	20	192	0
NMTAP	20	192	1
BXTAP	21	0	0
BXTAP	21	0	1
NMHLD	21	192	2	192
NMHLD	22	192	3	192
NMHLD	23	192	4	192
NMHLD	24	192	5	192
BRTAP	25	192	6
NMTAP	26	0	7
NMTAP	26	192	7
NMTAP	27	0	6
NMTAP	27	192	6
NMTAP	28	0	5
NMTAP	28	192	5
NMTAP	29	0	4
NMTAP	29	192	4
NMTAP	30	0	3
NMTAP	30	0	4
NMTAP	31	0	2
NMTAP	31	192	2
NMTAP	32	0	1
NMTAP	33	0	0
NMTAP	33	192	0
NMTAP	34	0	0
NMTAP	34	0	7
NMTAP	34	192	0
NMTAP	34	192	7
NMTAP	35	0	1
NMTAP	35	192	1
NMTAP	36	0	2
NMTAP	36	192	2
NMTAP	37	0	3
NMTAP	37	192	3
NMTAP	38	0	3
NMTAP	38	0	4
NMTAP	39	0	5
NMTAP	39	192	5
NMTAP	40	0	6
NMTAP	41	0	7
NMTAP	41	192	7
BRTAP	42	0	0
NMSTR	43	0	1
NMSI_	43	0	1	96	384	5
NMSTR	45	0	6
NMSI_	45	0	6	96	384	2
NMSTR	47	0	0
NMSI_	47	0	0	96	384	4
NMTAP	49	0	5
NMTAP	49	192	5
NMTAP	50	0	6
NMTAP	50	192	6
EXSTR	51	0	7
NMSI_	51	0	7	96	384	3

T_REC_TAP	69
T_REC_BRK	2
T_REC_XTP	0
T_REC_BXX	3
T_REC_HLD	4
T_REC_XHO	0
T_REC_BHO	0
T_REC_BXH	0
T_REC_STR	3
T_REC_BST	0
T_REC_XST	1
T_REC_XBS	0
T_REC_TTP	8
T_REC_THO	0
T_REC_SLD	4
T_REC_BSL	0
T_REC_ALL	94
T_NUM_TAP	81
T_NUM_BRK	5
T_NUM_HLD	4
T_NUM_SLD	4
T_NUM_ALL	94
T_JUDGE_TAP	86
T_JUDGE_HLD	32
T_JUDGE_SLD	4
T_JUDGE_ALL	122
TTM_EACHPAIRS	12
TTM_SCR_TAP	40500
TTM_SCR_BRK	13000
TTM_SCR_HLD	4000
TTM_SCR_SLD	6000
TTM_SCR_ALL	63500
TTM_SCR_S	61150
TTM_SCR_SS	63000
TTM_RAT_ACV	10079

