VERSION	0.00.00	1.04.00
FES_MODE	0
BPM_DEF	220.000	220.000	220.000	220.000
MET_DEF	4	4
RESOLUTION	384
CLK_DEF	384
COMPATIBLE_CODE	MA2

BPM	0	0	220.000
MET	0	0	4	4

NMHLD	2	0	1	192
NMHLD	2	0	3	192
NMHLD	2	336	2	240
NMTAP	3	96	3
NMTAP	3	192	3
NMTAP	3	288	4
NMHLD	4	0	3	192
NMHLD	4	0	5	192
NMHLD	4	336	6	240
NMTAP	5	96	4
NMTAP	5	192	4
NMTAP	5	288	3
NMTAP	5	288	5
NMTAP	6	0	2
NMHLD	6	0	4	192
NMTAP	6	192	3
NMHLD	6	336	1	240
NMTAP	6	336	3
NMTAP	7	96	2
NMTAP	7	192	2
NMTAP	7	288	1
NMTAP	7	288	3
NMHLD	8	0	2	96
NMHLD	8	0	4	96
NMTAP	8	192	3
NMTAP	8	192	5
BRSTR	8	336	7
NMSF_	8	336	7	96	144	3
NMTAP	10	0	1
NMTAP	10	0	5
NMSTR	10	96	2
NMSI_	10	96	2	96	48	4
NMTAP	10	192	5
NMTAP	10	240	5
NMHLD	10	336	6	144
NMTAP	11	48	4
NMTAP	11	96	4
NMTAP	11	192	5
NMTAP	11	240	5
NMTAP	11	288	4
NMTAP	11	336	4
NMSTR	12	0	6
NMSCL	12	0	6	96	96	4
NMSTR	12	96	4
NMSCL	12	96	4	96	96	2
NMTAP	12	192	2
NMSTR	13	0	1
NMSCR	13	0	1	96	96	3
NMSTR	13	96	3
NMSCR	13	96	3	96	96	5
NMTAP	13	192	5
NMTAP	14	0	4
NMTAP	14	0	6
NMSTR	14	96	5
NMSI_	14	96	5	96	48	3
NMTAP	14	192	2
NMTAP	14	240	2
NMHLD	14	336	1	144
NMTAP	15	48	3
NMTAP	15	96	3
NMTAP	15	192	2
NMTAP	15	240	2
NMTAP	15	288	3
NMTAP	15	336	3
NMSTR	16	0	1
NMSI_	16	0	1	96	96	3
NMSTR	16	96	3
NMSV_	16	96	3	96	96	5
NMTAP	16	192	5
NMSTR	17	0	6
NMSI_	17	0	6	96	96	4
NMSTR	17	96	4
NMSV_	17	96	4	96	96	2
NMTAP	17	192	2
NMTAP	18	0	0
NMTAP	18	96	1
NMTAP	18	96	3
NMTAP	18	192	2
NMHLD	18	240	2	96
NMTAP	18	336	4
NMTAP	19	48	3
NMTAP	19	48	5
NMTAP	19	96	3
NMTAP	19	96	5
NMTAP	19	192	6
NMTAP	19	240	6
NMTAP	19	288	4
NMTAP	19	336	4
NMSTR	20	0	5
NMSCL	20	0	5	96	96	3
NMSTR	20	96	3
NMSXR	20	96	3	96	96	1
NMTAP	20	192	1
NMSTR	21	0	2
NMSCR	21	0	2	96	96	4
NMSTR	21	96	4
NMSXL	21	96	4	96	96	6
NMTAP	21	192	6
NMTAP	22	0	5
NMTAP	22	48	5
NMTAP	22	96	3
NMTAP	22	144	3
NMTAP	22	192	4
NMTAP	22	240	4
NMTAP	22	288	2
NMTAP	22	336	2
NMTAP	23	0	6
NMTAP	23	48	6
NMTAP	23	96	0
NMTAP	23	144	0
NMTAP	23	192	7
NMTAP	23	240	7
NMTAP	23	288	1
NMTAP	23	336	1
NMTAP	24	0	1
NMTAP	24	0	7
NMTAP	24	24	2
NMTAP	24	48	3
NMTAP	24	72	4
NMTAP	24	96	5
NMTAP	24	120	6
NMTAP	24	144	7
NMTAP	24	168	0
NMTAP	24	192	1
NMTAP	24	216	2
NMTAP	24	240	3
NMTAP	24	264	4
NMTAP	24	288	5
NMTAP	24	312	6
NMTAP	24	336	7
NMTAP	24	360	0
EXSTR	25	0	1
NMSI_	25	0	1	96	48	4
EXSTR	25	0	5
NMSI_	25	0	5	96	48	0
EXSTR	25	192	2
NMSI_	25	192	2	96	48	7
EXSTR	25	192	6
NMSI_	25	192	6	96	48	3
BRHLD	26	0	1	96
BRHLD	26	0	5	96
BRTAP	26	192	1
NMTAP	26	216	5
NMTAP	26	240	1
NMTAP	26	264	5
NMTAP	26	288	1
NMTAP	26	312	5
NMTAP	26	336	1
NMTAP	26	360	5
NMTAP	27	0	2
NMTAP	27	24	6
NMTAP	27	48	2
NMTAP	27	72	6
NMTAP	27	96	2
NMTAP	27	120	6
NMTAP	27	144	2
NMTAP	27	168	6
NMSTR	27	192	3
NMSI_	27	192	3	96	48	7
NMTAP	28	0	6
NMTAP	28	48	0
NMTAP	28	96	1
NMTAP	28	96	5
NMTAP	28	144	4
NMTAP	28	192	2
NMTAP	28	192	3
NMTAP	28	240	1
NMTAP	28	288	0
NMTAP	28	288	4
NMTAP	28	336	5
NMTAP	29	0	6
NMTAP	29	48	3
NMTAP	29	96	2
NMTAP	29	96	7
NMTAP	29	144	1
NMTAP	29	192	0
NMTAP	29	240	7
NMTAP	29	288	2
NMTAP	29	288	6
NMTAP	30	0	5
NMTAP	30	48	3
NMTAP	30	96	2
NMTAP	30	96	6
NMTAP	30	144	7
NMTAP	30	192	0
NMTAP	30	192	1
NMTAP	30	240	2
NMTAP	30	288	3
NMTAP	30	288	7
NMTAP	30	336	6
NMTAP	31	0	5
NMTAP	31	48	0
NMTAP	31	96	1
NMTAP	31	96	4
NMTAP	31	144	2
NMTAP	31	192	3
NMTAP	31	240	2
NMTAP	31	288	1
NMSTR	31	288	4
NMSCR	31	288	4	96	288	1
NMTAP	32	0	2
NMTAP	32	96	2
NMTAP	32	192	2
NMTAP	32	288	2
EXSTR	33	0	2
NMSI_	33	0	2	96	48	4
EXSTR	33	96	1
NMSI_	33	96	1	96	48	5
EXSTR	33	192	0
BRSI_	33	192	0	96	48	4
EXTAP	33	288	0
NMSTR	34	0	6
NMSI_	34	0	6	96	48	3
NMTAP	34	48	7
NMTAP	34	96	6
NMTAP	34	144	0
NMSTR	34	192	1
NMSI_	34	192	1	96	48	4
NMTAP	34	240	0
NMTAP	34	288	1
NMTAP	34	336	7
NMSTR	35	0	5
NMSI_	35	0	5	96	48	0
NMTAP	35	48	4
NMTAP	35	96	5
NMTAP	35	144	3
NMSTR	35	192	3
NMSI_	35	192	3	96	48	7
NMTAP	35	240	4
NMTAP	35	288	3
NMSTR	36	0	6
NMSI_	36	0	6	96	48	2
NMTAP	36	48	7
NMTAP	36	96	6
NMTAP	36	144	0
NMSTR	36	192	1
NMSI_	36	192	1	96	48	4
NMTAP	36	240	3
NMTAP	36	288	1
NMTAP	36	336	5
NMSTR	37	0	6
NMSI_	37	0	6	96	48	3
NMTAP	37	48	7
NMTAP	37	96	6
NMTAP	37	144	0
NMSTR	37	192	0
NMSUR	37	192	0	96	48	4
NMTAP	37	240	4
NMTAP	37	288	0
EXTAP	38	0	5
EXTAP	38	48	4
NMTTP	38	96	6	B	0	M1
NMTTP	38	96	7	E	0	M1
EXTAP	38	192	2
EXTAP	38	240	3
NMTTP	38	288	1	B	0	M1
NMTTP	38	288	1	E	0	M1
NMTAP	39	0	5
NMTAP	39	48	4
NMTTP	39	96	7	B	0	M1
NMTTP	39	96	7	A	0	M1
NMTAP	39	192	2
NMTAP	39	240	3
NMTTP	39	288	0	B	0	M1
NMTTP	39	288	0	A	0	M1
NMTAP	40	0	6
NMTAP	40	48	6
NMTAP	40	96	4
NMTAP	40	144	4
NMTAP	40	192	3
NMTAP	40	240	3
NMTAP	40	288	1
NMTAP	40	336	1
NMTAP	41	0	0
NMTAP	41	0	1
NMTAP	41	96	6
NMTAP	41	96	7
NMTTP	41	192	0	C	0	M1
NMTTP	41	192	2	B	0	M1
NMTTP	41	192	5	B	0	M1
NMSTR	42	0	6
NMSXL	42	0	6	96	240	2
NMTAP	42	96	4
NMTAP	42	144	4
NMTAP	42	240	3
NMSTR	42	336	4
NMSI_	42	336	4	96	48	2
NMTAP	43	48	0
CNSI_	43	96	2	0	48	5
CNSI_	43	144	5	0	96	1
NMTAP	43	144	7
NMTAP	43	240	0
NMTAP	43	288	0
NMSTR	44	0	6
NMSXR	44	0	6	96	240	2
NMTAP	44	96	1
NMTAP	44	144	1
NMTAP	44	240	0
NMSTR	44	336	7
NMSI_	44	336	7	96	48	3
NMHLD	45	48	3	240
CNSI_	45	96	3	0	96	5
CNSI_	45	192	5	0	96	1
NMSTR	46	0	0
NMSXR	46	0	0	96	240	5
NMTAP	46	96	4
NMTAP	46	144	4
NMTAP	46	240	3
NMSTR	46	336	4
NMSI_	46	336	4	96	72	6
NMTAP	47	48	3
NMTAP	47	96	3
CNSI_	47	120	6	0	48	2
NMHLD	47	144	3	96
CNSI_	47	168	2	0	120	7
NMSTR	48	0	3
NMSCL	48	0	3	96	96	0
NMSTR	48	96	0
NMSCL	48	96	0	96	96	5
NMSTR	48	192	5
NMSCL	48	192	5	96	96	2
NMSTR	48	288	2
NMSSL	48	288	2	96	144	6
CNSSL	49	144	6	0	144	2
NMSTR	50	0	5
NMSXR	50	0	5	96	240	2
NMTAP	50	96	0
NMTAP	50	144	0
NMTAP	50	240	7
NMSTR	50	336	0
NMSI_	50	336	0	96	72	5
NMTAP	51	48	3
NMTAP	51	96	3
CNSI_	51	120	5	0	72	1
NMTAP	51	144	3
CNSI_	51	192	1	0	96	3
NMTAP	51	240	7
NMTAP	51	288	7
NMSTR	52	0	5
NMSXL	52	0	5	96	240	0
NMTAP	52	96	0
NMTAP	52	144	0
NMTAP	52	240	1
EXSTR	52	336	2
NMSUR	52	336	2	96	240	5
NMTAP	54	0	4
NMTAP	54	0	5
NMTAP	54	48	4
NMTAP	54	48	5
NMTAP	54	96	6
NMTAP	54	192	2
NMTAP	54	192	3
NMTAP	54	240	2
NMTAP	54	240	3
NMTAP	54	288	1
NMTAP	55	0	6
NMTAP	55	0	7
NMTAP	55	48	6
NMTAP	55	48	7
NMTAP	55	96	5
NMTAP	55	192	0
NMTAP	55	192	1
NMTAP	55	240	0
NMTAP	55	240	1
NMTAP	55	288	2
NMTAP	56	0	4
NMTAP	56	0	5
NMTAP	56	48	4
NMTAP	56	48	5
NMTAP	56	96	3
NMTAP	56	96	6
NMTAP	56	144	3
NMTAP	56	144	6
NMTAP	56	192	2
NMTAP	56	192	7
NMTAP	56	240	2
NMTAP	56	240	7
NMTAP	56	288	0
NMTAP	56	288	1
NMTAP	56	336	0
NMTAP	56	336	1
NMTAP	57	0	2
NMTAP	57	0	7
NMTAP	57	48	6
NMTAP	57	72	4
NMTAP	57	96	5
NMSTR	57	144	3
NMSI_	57	144	3	96	48	0
NMSTR	57	192	3
NMSI_	57	192	3	96	48	6
NMHLD	58	0	1	768
BRTAP	58	0	5
NMTAP	59	0	2
NMTAP	59	192	2
NMHLD	60	0	3	768
NMTAP	61	0	4
NMTAP	61	192	4
NMHLD	62	0	4	768
NMTAP	63	0	5
NMTAP	63	192	5
NMHLD	64	0	6	576
NMTAP	65	0	4
NMSTR	65	96	4
NMSI_	65	96	4	96	72	1
CNSI_	65	264	1	0	72	3
NMTAP	66	0	5
NMTAP	66	96	3
NMTAP	66	96	6
NMTAP	66	192	5
NMTAP	66	240	5
NMTAP	66	288	3
NMTAP	66	336	4
NMTAP	67	0	2
NMTAP	67	96	1
NMTAP	67	96	3
NMTAP	67	192	4
NMTAP	67	240	4
NMTAP	67	288	3
NMTAP	67	288	5
NMTAP	68	0	6
NMTAP	68	96	4
NMTAP	68	96	5
NMTAP	68	192	2
NMSTR	68	240	2
NMSUR	68	240	2	96	240	4
NMTAP	68	288	3
NMTAP	68	336	2
NMTAP	69	288	5
NMTAP	70	0	4
NMTAP	70	0	5
NMTAP	70	96	3
NMTAP	70	96	6
NMTAP	70	192	5
NMTAP	70	240	3
NMTAP	70	288	4
NMTAP	70	336	2
NMTAP	71	48	1
NMTAP	71	48	3
NMTAP	71	144	2
NMTAP	71	144	4
NMTAP	71	192	2
NMTAP	71	192	4
NMTAP	71	288	3
NMTAP	71	288	5
NMSTR	72	0	5
NMSCL	72	0	5	96	48	2
NMTAP	72	96	0
NMTAP	72	144	0
NMSTR	72	192	1
NMSCL	72	192	1	96	48	6
NMTAP	72	288	4
NMTAP	72	336	4
NMSTR	73	0	5
NMSCL	73	0	5	96	48	2
NMTAP	73	96	1
NMTAP	73	192	0
NMTAP	73	240	0
NMTAP	73	288	1
NMTAP	73	288	4
NMTAP	74	0	3
NMSTR	74	0	5
NMSCR	74	0	5	96	288	2
NMTAP	74	96	3
NMTAP	74	192	4
NMTAP	74	288	4
NMTAP	75	0	3
NMTAP	75	96	3
NMTAP	75	192	4
NMTAP	75	192	5
NMTAP	75	288	3
NMSTR	76	0	2
NMSCL	76	0	2	96	288	5
NMTAP	76	0	4
NMTAP	76	96	4
NMTAP	76	192	3
NMTAP	76	288	3
NMTAP	77	0	4
NMTAP	77	96	4
NMTAP	77	192	2
NMTAP	77	192	3
NMTAP	77	288	1
NMTAP	77	288	6
NMTAP	78	0	4
NMTAP	78	48	4
NMTAP	78	96	4
NMTAP	78	144	4
NMTAP	78	192	6
NMTAP	78	240	6
NMTAP	78	288	6
NMTAP	78	336	6
NMTAP	79	0	0
NMTAP	79	48	0
NMTAP	79	96	0
NMTAP	79	144	0
NMTAP	79	192	2
NMTAP	79	240	2
NMTAP	79	288	2
NMTAP	79	288	3
NMTAP	80	0	2
NMTAP	80	0	3
NMTAP	80	24	4
NMTAP	80	48	5
NMTAP	80	72	6
NMTAP	80	96	0
NMTAP	80	96	7
NMTAP	80	120	1
NMTAP	80	144	2
NMTAP	80	168	3
NMTAP	80	192	4
NMTAP	80	192	5
NMTAP	80	216	6
NMTAP	80	240	7
NMTAP	80	264	0
NMTAP	80	288	1
NMTAP	80	312	2
NMTAP	80	336	3
NMTAP	80	360	4
NMHLD	81	0	1	96
NMTAP	81	0	5
NMHLD	81	96	3	96
NMHLD	81	192	5	96
BRSTR	81	288	7
NMSSR	81	288	7	96	288	3
BXTAP	83	0	1
BRTAP	83	0	3
BXTAP	83	96	4
BRTAP	83	96	6
BXSTR	83	192	0
NMSI_	83	192	0	96	48	3
BXSTR	83	192	7
NMSI_	83	192	7	96	48	4
BRTAP	83	288	0
BRTAP	83	288	7
NMSTR	84	0	5
BRSI_	84	0	5	96	48	0
NMSTR	84	48	1
NMSI_	84	48	1	96	48	5
NMTAP	84	96	5
NMTAP	84	144	1
NMTAP	84	192	7
NMTAP	84	240	6
NMTAP	84	264	4
NMTAP	84	288	6
NMTAP	84	336	2
NMTAP	84	336	7
NMSTR	85	0	1
BRSI_	85	0	1	96	48	5
NMSTR	85	48	0
NMSI_	85	48	0	96	48	4
NMTAP	85	96	1
NMTAP	85	144	0
EXSTR	85	192	3
NMSI_	85	192	3	96	48	0
NMSV_	85	192	3	96	48	6
BRTAP	85	288	3
NMSTR	86	0	7
NMSUL	86	0	7	96	48	3
NMSTR	86	48	1
BRSI_	86	48	1	96	48	4
NMTAP	86	96	7
NMTAP	86	144	1
NMTAP	86	192	5
NMTAP	86	240	6
NMTAP	86	264	7
NMTAP	86	288	6
NMTAP	86	336	0
NMTAP	86	336	5
NMSTR	87	0	1
BRSI_	87	0	1	96	48	4
NMSTR	87	48	7
BRSI_	87	48	7	96	48	3
NMTAP	87	96	1
CNSLL	87	144	4	0	48	0
NMTAP	87	144	7
BRTAP	87	288	1
BRTAP	87	288	5
NMTAP	88	0	7
NMTAP	88	48	7
NMTAP	88	96	2
NMTAP	88	96	6
NMTAP	88	144	2
NMTAP	88	192	1
NMTAP	88	192	5
NMTAP	88	240	5
NMTAP	88	288	0
NMTAP	88	288	4
NMTAP	88	336	0
NMTAP	89	0	3
NMSTR	89	0	7
NMSI_	89	0	7	96	48	2
NMSTR	89	96	3
BRSI_	89	96	3	96	48	7
NMSTR	89	192	1
NMSI_	89	192	1	96	48	4
NMSI_	89	192	1	96	48	5
BRTAP	89	288	1
NMSTR	90	0	6
NMSI_	90	0	6	96	48	2
NMSTR	90	48	0
BRSI_	90	48	0	96	48	4
NMTAP	90	96	6
NMTAP	90	144	0
NMTAP	90	192	7
EXTAP	90	240	5
EXTAP	90	264	4
EXTAP	90	288	5
NMTAP	90	336	3
NMTAP	90	336	6
NMSTR	91	0	7
NMSI_	91	0	7	96	48	2
NMSTR	91	48	4
NMSI_	91	48	4	96	48	1
NMTAP	91	96	7
NMTAP	91	144	4
NMSTR	91	192	0
NMSCR	91	192	0	96	48	3
BRSV_	91	192	0	96	48	5
BRTAP	91	288	0
NMSTR	92	0	7
NMSUL	92	0	7	96	48	3
NMSTR	92	48	2
NMSI_	92	48	2	96	48	0
NMTAP	92	96	7
NMTAP	92	144	2
NMSTR	92	192	5
NMSI_	92	192	5	96	48	1
NMSTR	92	240	2
NMSI_	92	240	2	96	48	4
NMTAP	92	288	5
NMTAP	92	336	2
NMTAP	93	0	0
NMTAP	93	48	0
NMTAP	93	96	3
NMTAP	93	96	7
NMTAP	93	144	3
NMTAP	93	144	7
NMTAP	93	192	2
NMTAP	93	192	6
NMTAP	93	240	1
NMTAP	93	240	5
NMSTR	93	288	0
BRSI_	93	288	0	96	48	4
NMTAP	93	288	4
NMSTR	94	0	0
BRSI_	94	0	0	96	48	2
NMTAP	94	48	5
NMSTR	94	96	0
BRSI_	94	96	0	96	48	6
NMTAP	94	144	5
NMSTR	94	192	0
BRSCR	94	192	0	96	48	2
NMTAP	94	240	4
NMSTR	94	288	0
BRSUR	94	288	0	96	48	4
NMTAP	94	336	4
NMSTR	95	0	0
BRSI_	95	0	0	96	48	2
NMSTR	95	48	6
BRSI_	95	48	6	96	48	3
NMSTR	95	96	0
BRSI_	95	96	0	96	48	4
NMTAP	95	144	6
BRTAP	95	192	0
CNSLR	95	192	3	0	48	7
BRTAP	95	288	2
NMTAP	96	0	1
NMTAP	96	0	5
NMTAP	96	48	1
NMTAP	96	48	5
NMTAP	96	96	0
NMTAP	96	96	4
NMTAP	96	144	0
NMTAP	96	144	4
NMTAP	96	192	7
NMTAP	96	204	6
NMTAP	96	216	5
NMTAP	96	228	4
NMTAP	96	240	3
NMTAP	96	252	2
NMTAP	96	264	1
NMTAP	96	276	0
NMTAP	96	288	7
NMTAP	96	300	6
NMTAP	96	312	5
NMTAP	96	324	4
NMTAP	96	336	3
NMTAP	96	348	2
NMTAP	96	360	1
NMTAP	96	372	0
NMTAP	97	0	3
NMSTR	97	0	7
NMSI_	97	0	7	96	48	2
NMSTR	97	96	5
BRSI_	97	96	5	96	60	0
NMTAP	97	96	7
NMSTR	97	192	4
NMSI_	97	192	4	96	48	1
NMTAP	97	192	5
NMTAP	97	288	4
NMSTR	97	288	7
BRSF_	97	288	7	96	48	3
NMSTR	98	0	7
BRSCL	98	0	7	96	480	0
NMTTP	98	24	0	C	1	M1
CNSUL	99	192	0	0	576	6
NMTTP	101	192	0	B	0	M1
NMTTP	101	192	0	E	0	M1
NMTTP	101	192	7	B	0	M1
NMTAP	102	0	2
NMTAP	102	0	4
NMTAP	102	96	1
NMTAP	102	192	0
NMTTP	102	192	4	B	0	M1
NMTTP	102	192	4	E	0	M1
NMTTP	102	192	5	E	0	M1
NMTAP	102	288	2
NMTAP	103	0	3
NMTAP	103	0	5
NMTAP	103	96	6
NMTTP	103	192	2	B	0	M1
NMTTP	103	192	3	B	0	M1
NMTTP	103	192	3	E	0	M1
NMTAP	103	192	7
NMSTR	103	288	7
NMSI_	103	288	7	96	72	1
CNSI_	104	72	1	0	72	6
CNSI_	104	144	6	0	96	2
CNSI_	104	240	2	0	96	5
CNSI_	104	336	5	0	48	3
NMSTR	105	0	2
NMSI_	105	0	2	96	48	0
NMSI_	105	0	2	96	48	6
NMSTR	105	192	1
NMSV_	105	192	1	96	48	4
NMSTR	105	192	5
NMSI_	105	192	5	96	48	0
BRHLD	106	0	2	96
BRHLD	106	0	6	96
BRTAP	106	192	6
NMTAP	106	216	2
NMTAP	106	240	6
NMTAP	106	264	2
NMTAP	106	288	6
NMTAP	106	312	2
NMTAP	106	336	6
NMTAP	106	360	2
NMTAP	107	0	5
NMTAP	107	24	1
NMTAP	107	48	5
NMTAP	107	72	1
NMSTR	107	96	5
NMSI_	107	96	5	96	72	2
NMTAP	107	120	1
NMTAP	107	144	5
NMTAP	107	168	1
BRTAP	107	192	5
CNSI_	107	264	2	0	48	4
NMSTR	108	0	1
NMSXR	108	0	1	96	240	6
NMTAP	108	96	3
NMTAP	108	144	3
NMTAP	108	240	4
NMSTR	108	336	5
NMSI_	108	336	5	96	48	2
NMSTR	109	48	1
NMSI_	109	48	1	96	48	6
NMTAP	109	48	5
NMTAP	109	144	1
NMSTR	109	144	5
NMSLR	109	144	5	96	96	2
NMTAP	109	240	3
NMTAP	109	288	3
NMSTR	110	0	1
NMSXR	110	0	1	96	240	5
NMTAP	110	96	5
NMTAP	110	144	5
NMTAP	110	240	4
NMSTR	110	336	3
NMSI_	110	336	3	96	72	6
CNSCL	111	120	6	0	48	4
CNSUL	111	168	4	0	120	7
BXTAP	111	288	2
NMTAP	112	0	0
NMTAP	112	0	1
NMTAP	112	48	0
NMTAP	112	48	1
NMTAP	112	96	2
NMTAP	112	96	7
NMTAP	112	192	6
NMTAP	112	192	7
NMTAP	112	240	6
NMTAP	112	240	7
NMTAP	112	288	0
NMTAP	112	288	5
NMTAP	113	0	2
NMTAP	113	0	3
NMTAP	113	48	2
NMTAP	113	48	3
NMTAP	113	96	1
NMTAP	113	96	4
NMTAP	113	192	4
NMTAP	113	192	5
NMTAP	113	240	4
NMTAP	113	240	5
NMTAP	113	288	3
NMTAP	113	288	6
EXTAP	114	0	1
NMTAP	114	24	0
NMTAP	114	48	2
NMTAP	114	72	7
EXTAP	114	96	3
NMTAP	114	120	6
NMTAP	114	144	4
NMTAP	114	168	5
EXTAP	114	192	7
NMTAP	114	216	6
NMTAP	114	240	0
NMTAP	114	264	5
EXSTR	114	288	1
BRSI_	114	288	1	96	48	5
NMTAP	114	312	4
NMTAP	114	336	2
NMTAP	114	360	3
BRTAP	115	0	1
NMTTP	115	24	0	C	1	M1

T_REC_TAP	515
T_REC_BRK	16
T_REC_XTP	11
T_REC_BXX	3
T_REC_HLD	22
T_REC_XHO	0
T_REC_BHO	4
T_REC_BXH	0
T_REC_STR	90
T_REC_BST	2
T_REC_XST	10
T_REC_XBS	2
T_REC_TTP	22
T_REC_THO	0
T_REC_SLD	87
T_REC_BSL	21
T_REC_ALL	805
T_NUM_TAP	648
T_NUM_BRK	48
T_NUM_HLD	22
T_NUM_SLD	87
T_NUM_ALL	805
T_JUDGE_TAP	671
T_JUDGE_HLD	128
T_JUDGE_SLD	108
T_JUDGE_ALL	907
TTM_EACHPAIRS	111
TTM_SCR_TAP	324000
TTM_SCR_BRK	124800
TTM_SCR_HLD	22000
TTM_SCR_SLD	130500
TTM_SCR_ALL	601300
TTM_SCR_S	578650
TTM_SCR_SS	596500
TTM_RAT_ACV	10080

