VERSION	0.00.00	1.04.00
FES_MODE	0
BPM_DEF	220.000	220.000	220.000	220.000
MET_DEF	4	4
RESOLUTION	384
CLK_DEF	384
COMPATIBLE_CODE	MA2

BPM	0	0	220.000
MET	0	0	4	4

BRSTR	2	0	4
NMSUL	2	0	4	96	672	3
CNSCL	4	0	3	0	576	5
NMTAP	6	0	3
NMTAP	6	96	3
NMHLD	6	192	2	144
NMTAP	7	0	4
NMTAP	7	96	4
NMHLD	7	192	5	144
NMTAP	8	0	4
NMTAP	8	96	3
NMHLD	8	192	2	96
NMHLD	8	192	4	96
BXTAP	8	336	2
BXTAP	8	336	4
BXHLD	10	0	1	768
NMSTR	10	0	7
NMSSR	10	0	7	96	480	3
NMHLD	12	0	3	192
NMTAP	12	96	2
NMHLD	12	192	1	192
NMTAP	12	288	2
NMHLD	13	0	3	192
NMTAP	13	96	2
NMTAP	13	192	1
NMSTR	13	288	0
NMSSR	13	288	0	96	480	4
EXHLD	14	0	6	768
NMHLD	16	0	4	192
NMTAP	16	96	5
NMHLD	16	192	6	192
NMTAP	16	288	5
NMHLD	17	0	4	192
NMTAP	17	96	5
NMTAP	17	192	6
NMTAP	17	288	3
NMTAP	17	288	7
NMTAP	18	0	4
NMTAP	18	0	6
NMTAP	18	96	4
NMTAP	18	96	6
NMTAP	18	192	4
NMTAP	18	192	6
NMTAP	18	288	4
NMTAP	18	288	6
NMTAP	19	0	4
NMTAP	19	0	5
NMTAP	19	96	4
NMTAP	19	96	5
NMTAP	19	192	4
NMTAP	19	192	5
NMTAP	19	288	4
NMTAP	19	288	5
NMTAP	20	0	2
NMTAP	20	0	3
NMTAP	20	96	2
NMTAP	20	96	3
NMTAP	20	192	2
NMTAP	20	192	3
NMTAP	20	288	2
NMTAP	20	288	3
NMTAP	21	0	1
NMTAP	21	0	3
NMTAP	21	96	1
NMTAP	21	96	3
NMTAP	21	192	1
NMTAP	21	192	3
NMTAP	21	288	1
NMTAP	21	288	3
NMTAP	22	0	2
NMTAP	22	48	2
NMTAP	22	96	4
NMTAP	22	144	4
NMTAP	22	192	3
NMTAP	22	240	3
NMTAP	22	288	5
NMTAP	22	336	5
NMTAP	23	0	3
NMTAP	23	48	3
NMTAP	23	96	4
NMTAP	23	144	4
NMTAP	23	192	2
NMTAP	23	240	2
NMTAP	23	288	5
NMTAP	23	336	5
NMTAP	24	0	1
NMTAP	24	48	1
NMTAP	24	96	6
NMTAP	24	144	6
NMTAP	24	192	0
NMTAP	24	192	7
NMTAP	24	240	0
NMTAP	24	240	7
NMTAP	24	288	0
NMTAP	24	288	7
EXHLD	25	0	1	384
EXHLD	25	0	6	192
NMTTP	26	0	0	C	1	M1
EXTAP	26	192	0
EXTAP	26	216	7
EXTAP	26	240	0
EXTAP	26	264	7
EXTAP	26	288	0
EXTAP	26	312	7
EXTAP	26	336	0
EXTAP	26	360	7
EXTAP	27	0	0
EXTAP	27	24	7
EXTAP	27	48	0
EXTAP	27	72	7
EXTAP	27	96	0
EXTAP	27	120	7
EXTAP	27	144	0
EXTAP	27	168	7
EXTAP	27	192	0
BXTAP	27	288	1
BXTAP	27	288	6
NMTAP	28	0	2
NMTAP	28	96	2
NMTAP	28	96	3
NMTAP	28	192	5
NMTAP	28	240	5
NMTAP	28	288	4
NMTAP	29	0	2
NMTAP	29	0	3
NMTAP	29	96	0
NMTAP	29	96	1
NMTAP	29	192	6
NMTAP	29	240	6
NMTAP	29	288	7
NMTAP	30	0	0
NMTAP	30	0	5
NMTAP	30	96	2
NMTAP	30	96	3
NMTAP	30	192	4
NMTAP	30	192	5
NMTAP	30	288	4
NMTAP	30	288	5
NMTAP	31	0	3
NMTAP	31	48	3
NMTAP	31	96	4
NMTAP	31	144	4
NMTAP	31	192	2
EXTAP	31	288	1
NMSTR	31	288	3
BRSI_	31	288	3	96	240	7
NMTAP	32	0	2
NMTAP	32	96	2
NMTAP	32	192	2
NMTAP	32	288	2
EXTAP	33	0	2
NMHLD	33	0	7	192
EXTAP	33	96	1
EXTAP	33	192	0
BRTAP	33	288	1
BRTAP	33	288	5
NMTAP	34	0	6
NMTAP	34	0	7
NMTAP	34	96	6
NMTAP	34	96	7
NMTAP	34	192	5
NMTAP	34	240	5
NMTAP	34	288	4
NMTAP	35	0	2
NMTAP	35	48	2
NMTAP	35	96	3
NMTAP	35	192	1
NMTAP	35	192	4
NMTAP	35	288	3
NMTAP	35	288	6
NMTAP	36	0	0
NMTAP	36	0	1
NMTAP	36	96	0
NMTAP	36	96	1
NMTAP	36	192	2
NMTAP	36	240	2
NMTAP	36	288	3
NMTAP	37	0	5
NMTAP	37	48	5
NMTAP	37	96	4
NMTAP	37	192	3
NMTAP	37	192	6
NMTAP	37	288	1
NMTAP	37	288	4
NMHLD	38	0	0	96
NMTAP	38	96	3
NMTAP	38	144	3
NMTAP	38	192	1
NMTAP	38	240	1
NMTAP	38	288	4
NMTAP	38	336	4
NMTAP	39	0	2
NMTAP	39	48	2
NMTAP	39	96	5
NMTAP	39	144	5
NMTAP	39	192	3
NMTAP	39	240	3
NMTAP	39	288	6
NMTAP	39	336	6
NMTAP	40	0	4
NMTAP	40	48	4
NMTAP	40	96	7
NMTAP	40	144	7
NMTAP	40	192	4
NMTAP	40	240	4
NMHLD	40	288	7	192
EXTAP	41	0	5
EXTAP	41	96	5
EXTAP	41	192	0
EXTAP	41	192	7
BRTAP	41	288	1
BRTAP	41	288	6
NMTAP	42	0	2
NMHLD	42	0	5	1152
NMTAP	42	96	7
NMTAP	42	192	4
NMSTR	42	288	6
NMSI_	42	288	6	96	96	1
CNSI_	43	96	1	0	96	4
EXTAP	44	0	4
NMTAP	44	96	7
NMTAP	44	192	4
NMTAP	44	288	6
NMTAP	45	0	4
NMTAP	45	96	6
NMTAP	45	96	7
NMTAP	45	192	4
NMTAP	45	192	5
NMTAP	45	288	0
NMTAP	45	288	1
NMHLD	46	0	2	1248
NMTAP	46	0	3
NMTAP	46	96	7
NMTAP	46	192	3
NMSTR	46	288	0
NMSI_	46	288	0	96	96	6
CNSI_	47	96	6	0	96	1
CNSI_	47	192	1	0	96	4
NMTAP	48	0	5
NMTAP	48	96	7
NMTAP	48	192	3
NMTAP	48	288	0
BRHLD	49	0	6	96
NMTTP	49	192	3	E	0	M1
NMTTP	49	192	6	E	0	M1
NMTAP	50	0	2
NMHLD	50	0	5	384
NMTAP	50	96	4
NMTAP	50	192	1
NMSTR	50	288	4
NMSI_	50	288	4	96	96	1
CNSI_	51	96	1	0	96	5
CNSI_	51	192	5	0	96	0
NMHLD	52	0	6	192
NMTAP	52	96	7
NMHLD	52	192	1	192
NMSTR	52	288	0
NMSXL	52	288	0	96	288	5
NMTAP	54	0	6
NMTAP	54	0	7
NMTAP	54	96	6
NMTAP	54	96	7
NMTAP	54	192	0
NMTAP	54	192	1
NMTAP	54	288	0
NMTAP	54	288	1
NMTAP	55	0	6
NMTAP	55	0	7
NMTAP	55	96	0
NMTAP	55	96	5
NMTAP	55	192	0
NMTAP	55	192	1
NMTAP	55	288	2
NMTAP	55	288	7
NMTAP	56	0	1
NMTAP	56	48	1
NMTAP	56	96	7
NMTAP	56	144	7
NMTAP	56	192	0
NMTAP	56	240	0
NMTAP	56	288	6
NMTAP	56	336	6
BXHLD	57	0	0	144
BXHLD	57	0	6	144
EXTAP	57	192	0
EXTAP	57	192	6
EXTAP	57	288	2
EXTAP	57	288	4
NMTTP	58	0	0	C	1	M1
NMTTP	58	0	1	B	0	M1
NMTTP	58	0	5	B	0	M1
NMTTP	62	0	2	E	0	M1
NMTTP	62	192	3	E	0	M1
NMTTP	63	0	4	E	0	M1
NMTTP	63	192	0	C	0	M1
NMTTP	63	192	5	E	0	M1
NMTTP	64	0	6	E	0	M1
NMTTP	64	192	7	E	0	M1
NMTTP	65	0	0	E	0	M1
NMTTP	65	192	0	C	0	M1
NMTTP	65	192	1	E	0	M1
NMSTR	66	0	0
NMSI_	66	0	0	96	192	4
NMTAP	66	288	5
NMSTR	67	0	5
NMSCR	67	0	5	96	192	0
NMTAP	67	288	1
NMSTR	68	0	1
NMSCR	68	0	1	96	192	4
NMTAP	68	288	6
NMSTR	69	0	6
NMSUL	69	0	6	96	192	2
NMTAP	69	288	1
NMHLD	70	0	1	192
NMHLD	70	192	2	192
NMHLD	71	0	3	192
NMHLD	71	192	4	192
NMHLD	72	0	5	192
NMTAP	72	192	4
NMTAP	72	288	4
NMTAP	72	288	5
NMTAP	73	0	3
NMTAP	73	48	3
NMTAP	73	96	4
NMTAP	73	192	3
NMTAP	73	192	5
NMTAP	73	288	3
NMTAP	73	288	5
NMTAP	74	0	4
NMHLD	74	0	6	384
NMTAP	74	96	4
NMTAP	74	192	4
NMTAP	74	288	4
NMTTP	75	0	4	E	0	M1
NMTTP	75	96	3	E	0	M1
NMTTP	75	192	1	B	0	M1
NMTTP	75	192	2	E	0	M1
NMHLD	76	0	2	384
NMTAP	76	0	4
NMTAP	76	96	4
NMTAP	76	192	3
NMTAP	76	288	3
NMTTP	77	0	4	E	0	M1
NMTTP	77	96	5	E	0	M1
NMTTP	77	192	6	B	0	M1
NMTTP	77	192	6	E	0	M1
NMTAP	78	0	3
NMTAP	78	48	3
NMTAP	78	96	5
NMTAP	78	144	5
NMTAP	78	192	2
NMTAP	78	240	2
NMTAP	78	288	4
NMTAP	78	336	4
NMTAP	79	0	3
NMTAP	79	48	3
NMTAP	79	96	5
NMTAP	79	144	5
NMTAP	79	192	2
NMTAP	79	240	2
NMTAP	79	288	6
NMTAP	79	336	6
NMTAP	80	0	0
NMTAP	80	24	7
NMTAP	80	48	0
NMTAP	80	72	7
NMTAP	80	96	0
NMTAP	80	120	7
NMTAP	80	144	0
NMTAP	80	168	7
NMTAP	80	192	0
NMTAP	80	216	7
NMTAP	80	240	0
NMTAP	80	264	7
NMSTR	80	288	0
NMSSL	80	288	0	96	288	4
BXTAP	81	288	7
NMHLD	82	0	3	288
NMHLD	82	0	6	384
EXTAP	83	0	2
EXTAP	83	96	1
EXSTR	83	192	0
BRSI_	83	192	0	96	48	4
BRTAP	83	288	7
NMTAP	84	0	3
NMSTR	84	0	6
NMSI_	84	0	6	96	48	3
NMSTR	84	96	2
NMSI_	84	96	2	96	48	7
NMTAP	84	192	4
NMTAP	84	288	0
NMTAP	84	288	6
NMSTR	85	0	1
NMSI_	85	0	1	96	48	4
NMSTR	85	96	5
NMSI_	85	96	5	96	48	0
NMTAP	85	192	3
NMTAP	85	288	1
NMTAP	85	288	7
NMSTR	86	0	6
NMSI_	86	0	6	96	48	3
NMSTR	86	96	2
NMSI_	86	96	2	96	48	7
NMTAP	86	192	4
NMTAP	86	288	0
NMTAP	86	288	6
NMSTR	87	0	1
NMSI_	87	0	1	96	48	4
NMSTR	87	0	5
NMSI_	87	0	5	96	48	0
EXTAP	87	192	3
EXTAP	87	192	7
BRTAP	87	288	1
BRTAP	87	288	5
NMTAP	88	0	6
NMTAP	88	48	6
NMTAP	88	96	0
NMTAP	88	144	0
NMTAP	88	192	7
NMTAP	88	240	7
NMTAP	88	288	1
NMTAP	88	336	1
EXTAP	89	0	1
EXTAP	89	0	7
NMTAP	89	96	2
NMTAP	89	96	3
NMTAP	89	192	4
NMTAP	89	192	5
BRTAP	89	288	0
BRTAP	89	288	7
NMTAP	90	0	5
NMTAP	90	48	5
NMSTR	90	96	7
NMSI_	90	96	7	96	48	2
NMSTR	90	192	6
NMSI_	90	192	6	96	48	3
EXTAP	90	288	3
NMTAP	91	0	2
NMTAP	91	48	2
NMSTR	91	96	0
NMSI_	91	96	0	96	48	5
NMSTR	91	192	1
NMSI_	91	192	1	96	48	4
EXTAP	91	288	4
NMTAP	92	0	5
NMTAP	92	48	5
NMSTR	92	96	7
NMSI_	92	96	7	96	48	2
NMSTR	92	192	6
NMSI_	92	192	6	96	48	3
EXTAP	92	288	3
NMSTR	93	0	0
NMSI_	93	0	0	96	48	4
NMSTR	93	0	1
NMSI_	93	0	1	96	48	4
BRTAP	93	192	2
BRTAP	93	192	6
BRTAP	93	288	0
BRTAP	93	288	4
NMSTR	94	0	1
NMSI_	94	0	1	96	48	3
NMTAP	94	48	1
NMSTR	94	96	0
NMSI_	94	96	0	96	48	4
NMTAP	94	144	0
EXTAP	94	192	1
NMTAP	94	288	3
NMTAP	94	288	5
NMSTR	95	0	6
NMSI_	95	0	6	96	48	4
NMTAP	95	48	6
NMSTR	95	96	7
NMSI_	95	96	7	96	48	3
NMTAP	95	144	7
EXTAP	95	192	6
NMTAP	95	288	2
NMTAP	95	288	4
NMTAP	96	0	1
NMTAP	96	48	1
NMTAP	96	96	0
NMTAP	96	144	0
NMTAP	96	192	7
NMTAP	96	240	7
NMTAP	96	288	6
NMTAP	96	336	6
NMTAP	97	0	0
NMTAP	97	0	7
NMTAP	97	48	0
NMTAP	97	48	7
NMTAP	97	96	0
NMTAP	97	96	7
NMTAP	97	144	0
NMTAP	97	144	7
BRTAP	97	192	0
BRTAP	97	192	7
BRSTR	97	288	1
NMSCR	97	288	1	96	768	7
BRTAP	97	288	6
NMTTP	98	0	0	C	1	M1
CNSUR	100	0	7	0	384	0
NMHLD	102	0	1	144
NMTAP	102	144	3
NMTAP	102	192	3
NMTAP	102	288	2
NMTAP	102	288	4
NMHLD	103	0	6	144
NMTAP	103	144	4
NMTAP	103	192	4
NMTAP	103	288	3
NMSTR	103	288	5
NMSCR	103	288	5	96	288	2
NMTTP	104	0	4	E	1	M1
EXHLD	105	0	0	96
EXHLD	105	0	1	96
EXHLD	105	192	6	96
EXHLD	105	192	7	96
BXHLD	106	0	0	96
BXHLD	106	0	7	96
NMTAP	106	192	0
NMTAP	106	216	7
NMTAP	106	240	0
NMTAP	106	264	7
NMTAP	106	288	0
NMTAP	106	312	7
NMTAP	106	336	0
NMTAP	106	360	7
NMTAP	107	0	1
NMTAP	107	24	6
NMTAP	107	48	1
NMTAP	107	72	6
NMTAP	107	96	1
NMTAP	107	120	6
NMTAP	107	144	1
NMTAP	107	168	6
BRTAP	107	192	1
NMTAP	108	0	4
NMTAP	108	0	5
NMTAP	108	96	7
NMTAP	108	192	3
NMTAP	108	192	5
NMTAP	108	240	6
NMTAP	108	288	1
NMTAP	108	288	7
NMTAP	109	0	2
NMTAP	109	0	3
NMTAP	109	96	0
NMTAP	109	192	2
NMTAP	109	192	4
NMTAP	109	240	1
NMTAP	109	288	0
NMTAP	109	288	6
NMTAP	110	0	4
NMTAP	110	0	5
NMTAP	110	96	0
NMTAP	110	192	4
NMTAP	110	192	5
NMTAP	110	240	6
NMTAP	110	288	1
NMSTR	110	288	7
NMSSL	110	288	7	96	288	3
EXTAP	111	288	0
NMTAP	112	0	2
NMTAP	112	48	2
NMTAP	112	96	1
NMTAP	112	96	3
NMTAP	112	192	5
NMTAP	112	240	5
NMTAP	112	288	4
NMTAP	112	288	6
NMTAP	113	0	1
NMTAP	113	48	1
NMTAP	113	96	0
NMTAP	113	96	2
NMTAP	113	192	6
NMTAP	113	240	6
NMTAP	113	288	5
NMTAP	113	288	7
NMTAP	114	0	0
NMTAP	114	0	1
NMTAP	114	48	0
NMTAP	114	48	1
NMTAP	114	96	2
NMTAP	114	96	7
NMTAP	114	192	6
NMTAP	114	192	7
NMTAP	114	240	6
NMTAP	114	240	7
BRSTR	114	288	0
BRSI_	114	288	0	96	48	4
BRSTR	114	288	5
BRSI_	114	288	5	96	48	2

T_REC_TAP	374
T_REC_BRK	17
T_REC_XTP	42
T_REC_BXX	5
T_REC_HLD	29
T_REC_XHO	7
T_REC_BHO	1
T_REC_BXH	5
T_REC_STR	34
T_REC_BST	4
T_REC_XST	1
T_REC_XBS	0
T_REC_TTP	26
T_REC_THO	0
T_REC_SLD	35
T_REC_BSL	4
T_REC_ALL	584
T_NUM_TAP	477
T_NUM_BRK	36
T_NUM_HLD	36
T_NUM_SLD	35
T_NUM_ALL	584
T_JUDGE_TAP	503
T_JUDGE_HLD	230
T_JUDGE_SLD	39
T_JUDGE_ALL	772
TTM_EACHPAIRS	114
TTM_SCR_TAP	238500
TTM_SCR_BRK	93600
TTM_SCR_HLD	36000
TTM_SCR_SLD	52500
TTM_SCR_ALL	420600
TTM_SCR_S	404500
TTM_SCR_SS	417000
TTM_RAT_ACV	10086

