VERSION	0.00.00	1.04.00
FES_MODE	0
BPM_DEF	220.000	220.000	220.000	220.000
MET_DEF	4	4
RESOLUTION	384
CLK_DEF	384
COMPATIBLE_CODE	MA2

BPM	0	0	220.000
MET	0	0	4	4

NMTAP	2	0	6
NMTAP	2	96	6
NMTAP	2	192	6
NMTAP	3	0	5
NMTAP	3	96	5
NMTAP	3	192	5
NMTAP	4	0	4
NMTAP	4	96	4
NMTAP	4	192	4
NMTAP	5	0	2
NMTAP	5	0	3
NMTAP	5	192	2
NMTAP	5	192	3
NMTAP	6	0	1
NMTAP	6	96	1
NMTAP	6	192	1
NMTAP	7	0	2
NMTAP	7	96	2
NMTAP	7	192	2
NMTAP	8	0	3
NMTAP	8	96	3
NMTAP	8	192	3
NMTAP	9	0	4
NMTAP	9	0	5
NMTAP	9	192	4
NMTAP	9	192	5
NMHLD	10	0	6	192
NMTAP	10	192	7
NMTAP	11	0	6
NMTAP	11	0	7
NMTAP	11	192	6
NMTAP	11	192	7
NMHLD	12	0	5	192
NMTAP	12	192	4
NMTAP	13	0	4
NMTAP	13	0	5
NMTAP	13	192	4
NMTAP	13	192	5
NMHLD	14	0	2	192
NMTAP	14	192	3
NMTAP	15	0	2
NMTAP	15	0	3
NMTAP	15	192	2
NMTAP	15	192	3
NMHLD	16	0	1	192
NMTAP	16	192	0
NMTAP	17	0	0
NMTAP	17	0	1
NMTAP	17	192	0
NMTAP	17	192	1
NMTAP	18	0	1
NMTAP	18	96	1
NMTAP	18	192	0
NMTAP	18	192	1
NMTAP	19	0	2
NMTAP	19	96	2
NMTAP	19	192	2
NMTAP	19	192	3
NMTAP	20	0	4
NMTAP	20	96	4
NMTAP	20	192	4
NMTAP	20	192	5
NMTAP	21	0	6
NMTAP	21	0	7
NMTAP	21	96	6
NMTAP	21	96	7
NMTAP	21	192	6
NMTAP	21	192	7
NMTAP	22	0	6
NMTAP	22	96	6
NMTAP	22	192	6
NMTAP	22	192	7
NMTAP	23	0	5
NMTAP	23	96	5
NMTAP	23	192	4
NMTAP	23	192	5
NMTAP	24	0	3
NMTAP	24	96	3
NMTAP	24	192	2
NMTAP	24	192	3
NMTAP	25	0	0
NMTAP	25	0	1
NMTAP	25	96	0
NMTAP	25	96	1
NMTAP	25	192	0
NMTAP	25	192	1
NMSTR	26	0	0
NMSI_	26	0	0	96	288	3
NMSTR	26	0	7
NMSI_	26	0	7	96	288	4
EXTAP	27	192	3
EXTAP	27	192	4
NMTAP	28	0	5
NMTAP	28	96	5
NMTAP	28	192	6
NMTAP	28	288	6
NMTAP	29	0	7
NMTAP	29	96	7
NMTAP	29	192	0
NMTAP	29	192	1
NMTAP	30	0	2
NMTAP	30	96	2
NMTAP	30	192	1
NMTAP	30	288	1
NMTAP	31	0	0
NMTAP	31	96	0
NMTAP	31	192	6
NMTAP	31	192	7
NMTAP	32	0	6
NMTAP	32	96	6
NMTAP	32	192	6
NMTAP	32	192	7
NMTAP	33	0	1
NMTAP	33	96	1
NMTAP	33	192	0
NMTAP	33	192	1
BRTAP	34	0	2
NMTAP	34	96	2
NMTAP	34	192	1
NMTAP	34	288	1
NMTAP	35	0	0
NMTAP	35	96	0
NMTAP	35	192	6
NMTAP	35	192	7
NMTAP	36	0	5
NMTAP	36	96	5
NMTAP	36	192	6
NMTAP	36	288	6
NMTAP	37	0	7
NMTAP	37	96	7
NMTAP	37	192	0
NMTAP	37	192	1
NMTAP	38	0	1
NMTAP	38	96	1
NMTAP	38	192	2
NMTAP	38	288	2
NMTAP	39	0	3
NMTAP	39	96	3
NMTAP	39	192	4
NMTAP	39	192	5
NMTAP	40	0	6
NMTAP	40	96	6
NMTAP	40	192	5
NMTAP	40	288	5
NMTAP	41	0	4
NMTAP	41	96	4
NMTAP	41	192	2
NMTAP	41	192	3
NMHLD	42	0	2	192
NMHLD	42	192	3	192
NMHLD	43	0	4	192
NMTAP	43	192	5
NMHLD	44	0	5	192
NMHLD	44	192	4	192
NMHLD	45	0	3	192
NMTAP	45	192	2
NMHLD	46	0	1	192
NMHLD	46	192	0	192
NMHLD	47	0	7	192
NMTAP	47	192	6
NMHLD	48	0	6	192
NMHLD	48	192	7	192
NMHLD	49	0	0	192
NMTAP	49	192	1
NMTAP	50	0	2
NMTAP	50	96	2
NMTAP	50	192	2
NMTAP	50	288	2
NMTAP	51	0	1
NMTAP	51	96	1
NMTAP	51	192	1
NMTAP	51	288	1
NMTAP	52	0	0
NMTAP	52	96	0
NMTAP	52	192	0
NMTAP	52	288	0
NMTAP	53	0	6
NMTAP	53	0	7
NMTAP	54	0	5
NMTAP	54	96	5
NMTAP	54	192	5
NMTAP	54	288	5
NMTAP	55	0	6
NMTAP	55	96	6
NMTAP	55	192	6
NMTAP	55	288	6
NMTAP	56	0	7
NMTAP	56	96	7
NMTAP	56	192	7
NMTAP	56	288	7
NMTAP	57	0	0
NMTAP	57	0	1
NMSTR	58	0	7
NMSI_	58	0	7	96	288	3
NMTAP	59	192	2
NMSTR	60	0	2
NMSI_	60	0	2	96	288	5
NMTAP	61	192	6
NMSTR	62	0	6
NMSI_	62	0	6	96	288	2
NMTAP	63	192	1
NMSTR	64	0	0
NMSI_	64	0	0	96	288	4
NMTAP	65	192	4
NMTAP	65	192	5
NMTTP	66	0	6	B	0	L1
NMTTP	66	96	5	B	0	L1
NMTTP	66	192	4	B	0	L1
NMTTP	67	0	1	B	0	L1
NMTTP	67	96	2	B	0	L1
NMTTP	67	192	3	B	0	L1
NMTTP	68	0	6	B	0	L1
NMTTP	68	96	5	B	0	L1
NMTTP	68	192	4	B	0	L1
NMTTP	68	288	3	B	0	L1
NMTTP	69	0	2	B	0	L1
NMTTP	69	96	1	B	0	L1
NMTTP	69	192	0	C	0	L1
NMTTP	70	0	0	B	0	L1
NMTTP	70	96	1	B	0	L1
NMTTP	70	192	2	B	0	L1
NMTTP	70	192	3	B	0	L1
NMTTP	71	0	7	B	0	L1
NMTTP	71	96	6	B	0	L1
NMTTP	71	192	4	B	0	L1
NMTTP	71	192	5	B	0	L1
NMTTP	72	0	1	B	0	L1
NMTTP	72	96	2	B	0	L1
NMTTP	72	192	3	B	0	L1
NMTTP	72	288	4	B	0	L1
NMTTP	73	0	5	B	0	L1
NMTTP	73	96	6	B	0	L1
NMTTP	73	192	0	C	0	L1
NMTAP	74	0	7
NMTAP	74	96	7
NMTAP	74	192	6
NMTAP	74	288	6
NMTAP	75	0	5
NMTAP	75	96	5
NMTAP	75	192	4
NMTAP	75	288	4
NMTAP	76	0	3
NMTAP	76	96	3
NMTAP	76	192	2
NMTAP	76	288	2
NMTAP	77	0	1
NMTAP	77	96	1
NMTAP	77	192	0
NMTAP	77	192	7
NMTAP	78	0	0
NMTAP	78	96	0
NMTAP	78	192	1
NMTAP	78	288	1
NMTAP	79	0	2
NMTAP	79	96	2
NMTAP	79	192	3
NMTAP	79	288	3
NMTAP	80	0	4
NMTAP	80	96	4
NMTAP	80	192	5
NMTAP	80	288	5
NMTAP	81	0	6
NMTAP	81	96	6
NMTAP	81	192	0
NMTAP	81	192	7
NMSTR	82	0	0
NMSCR	82	0	0	96	288	3
NMSTR	82	0	7
NMSCL	82	0	7	96	288	4
EXTAP	83	192	3
EXTAP	83	192	4
NMTAP	84	0	2
NMTAP	84	96	2
NMTAP	84	192	0
NMTAP	84	192	1
NMTAP	84	288	0
NMTAP	84	288	1
NMTAP	85	0	7
NMTAP	85	96	7
NMTAP	85	192	6
NMTAP	85	192	7
NMTAP	86	0	5
NMTAP	86	96	5
NMTAP	86	192	6
NMTAP	86	192	7
NMTAP	86	288	6
NMTAP	86	288	7
NMTAP	87	0	0
NMTAP	87	96	0
NMTAP	87	192	0
NMTAP	87	192	1
NMTAP	88	0	2
NMTAP	88	96	1
NMTAP	88	192	0
NMTAP	88	288	7
NMTAP	89	0	6
NMTAP	89	96	5
NMTAP	89	192	3
NMTAP	89	192	4
EXTAP	90	0	5
EXTAP	90	48	5
EXTAP	90	96	5
NMTAP	90	192	6
NMTAP	90	192	7
NMTAP	90	288	6
NMTAP	90	288	7
NMTAP	91	0	0
NMTAP	91	48	0
NMTAP	91	96	0
NMTAP	91	192	0
NMTAP	91	192	1
NMTAP	92	0	2
NMTAP	92	48	2
NMTAP	92	96	2
NMTAP	92	192	0
NMTAP	92	192	1
NMTAP	92	288	0
NMTAP	92	288	1
NMTAP	93	0	7
NMTAP	93	48	7
NMTAP	93	96	7
NMTAP	93	192	6
NMTAP	93	192	7
NMTAP	94	0	6
NMTAP	94	48	6
NMTAP	94	96	6
NMTAP	94	192	4
NMTAP	94	192	5
NMTAP	94	288	4
NMTAP	94	288	5
NMTAP	95	0	3
NMTAP	95	48	3
NMTAP	95	96	3
NMTAP	95	192	2
NMTAP	95	192	3
NMTAP	96	0	1
NMTAP	96	48	1
NMTAP	96	96	1
NMTAP	96	192	2
NMTAP	96	192	3
NMTAP	96	288	2
NMTAP	96	288	3
NMTAP	97	0	4
NMTAP	97	48	4
NMTAP	97	96	4
NMTAP	97	192	4
NMTAP	97	192	5
NMSTR	98	0	6
NMSI_	98	0	6	96	288	3
NMTAP	99	192	2
NMSTR	100	0	2
NMSI_	100	0	2	96	288	7
NMTAP	101	192	6
NMSTR	102	0	5
NMSI_	102	0	5	96	288	0
NMTAP	103	192	1
NMSTR	104	0	1
NMSUR	104	0	1	96	672	4
EXHLD	106	192	4	384
EXHLD	106	192	5	384
NMTAP	108	0	6
NMTAP	108	96	6
NMTAP	108	192	6
NMTAP	108	288	6
NMTAP	108	288	7
NMTAP	109	0	5
NMTAP	109	96	5
NMTAP	109	192	5
NMTAP	109	288	4
NMTAP	109	288	5
NMTAP	110	0	3
NMTAP	110	96	3
NMTAP	110	192	3
NMTAP	110	288	2
NMTAP	110	288	3
NMTAP	111	0	1
NMTAP	111	96	1
NMTAP	111	192	0
NMTAP	111	192	1
NMTAP	112	0	0
NMTAP	112	96	1
NMTAP	112	192	2
NMTAP	112	288	3
NMTAP	113	0	4
NMTAP	113	96	5
NMTAP	113	192	6
NMTAP	113	288	7
NMTAP	114	0	0
NMTAP	114	0	7
NMTAP	114	96	0
NMTAP	114	96	7
NMTAP	114	192	1
NMTAP	114	192	6
NMTAP	114	288	1
NMTAP	114	288	6
BXTAP	115	0	2
BXTAP	115	0	5

T_REC_TAP	317
T_REC_BRK	1
T_REC_XTP	7
T_REC_BXX	2
T_REC_HLD	16
T_REC_XHO	2
T_REC_BHO	0
T_REC_BXH	0
T_REC_STR	12
T_REC_BST	0
T_REC_XST	0
T_REC_XBS	0
T_REC_TTP	28
T_REC_THO	0
T_REC_SLD	12
T_REC_BSL	0
T_REC_ALL	397
T_NUM_TAP	364
T_NUM_BRK	3
T_NUM_HLD	18
T_NUM_SLD	12
T_NUM_ALL	397
T_JUDGE_TAP	367
T_JUDGE_HLD	80
T_JUDGE_SLD	12
T_JUDGE_ALL	459
TTM_EACHPAIRS	70
TTM_SCR_TAP	182000
TTM_SCR_BRK	7800
TTM_SCR_HLD	18000
TTM_SCR_SLD	18000
TTM_SCR_ALL	225800
TTM_SCR_S	218750
TTM_SCR_SS	225500
TTM_RAT_ACV	10013

