VERSION	0.00.00	1.04.00
FES_MODE	0
BPM_DEF	155.000	155.000	155.000	155.000
MET_DEF	4	4
RESOLUTION	384
CLK_DEF	384
COMPATIBLE_CODE	MA2

BPM	0	0	155.000
MET	0	0	4	4

NMTHO	1	0	0	144	C	0	M1
NMTTP	1	0	5	B	0	M1
NMTTP	1	0	6	B	0	M1
NMTTP	1	0	6	E	0	M1
NMTAP	1	144	7
EXTAP	1	192	7
EXTAP	1	264	0
EXTAP	1	264	6
EXTAP	1	336	1
EXTAP	1	336	5
BXSTR	2	0	2
NMSUR	2	0	2	96	288	4
BXHLD	2	0	4	384
CNSCR	3	0	4	0	384	3
EXHLD	4	0	7	384
NMTTP	4	192	0	C	0	M1
NMTTP	4	288	5	E	0	M1
NMTTP	4	336	4	E	0	M1
NMTTP	5	144	6	E	0	M1
NMTTP	5	160	5	B	0	M1
NMTTP	5	176	2	B	0	M1
NMTTP	5	192	2	E	0	M1
EXTAP	5	264	0
EXTAP	5	336	1
EXTAP	5	336	7
EXSTR	6	0	1
NMSCR	6	0	1	96	96	4
EXTAP	6	0	7
NMTAP	6	192	5
NMTAP	6	264	6
NMTAP	6	336	7
NMHLD	7	0	7	96
NMTAP	7	96	4
NMTAP	7	144	6
NMSTR	7	192	5
NMSCR	7	192	5	96	96	0
NMTAP	7	264	3
NMTAP	7	336	1
EXHLD	8	0	1	96
NMSTR	8	96	0
NMSSL	8	96	0	96	288	4
EXTAP	9	192	3
EXTAP	9	192	5
EXTAP	9	264	2
EXTAP	9	264	3
EXTAP	9	336	1
EXTAP	9	336	4
EXHLD	10	0	1	96
EXHLD	10	0	4	96
NMHLD	10	144	2	96
NMTAP	10	144	3
NMTAP	10	288	1
NMTAP	10	288	3
NMHLD	10	336	0	96
NMTAP	10	336	4
NMTAP	11	48	3
NMTAP	11	96	1
NMTAP	11	144	2
NMTAP	11	192	3
NMTAP	11	240	2
NMTAP	11	288	1
NMTAP	11	288	4
EXHLD	12	0	3	96
EXHLD	12	0	6	96
NMTAP	12	144	4
NMHLD	12	144	5	96
NMTAP	12	288	4
NMTAP	12	288	6
NMTAP	12	336	5
NMTAP	13	0	2
NMTAP	13	48	3
NMTAP	13	96	4
NMTAP	13	144	5
EXTAP	13	192	4
EXTAP	13	192	6
EXTAP	13	264	6
EXTAP	13	264	7
EXTAP	13	336	1
EXTAP	13	336	7
EXHLD	14	0	1	96
EXTAP	14	0	7
NMTAP	14	144	0
NMHLD	14	144	2	96
NMTAP	14	240	3
NMTAP	14	288	1
NMTAP	14	288	4
NMTAP	15	0	0
NMHLD	15	0	6	96
NMHLD	15	144	5	96
NMTAP	15	144	7
NMTAP	15	240	4
NMSTR	15	288	3
NMSCL	15	288	3	96	192	5
NMTAP	15	288	6
BXHLD	16	0	5	1152
CNSI_	16	192	5	0	96	7
CNSI_	16	288	7	0	96	1
CNSI_	17	0	1	0	96	3
CNSUR	17	96	3	0	288	4
NMTHO	19	0	0	192	C	0	M1
NMTTP	19	192	5	E	0	M1
NMTTP	19	240	6	E	0	M1
NMSTR	19	288	0
NMSI_	19	288	0	96	48	4
NMTTP	19	288	7	E	0	M1
EXTAP	20	0	0
NMTAP	20	96	5
NMTAP	20	120	3
NMTAP	20	144	5
NMTAP	20	168	3
NMTAP	20	192	5
NMTAP	20	240	2
NMTAP	20	240	6
NMTAP	20	288	5
NMTAP	20	312	3
NMTAP	20	336	5
NMTAP	20	360	3
NMHLD	21	0	4	48
NMTAP	21	48	2
NMTAP	21	72	3
NMTAP	21	96	2
NMTAP	21	120	3
NMHLD	21	144	1	48
NMTAP	21	192	4
NMTAP	21	216	2
NMTAP	21	240	4
NMTAP	21	264	2
EXHLD	21	288	5	96
BRTAP	22	0	7
NMTAP	22	96	1
NMTAP	22	120	7
NMTAP	22	144	1
NMTAP	22	168	7
NMTAP	22	192	1
NMTAP	22	216	6
NMTAP	22	240	1
NMTAP	22	264	6
NMTAP	22	288	1
NMTAP	22	312	5
NMTAP	22	336	1
NMTAP	22	360	5
NMTAP	23	0	2
NMTAP	23	24	4
NMTAP	23	48	2
NMTAP	23	72	4
NMTAP	23	96	1
NMTAP	23	120	3
NMTAP	23	144	1
NMTAP	23	168	3
NMSTR	23	192	0
NMSI_	23	192	0	96	48	4
NMTAP	23	216	2
NMTAP	23	240	0
NMTAP	23	264	2
NMTAP	23	288	0
BRTAP	24	0	3
BRTAP	24	0	5
NMTAP	24	96	6
NMTAP	24	120	4
NMTAP	24	144	6
NMTAP	24	168	4
NMTAP	24	192	6
NMTAP	24	240	3
NMTAP	24	240	5
NMTAP	24	288	2
NMTAP	24	312	4
NMTAP	24	336	2
NMTAP	24	360	4
NMHLD	25	0	3	48
NMTAP	25	48	5
NMTAP	25	72	4
NMTAP	25	96	5
NMTAP	25	120	4
NMHLD	25	144	6	48
NMTAP	25	192	3
NMTAP	25	216	5
NMTAP	25	240	3
NMTAP	25	264	5
EXHLD	25	288	2	96
BRTAP	26	0	0
NMTAP	26	96	5
NMTAP	26	120	1
NMTAP	26	144	5
NMTAP	26	168	1
NMTAP	26	192	6
NMTAP	26	216	0
NMTAP	26	240	6
NMTAP	26	264	0
NMTAP	26	288	7
NMTAP	26	312	7
NMTAP	26	336	7
NMTAP	26	360	7
NMSTR	27	0	7
NMSI_	27	0	7	96	96	4
NMSSR	27	0	7	96	96	3
BXSTR	27	288	2
BRSCL	27	288	2	96	48	0
BXSTR	27	288	5
BRSCR	27	288	5	96	48	7
EXTAP	28	96	3
EXTAP	28	96	4
NMTAP	28	192	1
NMHLD	28	192	3	72
NMTAP	28	264	2
NMTAP	28	288	3
NMTAP	28	336	3
NMTAP	28	336	4
NMTAP	29	0	4
NMHLD	29	0	5	96
NMTAP	29	96	4
NMTAP	29	144	3
NMTAP	29	168	4
NMHLD	29	192	2	72
NMTAP	29	264	3
NMTAP	29	288	3
NMTAP	29	336	1
NMSTR	30	0	0
NMSI_	30	0	0	96	48	2
NMTAP	30	48	3
EXTAP	30	96	0
NMHLD	30	192	4	72
NMHLD	30	264	3	72
NMTAP	30	336	2
EXTAP	31	0	2
NMTAP	31	96	1
NMTAP	31	96	3
NMTAP	31	144	2
NMTAP	31	144	4
NMHLD	31	192	5	72
NMTAP	31	264	4
NMSTR	31	288	6
NMSI_	31	288	6	96	48	3
NMTAP	31	336	7
EXTAP	32	0	0
EXTAP	32	96	2
EXTAP	32	96	4
NMHLD	32	192	4	72
NMTAP	32	192	6
NMTAP	32	264	5
NMTAP	32	288	4
NMTAP	32	336	3
NMTAP	32	336	4
NMHLD	33	0	2	96
NMTAP	33	0	3
NMTAP	33	96	3
NMTAP	33	144	4
NMTAP	33	168	3
NMHLD	33	192	5	72
NMTAP	33	264	4
NMTAP	33	288	4
NMTAP	33	336	6
NMSTR	34	0	7
NMSI_	34	0	7	96	48	5
NMTAP	34	48	4
EXTAP	34	96	7
NMHLD	34	192	3	72
NMHLD	34	264	4	72
NMTAP	34	336	5
NMSTR	35	0	5
NMSI_	35	0	5	96	48	3
NMSCR	35	0	5	96	48	7
EXTAP	35	192	3
EXTAP	35	192	7
NMTAP	35	264	4
NMTAP	35	264	6
NMTAP	35	336	5
NMSTR	36	0	5
NMSI_	36	0	5	96	48	7
NMSTR	36	96	0
NMSI_	36	96	0	96	48	4
NMTAP	36	144	1
NMTAP	36	192	2
NMTAP	36	288	3
NMSTR	36	288	5
NMSI_	36	288	5	96	48	7
NMSTR	37	0	1
NMSI_	37	0	1	96	48	3
NMSTR	37	96	4
NMSI_	37	96	4	96	48	0
NMTAP	37	144	5
NMTAP	37	192	6
NMSTR	37	288	1
NMSI_	37	288	1	96	48	3
NMTAP	37	288	7
NMSTR	38	0	5
NMSI_	38	0	5	96	24	7
NMSTR	38	96	0
NMSI_	38	96	0	96	48	4
CNSCR	38	120	7	0	24	0
NMTAP	38	144	1
NMTAP	38	192	2
NMTAP	38	288	3
NMHLD	38	288	5	96
NMTTP	39	0	4	E	0	M1
NMTTP	39	16	3	E	0	M1
NMTTP	39	32	2	E	0	M1
NMTTP	39	48	1	E	0	M1
NMTTP	39	64	0	E	0	M1
NMTTP	39	80	7	E	0	M1
NMTTP	39	96	6	E	0	M1
NMTTP	39	112	5	E	0	M1
NMTTP	39	128	4	E	0	M1
NMTTP	39	144	3	E	0	M1
NMTTP	39	160	2	E	0	M1
NMTTP	39	176	1	E	0	M1
NMTTP	39	192	0	E	1	M1
BXTAP	39	192	4
BXTAP	39	264	3
BXTAP	39	264	5
BXTAP	39	336	2
BXTAP	39	336	6
BXTAP	40	0	2
BXSTR	40	0	6
NMSUL	40	0	6	96	204	3
NMTAP	40	192	0
NMTAP	40	264	1
NMSTR	40	336	2
NMSUR	40	336	2	96	204	4
NMTAP	41	144	7
NMTAP	41	192	7
NMTAP	41	264	6
NMSTR	41	336	3
NMSI_	41	336	3	96	144	7
NMHLD	41	336	5	576
NMTAP	42	336	7
NMTAP	42	360	0
NMHLD	43	0	1	144
NMSTR	43	192	1
NMSI_	43	192	1	96	48	3
NMSTR	43	192	5
NMSI_	43	192	5	96	48	3
BRSTR	43	288	1
NMSI_	43	288	1	96	48	7
BRTAP	43	288	5
NMTAP	44	0	1
NMHLD	44	0	5	96
NMTTP	44	192	5	E	0	M1
NMHLD	44	192	5	96
NMTTP	45	0	0	C	0	M1
NMHLD	45	0	5	96
NMTTP	45	192	4	E	0	M1
NMHLD	45	192	5	96
NMTTP	46	0	0	C	0	M1
NMHLD	46	0	5	96
NMTTP	46	192	0	E	0	M1
NMHLD	46	192	5	96
NMTHO	47	0	0	192	C	0	M1
NMTAP	47	0	6
NMTAP	47	96	6
NMTAP	47	192	7
NMTAP	47	288	0
NMHLD	48	0	1	96
NMTTP	48	0	3	E	0	M1
NMHLD	48	192	1	96
NMTTP	48	192	4	E	0	M1
NMTTP	49	0	0	C	0	M1
NMHLD	49	0	1	96
NMTTP	49	192	0	E	0	M1
NMHLD	49	192	1	96
NMTTP	50	0	0	C	0	M1
NMHLD	50	0	1	96
NMHLD	50	192	1	96
NMTTP	50	192	4	E	0	M1
NMTHO	51	0	0	192	C	0	M1
NMTAP	51	0	1
NMTAP	51	96	1
NMTAP	51	192	0
EXTAP	51	288	1
EXTAP	51	288	7
NMHLD	52	0	2	96
NMHLD	52	0	6	1344
NMHLD	52	192	3	96
NMHLD	53	0	4	96
NMHLD	53	192	5	96
NMHLD	54	0	7	96
NMHLD	54	192	7	96
NMHLD	55	0	5	96
NMHLD	55	192	4	96
EXTAP	55	288	7
NMTAP	56	0	3
NMTAP	56	0	5
NMTAP	56	48	3
NMTAP	56	96	2
NMTAP	56	144	2
NMTAP	56	192	1
NMTAP	56	192	3
NMTAP	56	240	1
NMTAP	56	288	0
NMTAP	56	336	0
NMTAP	57	0	1
NMTAP	57	0	7
NMTAP	57	48	7
NMTAP	57	96	7
NMTAP	57	144	7
NMTAP	57	192	0
NMTAP	57	192	6
NMTAP	57	240	0
NMTAP	57	288	0
NMTAP	57	336	0
NMTAP	58	0	1
NMTAP	58	24	7
NMTAP	58	48	1
NMTAP	58	72	7
NMTAP	58	96	2
NMTAP	58	120	6
NMTAP	58	144	3
NMTAP	58	168	5
NMTAP	58	192	2
NMTAP	58	216	4
NMTAP	58	240	2
NMTAP	58	264	4
NMTAP	58	288	1
NMTAP	58	312	3
NMTAP	58	336	1
NMTAP	58	360	3
NMSTR	59	0	0
NMSI_	59	0	0	96	48	4
NMTAP	59	96	5
CNSI_	59	144	4	0	48	2
NMTAP	59	144	6
CNSI_	59	192	2	0	48	7
NMSTR	59	192	7
NMSF_	59	192	7	96	48	3
EXTAP	59	288	7
BRTAP	60	0	1
BRTAP	60	0	5
NMTAP	60	48	2
NMTAP	60	72	3
NMTAP	60	120	6
NMTAP	60	144	7
NMTAP	60	192	0
NMTAP	60	192	5
NMTAP	60	240	1
NMTAP	60	264	3
NMTAP	60	312	5
NMTAP	60	336	4
NMTAP	61	0	3
NMTAP	61	0	6
NMTAP	61	48	1
NMTAP	61	72	0
NMTAP	61	120	2
NMTAP	61	144	3
NMHLD	61	192	1	48
NMHLD	61	192	4	48
NMHLD	61	264	3	48
NMHLD	61	264	6	48
NMTAP	61	336	4
NMTAP	61	336	5
NMTAP	62	0	3
NMSTR	62	0	7
NMSCR	62	0	7	96	96	2
NMTAP	62	48	3
NMSTR	62	96	2
NMSUR	62	96	2	96	96	6
NMTAP	62	192	6
NMTAP	62	240	7
NMHLD	62	288	0	96
NMSTR	63	0	6
NMSI_	63	0	6	96	48	2
NMSTR	63	96	3
NMSI_	63	96	3	96	48	7
NMTAP	63	96	6
NMTAP	63	192	3
NMTAP	63	192	4
NMTAP	63	264	6
NMTAP	63	336	1
NMTAP	63	336	7
NMTAP	64	0	2
NMTAP	64	0	6
NMTAP	64	48	5
NMTAP	64	72	4
NMTAP	64	120	0
NMTAP	64	144	7
NMTAP	64	192	1
NMTAP	64	192	4
NMTAP	64	240	2
NMSTR	64	264	3
NMSI_	64	264	3	96	48	7
NMTAP	64	312	0
NMTAP	64	336	0
NMTAP	65	0	2
NMTAP	65	48	1
NMTAP	65	72	1
NMTAP	65	120	6
NMTAP	65	144	0
NMTAP	65	192	1
NMTAP	65	192	7
NMTAP	65	240	5
NMTAP	65	264	4
NMTAP	65	312	2
NMTAP	65	336	3
NMHLD	66	0	1	48
NMTAP	66	0	4
NMTAP	66	48	3
NMTAP	66	72	1
NMTAP	66	96	3
NMTAP	66	120	2
NMTAP	66	144	3
NMTAP	66	168	1
NMTAP	66	192	3
NMTAP	66	216	4
NMTAP	66	240	5
NMTAP	66	264	6
NMTAP	66	288	0
NMTAP	66	312	1
NMTAP	66	336	2
NMTAP	66	360	3
NMSTR	67	0	4
NMSI_	67	0	4	96	48	1
NMSTR	67	0	7
NMSI_	67	0	7	96	48	4
NMTAP	67	96	4
NMTAP	67	96	7
EXTAP	67	192	0
EXTAP	67	192	3
NMTAP	67	240	1
NMTAP	67	264	4
NMTAP	67	288	2
NMTAP	67	312	3
NMTAP	67	336	1
NMTAP	67	360	4
NMSTR	68	0	2
NMSI_	68	0	2	96	48	4
NMTAP	68	96	6
NMTAP	68	144	6
NMHLD	68	192	6	96
NMTAP	68	288	4
NMTAP	68	336	3
NMHLD	69	0	2	96
NMTAP	69	0	4
NMTAP	69	96	3
NMTAP	69	144	4
NMTAP	69	192	3
NMHLD	69	192	5	96
NMTAP	69	288	4
NMTAP	69	336	3
NMTAP	70	0	2
NMSTR	70	0	5
NMSCR	70	0	5	96	192	3
NMSTR	70	192	3
NMSCR	70	192	3	96	96	6
NMTAP	71	0	0
CNSI_	71	0	6	0	96	2
NMTAP	71	96	1
CNSI_	71	96	2	0	96	5
NMTAP	71	192	2
CNSI_	71	192	5	0	96	0
NMHLD	71	288	3	96
NMTAP	72	0	7
NMTAP	72	48	7
NMTAP	72	96	4
NMTAP	72	96	6
NMTAP	72	144	4
NMTAP	72	144	6
NMTAP	72	192	5
NMTAP	72	240	5
NMTAP	72	288	2
NMTAP	72	288	4
NMTAP	72	336	2
NMTAP	72	336	4
NMTAP	73	0	1
NMTAP	73	24	5
NMTAP	73	48	1
NMTAP	73	72	5
NMTAP	73	96	2
NMTAP	73	120	4
NMTAP	73	144	3
NMTAP	73	168	5
NMTAP	73	192	2
NMTAP	73	216	6
NMTAP	73	240	2
NMTAP	73	264	6
NMTAP	73	288	3
NMTAP	73	312	7
NMTAP	73	336	3
NMTAP	73	360	7
BRHLD	74	0	4	48
BRHLD	74	0	6	48
NMHLD	74	72	4	48
NMHLD	74	72	5	48
BRHLD	74	144	1	48
BRHLD	74	144	3	48
NMHLD	74	216	2	48
NMHLD	74	216	3	48
BRHLD	74	288	0	48
BRHLD	74	288	1	48
NMTAP	74	360	2
NMTAP	74	360	7
NMTTP	75	24	4	B	0	M1
NMTTP	75	24	4	E	0	M1
NMTTP	75	24	5	B	0	M1
NMTTP	75	24	5	E	1	M1
NMTTP	75	24	6	E	0	M1
EXTAP	75	144	1
EXTAP	75	144	7
EXSTR	75	192	2
BRSI_	75	192	2	96	48	7
EXSTR	75	192	6
BRSI_	75	192	6	96	48	3
BRTAP	75	288	2
BRTAP	75	288	6
EXTAP	76	0	0
EXTAP	76	0	4
NMSTR	76	48	1
NMSI_	76	48	1	96	48	4
NMTAP	76	72	3
NMTAP	76	96	2
NMTAP	76	120	3
NMTAP	76	144	1
NMTAP	76	192	6
NMTAP	76	240	6
NMTAP	76	264	4
NMTAP	76	288	5
NMTAP	76	312	2
NMTAP	76	336	3
NMTAP	76	360	1
NMHLD	77	0	7	48
NMTAP	77	48	4
NMTAP	77	72	4
NMSTR	77	96	6
NMSI_	77	96	6	96	48	2
NMTAP	77	120	2
NMTAP	77	144	5
NMTAP	77	168	3
NMTAP	77	192	6
NMTAP	77	240	0
NMTAP	77	264	0
NMTAP	77	288	3
NMTAP	77	312	1
NMTAP	77	336	4
NMTAP	77	360	0
NMSTR	78	0	5
NMSCR	78	0	5	96	48	7
NMSTR	78	48	7
NMSCR	78	48	7	96	48	2
NMTAP	78	96	5
NMHLD	78	192	4	48
NMHLD	78	264	3	48
NMHLD	78	264	5	48
NMTAP	78	336	1
NMTAP	78	336	7
BRTAP	79	0	2
BRTAP	79	0	6
NMTAP	79	96	3
NMTAP	79	96	6
NMTAP	79	144	5
NMTAP	79	160	4
NMTAP	79	176	5
BRSTR	79	192	4
NMSI_	79	192	4	96	48	0
NMTAP	79	264	7
NMTAP	79	288	7
NMTAP	79	336	5
EXTAP	80	0	1
EXTAP	80	0	5
NMSTR	80	48	2
NMSI_	80	48	2	96	48	7
NMTAP	80	72	4
NMTAP	80	96	3
NMTAP	80	120	4
NMTAP	80	144	2
NMTAP	80	192	6
NMTAP	80	240	0
NMTAP	80	264	0
NMTAP	80	288	5
NMTAP	80	312	1
NMTAP	80	336	3
NMTAP	80	360	2
NMHLD	81	0	6	48
NMTAP	81	48	3
NMTAP	81	72	3
NMSTR	81	96	5
NMSI_	81	96	5	96	48	1
NMTAP	81	120	4
NMTAP	81	144	6
NMTAP	81	168	3
NMTAP	81	192	5
NMTAP	81	240	2
NMTAP	81	264	2
NMTAP	81	288	6
NMTAP	81	312	0
NMTAP	81	336	3
NMSTR	82	0	1
NMSI_	82	0	1	96	48	4
NMSTR	82	0	6
NMSI_	82	0	6	96	48	0
NMTAP	82	48	0
NMTAP	82	48	5
NMSTR	82	96	1
NMSI_	82	96	1	96	48	6
NMSTR	82	96	6
NMSI_	82	96	6	96	48	3
NMSTR	82	192	1
NMSCR	82	192	1	96	48	4
NMTAP	82	192	6
NMTAP	82	288	1
NMTAP	82	288	5
NMTAP	82	336	5
BRTAP	83	0	3
BRTAP	83	0	6
NMTAP	83	96	2
NMTAP	83	96	7
NMTAP	83	144	1
NMTAP	83	160	0
NMTAP	83	176	1
BRSTR	83	192	0
NMSF_	83	192	0	96	48	4
BRTAP	83	288	0
EXTAP	84	0	1
EXTAP	84	0	6
NMTAP	84	48	2
NMTAP	84	72	4
NMTAP	84	96	3
NMTAP	84	120	5
NMTAP	84	144	4
NMTAP	84	168	6
NMTAP	84	192	2
NMTAP	84	216	7
NMTAP	84	240	2
NMTAP	84	264	5
NMTAP	84	288	0
NMTAP	84	312	5
NMTAP	84	336	1
NMTAP	84	360	4
NMTAP	85	0	1
NMTAP	85	24	3
NMTAP	85	48	2
NMTAP	85	72	5
NMTAP	85	96	4
NMTAP	85	120	6
NMTAP	85	144	3
NMTAP	85	168	7
NMTAP	85	192	2
NMTAP	85	216	6
NMTAP	85	240	2
NMTAP	85	264	4
NMTAP	85	288	0
NMTAP	85	312	4
NMTAP	85	336	1
NMTAP	85	360	3
NMTAP	86	0	1
NMTAP	86	24	4
NMTAP	86	48	2
NMTAP	86	72	5
NMTAP	86	96	0
NMTAP	86	120	7
NMTAP	86	144	1
NMTAP	86	168	6
NMTAP	86	192	4
NMTAP	86	216	5
NMTAP	86	240	3
NMTAP	86	264	7
NMTAP	86	288	2
NMTAP	86	312	6
NMTAP	86	336	0
NMTAP	86	360	4
NMHLD	87	0	1	96
NMTAP	87	96	6
BRTAP	87	144	0
BRTAP	87	144	7
BRTAP	87	168	0
BRTAP	87	168	7
BRTAP	87	192	1
BRSTR	87	192	6
BRSI_	87	192	6	96	24	2
BRSTR	87	264	0
BRSI_	87	264	0	96	24	4
BRTAP	87	264	6
BRTAP	87	336	0
BRTAP	88	0	6
NMTAP	88	48	6
NMTAP	88	72	7
NMSTR	88	96	5
NMSI_	88	96	5	96	48	0
NMTAP	88	120	0
NMTAP	88	144	4
NMTAP	88	168	1
NMTAP	88	192	5
EXTAP	88	240	3
NMTAP	88	264	3
NMTAP	88	288	7
EXTAP	88	312	1
NMTAP	88	336	1
BRTAP	89	0	0
BRTAP	89	0	7
NMTAP	89	48	1
NMTAP	89	72	0
NMSTR	89	96	2
NMSI_	89	96	2	96	48	7
NMTAP	89	120	7
NMTAP	89	144	3
NMTAP	89	168	6
NMTAP	89	192	2
EXTAP	89	240	4
NMTAP	89	264	4
NMHLD	89	288	0	48
NMHLD	89	288	5	48
NMTAP	90	0	6
NMTAP	90	24	7
NMTAP	90	48	6
NMTAP	90	72	0
NMTAP	90	96	5
NMTAP	90	120	1
NMTAP	90	144	3
NMTAP	90	168	2
NMTAP	90	192	0
NMTAP	90	216	1
NMTAP	90	240	0
NMTAP	90	264	2
NMTAP	90	288	7
NMTAP	90	312	3
NMTAP	90	336	5
NMTAP	90	360	4
BRTAP	91	0	6
NMTAP	91	24	7
NMTAP	91	48	5
NMTAP	91	72	2
NMTAP	91	96	3
NMTAP	91	120	1
NMTAP	91	144	5
NMTAP	91	168	4
NMTAP	91	192	6
NMTAP	91	216	1
NMTAP	91	240	0
NMTAP	91	264	2
NMSTR	91	288	3
BRSSR	91	288	3	96	48	7
NMSTR	91	288	4
BRSI_	91	288	4	96	48	7
BRTAP	92	0	3
BRTAP	92	0	4
NMTTP	92	1	0	C	1	M1
NMTTP	92	1	0	E	0	M1
NMTTP	92	1	0	D	0	M1
NMTTP	92	1	4	E	0	M1
NMTTP	92	1	4	D	0	M1

T_REC_TAP	482
T_REC_BRK	27
T_REC_XTP	50
T_REC_BXX	6
T_REC_HLD	68
T_REC_XHO	9
T_REC_BHO	6
T_REC_BXH	2
T_REC_STR	49
T_REC_BST	5
T_REC_XST	3
T_REC_XBS	4
T_REC_TTP	47
T_REC_THO	4
T_REC_SLD	55
T_REC_BSL	8
T_REC_ALL	825
T_NUM_TAP	631
T_NUM_BRK	58
T_NUM_HLD	81
T_NUM_SLD	55
T_NUM_ALL	825
T_JUDGE_TAP	673
T_JUDGE_HLD	230
T_JUDGE_SLD	63
T_JUDGE_ALL	966
TTM_EACHPAIRS	112
TTM_SCR_TAP	315500
TTM_SCR_BRK	150800
TTM_SCR_HLD	81000
TTM_SCR_SLD	82500
TTM_SCR_ALL	629800
TTM_SCR_S	605300
TTM_SCR_SS	624000
TTM_RAT_ACV	10092

