VERSION	0.00.00	1.04.00
FES_MODE	0
BPM_DEF	155.000	155.000	155.000	155.000
MET_DEF	4	4
RESOLUTION	384
CLK_DEF	384
COMPATIBLE_CODE	MA2

BPM	0	0	155.000
MET	0	0	4	4

NMHLD	2	0	2	1152
NMHLD	2	0	4	384
NMHLD	4	0	0	1152
NMTAP	5	192	7
NMHLD	6	0	7	1152
NMHLD	8	0	5	768
NMTAP	9	192	3
NMTAP	10	0	3
NMTAP	10	96	2
NMTAP	10	144	2
NMTAP	10	192	4
NMTAP	10	288	1
NMTAP	10	288	5
NMTAP	11	0	2
NMTAP	11	0	4
NMTAP	11	96	5
NMTAP	11	144	5
NMTAP	11	192	3
NMTAP	11	288	2
NMTAP	11	288	6
NMTAP	12	0	3
NMTAP	12	0	5
NMTAP	12	96	2
NMTAP	12	144	2
NMTAP	12	192	4
NMTAP	12	288	1
NMTAP	12	288	5
NMHLD	13	0	2	192
NMTAP	13	0	4
NMTAP	13	192	3
NMTAP	13	264	3
NMTAP	13	264	4
NMTAP	13	336	4
NMTAP	13	336	5
NMHLD	14	0	4	96
NMHLD	14	0	5	96
NMSTR	14	192	6
NMSCL	14	192	6	96	96	3
NMSTR	15	192	1
NMSCR	15	192	1	96	96	4
EXHLD	16	0	7	672
NMTAP	17	0	4
NMTAP	17	96	4
NMTAP	17	192	4
NMSTR	17	288	4
NMSI_	17	288	4	96	96	0
NMTHO	19	0	0	192	C	0	M1
NMTTP	19	0	3	B	0	M1
NMTTP	19	0	4	B	0	M1
NMHLD	20	0	0	96
NMHLD	20	0	1	96
NMTAP	20	192	0
NMTAP	20	192	1
NMTAP	20	288	0
NMTAP	20	288	7
NMHLD	21	0	6	96
NMHLD	21	0	7	96
NMTAP	21	192	6
NMTAP	21	192	7
NMTAP	21	288	0
NMTAP	21	288	7
NMHLD	22	0	1	288
NMTAP	22	96	3
NMTAP	22	192	4
NMTAP	22	240	4
NMHLD	22	288	5	288
NMTAP	23	0	7
NMTAP	23	96	0
NMTAP	23	192	1
NMTAP	23	240	1
NMTAP	23	288	2
NMTAP	23	288	4
NMHLD	24	0	6	288
NMTAP	24	96	4
NMTAP	24	192	3
NMTAP	24	240	3
NMHLD	24	288	2	288
NMTAP	25	0	0
NMTAP	25	96	7
NMTAP	25	192	6
NMTAP	25	240	6
NMTAP	25	288	3
NMTAP	25	288	5
NMHLD	26	0	1	288
NMTAP	26	96	3
NMTAP	26	192	4
NMTAP	26	240	4
NMSTR	26	288	5
NMSXL	26	288	5	96	288	3
NMHLD	28	0	0	96
NMTAP	28	96	3
NMTAP	28	192	5
NMTAP	28	240	5
NMTAP	28	288	3
NMTAP	28	336	3
NMHLD	29	0	7	96
NMTAP	29	96	4
NMTAP	29	192	2
NMTAP	29	240	2
NMTAP	29	288	4
NMTAP	29	336	4
NMHLD	30	0	0	96
NMTAP	30	96	3
NMTAP	30	192	5
NMTAP	30	240	5
NMTAP	30	288	3
NMTAP	30	336	3
NMSTR	31	0	7
NMSUL	31	0	7	96	96	3
NMSTR	31	192	0
NMSUR	31	192	0	96	96	4
NMHLD	32	0	7	96
NMTAP	32	96	4
NMTAP	32	192	2
NMTAP	32	240	2
NMTAP	32	288	4
NMTAP	32	336	1
NMHLD	33	0	0	96
NMTAP	33	96	3
NMTAP	33	192	5
NMTAP	33	240	5
NMTAP	33	288	3
NMTAP	33	336	6
NMHLD	34	0	7	96
NMTAP	34	96	4
NMTAP	34	192	2
NMTAP	34	240	2
NMTAP	34	288	4
NMTAP	34	336	1
NMSTR	35	0	0
NMSI_	35	0	0	96	96	4
NMSTR	35	192	5
NMSI_	35	192	5	96	96	0
NMHLD	36	0	2	96
NMTAP	36	96	0
NMTAP	36	192	6
NMTAP	36	240	6
NMTAP	36	288	0
NMTAP	36	336	4
NMHLD	37	0	5	96
NMTAP	37	96	7
NMTAP	37	192	1
NMTAP	37	240	1
NMTAP	37	288	7
NMTAP	37	336	3
NMHLD	38	0	2	96
NMTAP	38	96	0
NMTAP	38	192	6
NMTAP	38	240	6
NMSTR	38	288	0
NMSSL	38	288	0	96	192	4
EXTAP	39	192	5
EXTAP	39	264	4
EXTAP	39	264	6
EXTAP	39	336	3
EXTAP	39	336	7
NMHLD	40	0	3	264
NMHLD	40	0	7	264
NMTAP	40	336	2
NMTAP	40	336	6
NMHLD	41	0	2	264
NMHLD	41	0	6	264
NMTAP	41	336	1
NMTAP	41	336	5
NMHLD	42	0	1	264
NMHLD	42	0	5	264
NMTAP	42	336	0
NMTAP	42	336	4
NMSTR	43	0	0
NMSCR	43	0	0	96	96	3
NMSTR	43	0	4
NMSCR	43	0	4	96	96	7
BRTAP	43	288	2
BRTAP	43	288	6
NMSTR	44	0	7
NMSI_	44	0	7	96	96	3
NMSTR	44	192	1
NMSI_	44	192	1	96	96	5
NMSTR	45	0	6
NMSI_	45	0	6	96	96	2
NMSTR	45	192	0
NMSI_	45	192	0	96	96	4
NMSTR	46	0	5
NMSCL	46	0	5	96	96	2
NMSTR	46	192	1
NMSCL	46	192	1	96	96	6
NMTAP	47	0	4
NMTAP	47	96	4
NMHLD	47	192	1	96
NMHLD	47	192	3	96
NMSTR	48	0	0
NMSI_	48	0	0	96	96	4
NMSTR	48	192	6
NMSI_	48	192	6	96	96	2
NMSTR	49	0	1
NMSI_	49	0	1	96	96	5
NMSTR	49	192	7
NMSI_	49	192	7	96	96	3
NMSTR	50	0	2
NMSCR	50	0	2	96	96	5
NMSTR	50	192	6
NMSCR	50	192	6	96	96	1
NMTAP	51	0	3
NMTAP	51	96	3
NMHLD	51	192	4	96
NMHLD	51	192	6	96
NMHLD	52	0	3	768
NMTTP	52	96	4	E	0	M1
NMTTP	52	192	3	E	0	M1
NMTTP	52	288	2	E	0	M1
NMTTP	53	0	1	E	0	M1
NMTTP	53	96	0	E	0	M1
NMTTP	53	192	7	E	0	M1
NMTTP	53	288	6	E	0	M1
NMHLD	54	0	4	768
NMTTP	54	96	4	E	0	M1
NMTTP	54	192	5	E	0	M1
NMTTP	54	288	6	E	0	M1
NMTTP	55	0	7	E	0	M1
NMTTP	55	96	0	E	0	M1
NMTTP	55	192	1	E	0	M1
NMTTP	55	288	2	E	0	M1
NMTAP	56	0	3
NMTAP	56	48	3
NMTAP	56	96	3
NMTAP	56	144	3
NMTAP	56	192	5
NMTAP	56	240	5
NMTAP	56	288	5
NMTAP	56	336	5
NMTAP	57	0	2
NMTAP	57	48	2
NMTAP	57	96	2
NMTAP	57	144	2
NMTAP	57	192	6
NMTAP	57	240	6
NMTAP	57	288	6
NMTAP	57	336	6
NMTAP	58	0	0
NMTAP	58	24	7
NMTAP	58	48	0
NMTAP	58	72	7
NMTAP	58	96	0
NMTAP	58	120	7
NMTAP	58	144	0
NMTAP	58	168	7
NMTAP	58	192	1
NMTAP	58	216	6
NMTAP	58	240	1
NMTAP	58	264	6
NMTAP	58	288	1
NMTAP	58	312	6
NMTAP	58	336	1
NMTAP	58	360	6
NMSTR	59	0	1
NMSI_	59	0	1	96	48	7
CNSI_	59	144	7	0	96	2
CNSI_	59	240	2	0	48	4
BRTAP	59	288	7
NMTAP	60	0	4
NMTAP	60	0	5
NMTAP	60	96	1
NMTAP	60	96	3
NMHLD	60	192	0	72
NMHLD	60	264	2	72
NMTAP	60	336	3
NMTAP	61	0	3
NMTAP	61	96	4
NMTAP	61	96	6
NMHLD	61	192	7	72
NMHLD	61	264	5	72
NMTAP	61	336	4
NMTAP	62	0	4
NMTAP	62	96	1
NMTAP	62	96	3
NMHLD	62	192	0	72
NMHLD	62	264	2	72
NMTAP	62	336	3
NMTAP	63	0	3
NMTAP	63	96	1
NMTAP	63	96	4
NMTAP	63	192	2
NMTAP	63	192	3
NMTAP	63	288	3
NMTAP	63	288	6
NMTAP	64	0	4
NMTAP	64	0	5
NMTAP	64	96	4
NMTAP	64	96	6
NMHLD	64	192	7	72
NMHLD	64	264	5	72
NMTAP	64	336	4
NMTAP	65	0	4
NMTAP	65	96	1
NMTAP	65	96	3
NMHLD	65	192	0	72
NMHLD	65	264	2	72
NMTAP	65	336	3
NMTAP	66	0	3
NMTAP	66	96	4
NMTAP	66	96	6
NMHLD	66	192	7	72
NMHLD	66	264	5	72
NMTAP	66	336	4
NMTAP	67	0	4
NMTAP	67	96	3
NMTAP	67	96	6
NMTAP	67	192	1
NMTAP	67	192	4
NMTAP	67	288	2
NMTAP	67	288	3
NMTAP	68	0	0
NMTAP	68	0	1
NMTAP	68	96	2
NMTAP	68	96	3
NMHLD	68	192	4	72
NMHLD	68	264	6	72
NMTAP	68	336	7
NMTAP	69	0	7
NMTAP	69	96	0
NMTAP	69	96	1
NMHLD	69	192	3	72
NMHLD	69	264	1	72
NMTAP	69	336	0
NMTAP	70	0	0
NMTAP	70	96	6
NMTAP	70	96	7
NMHLD	70	192	4	72
NMHLD	70	264	6	72
NMTAP	70	336	7
NMTAP	71	0	7
NMTAP	71	96	6
NMTAP	71	96	7
NMTAP	71	192	2
NMTAP	71	192	3
NMTAP	71	288	0
NMTAP	71	288	1
NMTAP	72	0	4
NMTAP	72	0	5
NMTAP	72	96	6
NMTAP	72	96	7
NMHLD	72	192	3	72
NMHLD	72	264	1	72
NMTAP	72	336	0
NMTAP	73	0	0
NMSTR	73	96	6
NMSI_	73	96	6	96	96	3
NMSTR	73	96	7
NMSI_	73	96	7	96	96	2
NMHLD	74	0	3	48
NMHLD	74	0	5	48
NMHLD	74	72	2	48
NMHLD	74	72	4	48
NMHLD	74	144	3	48
NMHLD	74	144	6	48
NMHLD	74	216	1	48
NMHLD	74	216	4	48
NMHLD	74	288	3	48
NMHLD	74	288	5	48
NMHLD	74	360	2	312
NMHLD	74	360	4	120
BRTAP	75	288	7
NMTAP	76	0	0
NMTAP	76	0	1
NMTAP	76	96	4
NMTAP	76	96	6
NMTAP	76	192	2
NMTAP	76	192	3
NMTAP	76	264	1
NMTAP	76	288	0
NMTAP	76	336	0
NMTAP	76	336	7
NMTAP	77	0	0
NMTAP	77	0	7
NMTAP	77	96	6
NMTAP	77	144	6
NMTAP	77	192	4
NMTAP	77	192	5
NMTAP	77	264	2
NMTAP	77	288	3
NMTAP	77	336	1
NMTAP	77	336	4
NMSTR	78	0	1
NMSI_	78	0	1	96	96	5
NMSTR	78	0	4
NMSI_	78	0	4	96	96	7
NMTAP	78	288	4
NMTAP	78	288	6
NMTAP	79	0	6
NMTAP	79	0	7
NMTAP	79	96	1
NMTAP	79	96	3
NMTAP	79	192	4
NMTAP	79	192	5
NMTAP	79	264	6
NMTAP	79	288	7
NMTAP	79	336	0
NMTAP	79	336	7
NMTAP	80	0	0
NMTAP	80	0	7
NMTAP	80	96	1
NMTAP	80	144	1
NMTAP	80	192	2
NMTAP	80	192	3
NMTAP	80	264	5
NMTAP	80	288	4
NMTAP	80	336	3
NMTAP	80	336	6
NMTAP	81	0	3
NMTAP	81	0	6
NMTAP	81	96	2
NMTAP	81	144	2
NMTAP	81	192	0
NMTAP	81	192	1
NMTAP	81	264	6
NMTAP	81	288	7
NMTAP	81	336	0
NMTAP	81	336	5
NMTAP	82	0	0
NMTAP	82	0	5
NMTAP	82	96	6
NMTAP	82	96	7
NMTAP	82	192	1
NMTAP	82	192	3
NMTAP	82	288	0
NMTAP	82	288	1
NMTAP	83	0	4
NMTAP	83	0	6
NMTAP	83	96	6
NMTAP	83	96	7
NMHLD	83	192	3	72
NMHLD	83	264	1	72
NMTAP	83	336	0
NMTAP	84	0	0
NMTAP	84	96	4
NMTAP	84	96	6
NMTAP	84	192	2
NMTAP	84	192	3
NMTAP	84	264	1
NMTAP	84	288	0
NMTAP	84	336	0
NMTAP	84	336	7
NMTAP	85	0	0
NMTAP	85	0	7
NMTAP	85	96	6
NMTAP	85	144	6
NMTAP	85	192	4
NMTAP	85	192	5
NMTAP	85	264	2
NMTAP	85	288	3
NMTAP	85	336	1
NMTAP	85	336	4
NMTAP	86	0	1
NMTAP	86	0	4
NMTAP	86	96	5
NMTAP	86	144	5
NMTAP	86	192	3
NMTAP	86	240	3
NMTAP	86	288	6
NMHLD	86	336	6	96
NMTAP	87	48	2
NMTAP	87	96	2
NMTAP	87	192	3
NMTAP	87	192	5
NMTAP	87	264	1
NMTAP	87	264	7
NMTAP	87	336	2
NMTAP	87	336	6
BRTAP	88	0	2
BRTAP	88	0	6
NMTAP	88	96	1
NMTAP	88	144	1
NMTAP	88	192	2
NMTAP	88	192	3
NMTAP	88	264	5
NMTAP	88	288	4
NMTAP	88	336	3
NMTAP	88	336	6
NMTAP	89	0	3
NMTAP	89	0	6
NMTAP	89	72	2
NMTAP	89	96	3
NMTAP	89	144	1
NMTAP	89	144	4
NMHLD	89	192	1	96
NMHLD	89	192	4	96
NMTAP	90	0	2
NMTAP	90	24	4
NMTAP	90	48	2
NMTAP	90	72	4
NMTAP	90	96	2
NMTAP	90	120	4
NMTAP	90	144	2
NMTAP	90	168	4
NMTAP	90	192	2
NMTAP	90	216	4
NMTAP	90	240	2
NMTAP	90	264	4
NMTAP	90	288	2
NMTAP	90	312	4
NMTAP	90	336	2
NMTAP	90	360	4
NMTAP	91	0	1
NMTAP	91	24	5
NMTAP	91	48	1
NMTAP	91	72	5
NMTAP	91	96	1
NMTAP	91	120	5
NMTAP	91	144	1
NMTAP	91	168	5
NMTAP	91	192	0
NMTAP	91	216	6
NMTAP	91	240	0
NMTAP	91	264	6
NMSTR	91	288	0
BRSI_	91	288	0	96	48	4

T_REC_TAP	352
T_REC_BRK	6
T_REC_XTP	5
T_REC_BXX	0
T_REC_HLD	75
T_REC_XHO	1
T_REC_BHO	0
T_REC_BXH	0
T_REC_STR	29
T_REC_BST	0
T_REC_XST	0
T_REC_XBS	0
T_REC_TTP	16
T_REC_THO	1
T_REC_SLD	28
T_REC_BSL	1
T_REC_ALL	514
T_NUM_TAP	402
T_NUM_BRK	7
T_NUM_HLD	77
T_NUM_SLD	28
T_NUM_ALL	514
T_JUDGE_TAP	408
T_JUDGE_HLD	324
T_JUDGE_SLD	29
T_JUDGE_ALL	761
TTM_EACHPAIRS	101
TTM_SCR_TAP	201000
TTM_SCR_BRK	18200
TTM_SCR_HLD	77000
TTM_SCR_SLD	42000
TTM_SCR_ALL	338200
TTM_SCR_S	327400
TTM_SCR_SS	337500
TTM_RAT_ACV	10020

