VERSION	0.00.00	1.04.00
FES_MODE	0
BPM_DEF	175.000	175.000	175.000	175.000
MET_DEF	4	4
RESOLUTION	384
CLK_DEF	384
COMPATIBLE_CODE	MA2

BPM	0	0	175.000
MET	0	0	4	4

NMTTP	1	0	5	A	0	M1
NMTTP	1	12	5	B	0	M1
NMTTP	1	12	6	E	0	M1
NMTTP	1	24	6	B	0	M1
NMTTP	1	24	7	E	0	M1
NMTTP	1	36	0	E	0	M1
NMTTP	1	36	7	B	0	M1
NMTTP	1	48	0	B	0	M1
NMTTP	1	48	1	E	0	M1
NMSTR	2	240	0
NMSSL	2	240	0	96	96	4
NMTAP	3	240	7
NMTAP	3	288	6
NMTAP	3	336	5
NMTAP	4	0	2
NMTAP	4	24	3
NMTAP	4	48	2
NMTAP	4	72	3
NMTAP	4	96	2
EXTAP	4	192	1
BRTAP	4	288	0
NMTTP	4	288	0	C	1	M1
NMTTP	4	288	3	B	0	M1
NMTTP	4	288	4	B	0	M1
NMSTR	5	0	6
NMSI_	5	0	6	96	48	3
NMTAP	5	48	6
NMTAP	5	96	7
NMTAP	5	144	0
NMTAP	5	192	1
NMTAP	5	240	2
NMSTR	5	240	3
NMSI_	5	240	3	96	48	7
NMTAP	5	336	4
NMTAP	6	48	0
NMTAP	6	96	1
NMTAP	6	144	2
NMTAP	6	192	3
NMTAP	6	192	4
BRTAP	6	240	1
BRTAP	6	240	7
BRTAP	6	288	1
BRTAP	6	288	7
NMSTR	7	0	6
NMSI_	7	0	6	96	48	3
NMTAP	7	48	6
NMTAP	7	96	7
NMTAP	7	144	0
NMTAP	7	192	1
NMTAP	7	240	2
NMSTR	7	240	3
NMSI_	7	240	3	96	48	7
NMTAP	7	336	6
NMTAP	8	48	0
NMSTR	8	96	1
NMSI_	8	96	1	96	48	5
NMTAP	8	144	2
NMSTR	8	192	3
NMSF_	8	192	3	96	48	7
EXSTR	9	0	1
NMSI_	9	0	1	96	48	4
NMTAP	9	48	1
NMTAP	9	96	0
NMTAP	9	144	7
NMTAP	9	192	6
NMSTR	9	240	4
NMSI_	9	240	4	96	48	0
NMTAP	9	240	5
NMTAP	9	336	3
NMTAP	10	48	7
NMTAP	10	96	6
NMTAP	10	144	5
NMTAP	10	192	3
NMTAP	10	192	4
BRTAP	10	240	0
BRTAP	10	240	6
BRTAP	10	288	0
BRTAP	10	288	6
NMTAP	11	0	2
NMTAP	11	0	3
NMTAP	11	48	4
NMTAP	11	96	5
EXTAP	11	144	3
EXHLD	11	144	6	96
NMTAP	11	240	7
NMTAP	11	288	7
NMTAP	12	0	3
NMTAP	12	0	5
NMTAP	12	48	2
NMTAP	12	96	1
EXTAP	12	144	0
EXTAP	12	144	6
EXTAP	12	192	0
EXTAP	12	192	6
EXTAP	12	288	2
EXTAP	12	288	4
NMHLD	13	0	1	96
NMHLD	13	0	5	96
NMTAP	13	144	0
NMTAP	13	144	6
NMHLD	13	192	0	192
NMHLD	13	192	6	192
NMTTP	14	32	5	A	0	M1
NMTTP	14	80	4	A	0	M1
NMTTP	14	128	3	A	0	M1
NMTAP	14	192	0
NMTAP	14	192	1
NMTAP	14	288	0
NMTAP	14	288	1
NMTAP	15	0	3
NMTAP	15	0	4
NMTAP	15	48	3
NMTAP	15	72	4
NMTAP	15	96	3
NMTAP	15	120	4
NMTAP	15	144	3
EXTAP	15	216	1
EXTAP	15	216	5
NMTAP	15	336	5
NMTAP	16	0	4
NMTAP	16	32	4
NMTAP	16	72	2
NMTAP	16	96	3
NMTAP	16	120	2
NMTAP	16	144	3
BRTAP	16	240	7
NMTAP	17	0	6
NMTAP	17	48	5
NMTAP	17	96	3
NMTAP	17	120	4
NMTAP	17	144	3
NMHLD	17	168	4	48
NMTAP	17	216	2
NMTAP	17	264	5
NMTAP	17	288	3
NMTAP	17	312	5
NMTTP	18	72	3	E	0	M1
NMTTP	18	72	4	E	0	M1
NMTTP	18	72	5	E	0	M1
NMTAP	18	192	6
NMTAP	18	240	5
BRTAP	18	304	2
BRTAP	18	336	3
BRTAP	18	368	2
EXTAP	19	24	3
EXTAP	19	96	2
EXHLD	19	96	7	480
EXTAP	19	216	1
NMTTP	19	312	6	B	0	M1
NMTTP	20	0	5	E	0	M1
NMTTP	20	72	3	B	0	M1
NMTTP	20	120	2	B	0	M1
EXSTR	20	192	0
NMSSL	20	192	0	96	96	4
EXTAP	21	0	5
EXTAP	21	72	6
EXHLD	21	192	0	96
EXHLD	21	192	6	96
NMTAP	22	24	6
NMTAP	22	48	7
NMTAP	22	72	6
NMTAP	22	96	7
NMTAP	22	120	6
NMTAP	22	144	7
NMTAP	22	168	6
NMTAP	22	192	7
NMSTR	22	288	2
NMSI_	22	288	2	96	48	6
NMSTR	22	288	3
NMSI_	22	288	3	96	48	7
NMTTP	23	96	7	A	1	M1
NMTTP	23	112	6	E	0	M1
NMTTP	23	112	7	D	0	M1
NMTTP	23	128	5	B	0	M1
NMTTP	23	128	6	A	0	M1
NMTTP	23	144	5	E	0	M1
NMTTP	23	144	6	D	0	M1
NMTTP	23	160	4	B	0	M1
NMTTP	23	160	5	A	0	M1
NMTTP	23	176	4	E	0	M1
NMTTP	23	176	5	D	0	M1
NMTTP	23	192	3	B	0	M1
NMTTP	23	192	4	A	0	M1
NMTAP	24	32	4
NMTAP	24	80	3
NMTAP	24	160	3
NMTAP	24	216	2
NMTAP	24	256	1
NMTAP	25	0	1
NMTAP	25	0	5
NMSTR	25	96	1
NMSV_	25	96	1	96	96	3
NMSTR	25	96	5
NMSCR	25	96	5	96	96	1
NMTAP	26	0	4
NMTAP	26	0	6
NMTAP	26	96	1
NMTAP	26	96	3
NMTAP	26	168	4
NMHLD	26	192	3	96
NMTTP	27	0	1	B	0	M1
NMTTP	27	48	6	B	0	M1
NMTTP	27	192	4	B	0	M1
NMTTP	27	193	3	B	0	M1
NMTTP	27	208	4	E	0	M1
NMTTP	27	224	4	D	0	M1
NMTAP	27	336	0
NMTAP	27	336	1
NMTAP	28	0	0
NMTAP	28	0	1
NMSTR	28	96	2
NMSI_	28	96	2	96	48	7
NMSTR	28	96	3
NMSI_	28	96	3	96	48	6
BXTAP	28	192	2
BXTAP	28	192	3
EXTAP	29	0	0
NMTAP	29	24	1
NMTAP	29	48	2
NMTAP	29	72	3
NMTAP	29	96	4
NMTAP	29	120	5
NMTAP	29	144	6
NMTAP	29	168	7
NMTAP	29	192	0
NMTAP	29	216	1
NMTAP	29	240	2
NMTAP	29	264	3
NMTAP	29	288	4
NMTAP	29	312	5
NMTAP	29	336	6
NMTAP	29	360	7
NMTAP	30	0	0
NMTAP	30	24	1
NMTAP	30	48	2
NMTAP	30	72	3
NMTAP	30	96	4
NMTAP	30	120	5
NMTAP	30	144	6
NMTAP	30	168	7
NMTAP	30	192	0
NMTAP	30	216	1
NMTAP	30	240	2
NMTAP	30	264	3
NMTAP	30	288	4
NMHLD	31	0	6	96
NMHLD	31	96	5	96
NMHLD	31	192	4	96
NMHLD	31	288	3	96
NMTAP	32	0	2
NMTAP	32	96	4
NMTAP	32	96	5
NMTAP	32	192	6
NMTAP	32	192	7
NMTAP	32	240	0
NMTAP	32	240	5
BRTAP	32	288	1
BRTAP	32	288	4
EXTAP	33	0	3
EXTAP	33	12	2
EXTAP	33	12	4
EXTAP	33	24	1
EXTAP	33	24	5
EXTAP	33	36	0
EXTAP	33	36	6
NMTTP	33	96	3	A	0	M1
NMTTP	33	108	2	B	0	M1
NMTTP	33	108	4	B	0	M1
NMTTP	33	120	1	B	0	M1
NMTTP	33	120	5	B	0	M1
NMTTP	33	132	0	A	0	M1
NMTTP	33	132	6	A	0	M1
EXHLD	33	192	0	96
EXHLD	33	192	6	96
EXTAP	34	0	3
EXTAP	34	12	2
EXTAP	34	12	4
EXTAP	34	24	1
EXTAP	34	24	5
EXTAP	34	36	0
EXTAP	34	36	6
NMTTP	34	96	3	A	0	M1
NMTTP	34	108	2	B	0	M1
NMTTP	34	108	4	B	0	M1
NMTTP	34	120	1	B	0	M1
NMTTP	34	120	5	B	0	M1
NMTTP	34	132	0	A	0	M1
NMTTP	34	132	6	A	0	M1
EXHLD	34	192	0	96
EXHLD	34	192	6	96
EXTAP	35	0	3
EXTAP	35	12	2
EXTAP	35	12	4
EXTAP	35	24	1
EXTAP	35	24	5
EXTAP	35	36	0
EXTAP	35	36	6
NMTTP	35	96	3	A	0	M1
NMTTP	35	108	2	B	0	M1
NMTTP	35	108	4	B	0	M1
NMTTP	35	120	1	B	0	M1
NMTTP	35	120	5	B	0	M1
NMTTP	35	132	0	A	0	M1
NMTTP	35	132	6	A	0	M1
EXHLD	35	192	0	96
EXHLD	35	192	6	96
NMHLD	36	0	3	48
NMHLD	36	48	7	48
NMHLD	36	96	4	48
NMHLD	36	144	6	48
NMHLD	36	192	2	48
NMTAP	36	240	4
BRTAP	36	288	2
BRTAP	36	288	4
EXTAP	37	0	3
EXTAP	37	12	2
EXTAP	37	12	4
EXTAP	37	24	1
EXTAP	37	24	5
EXTAP	37	36	0
EXTAP	37	36	6
NMTTP	37	96	3	A	0	M1
NMTTP	37	108	2	B	0	M1
NMTTP	37	108	4	B	0	M1
NMTTP	37	120	1	B	0	M1
NMTTP	37	120	5	B	0	M1
NMTTP	37	132	0	A	0	M1
NMTTP	37	132	6	A	0	M1
EXHLD	37	192	0	96
EXHLD	37	192	6	96
EXTAP	38	0	3
EXTAP	38	12	2
EXTAP	38	12	4
EXTAP	38	24	1
EXTAP	38	24	5
EXTAP	38	36	0
EXTAP	38	36	6
NMTTP	38	96	3	A	0	M1
NMTTP	38	108	2	B	0	M1
NMTTP	38	108	4	B	0	M1
NMTTP	38	120	1	B	0	M1
NMTTP	38	120	5	B	0	M1
NMTTP	38	132	0	A	0	M1
NMTTP	38	132	6	A	0	M1
EXHLD	38	192	0	96
EXHLD	38	192	6	96
NMTAP	38	336	7
NMHLD	39	0	7	384
NMTTP	39	96	5	B	0	M1
NMTTP	39	96	6	B	0	M1
NMTTP	39	192	2	B	0	M1
NMTTP	39	192	3	B	0	M1
NMHLD	40	0	0	288
NMTTP	40	96	1	B	0	M1
NMTTP	40	96	2	B	0	M1
NMTTP	40	192	4	B	0	M1
NMTTP	40	192	5	B	0	M1
NMTAP	41	0	1
NMTAP	41	0	3
NMTAP	41	96	4
NMTAP	41	96	6
NMTAP	41	192	0
NMTAP	41	192	2
NMTAP	41	288	5
NMSTR	41	288	7
NMSCR	41	288	7	96	288	6
NMTTP	42	0	0	C	1	M1
NMTTP	43	32	2	B	0	M1
NMTTP	43	72	5	B	0	M1
NMTTP	43	120	1	B	0	M1
NMTTP	43	168	6	B	0	M1
NMTTP	43	216	1	E	0	M1
NMTTP	43	264	0	E	0	M1
NMTTP	43	312	0	D	0	M1
EXTAP	44	0	0
EXTAP	44	96	7
NMSTR	44	192	3
NMSI_	44	192	3	96	48	0
NMSTR	44	192	4
NMSI_	44	192	4	96	48	7
NMTTP	44	288	3	A	0	M1
NMTTP	44	288	4	A	0	M1
NMTTP	44	288	4	D	1	M1
NMSTR	45	0	1
NMSI_	45	0	1	96	48	3
NMTAP	45	48	0
NMSTR	45	96	7
NMSI_	45	96	7	96	48	2
NMTAP	45	144	6
NMSTR	45	192	5
NMSI_	45	192	5	96	48	7
NMTAP	45	240	4
NMTAP	45	288	3
NMHLD	46	0	0	96
NMTAP	46	0	1
NMTAP	46	96	3
NMTAP	46	192	4
NMSTR	46	192	7
NMSI_	46	192	7	96	48	5
NMSTR	46	288	0
NMSI_	46	288	0	96	48	4
NMTAP	46	288	7
NMTAP	47	0	0
NMHLD	47	0	1	96
NMTAP	47	96	3
NMTAP	47	144	2
NMHLD	47	192	0	96
NMHLD	47	192	1	96
BRTAP	48	0	2
BRTAP	48	0	3
BRTAP	48	96	0
BRTAP	48	96	6
BRTAP	48	192	4
BRTAP	48	192	5
BRTAP	48	288	1
BRTAP	48	288	7
NMTAP	49	0	2
NMTAP	49	24	3
NMTAP	49	48	2
NMTAP	49	72	3
NMTAP	49	96	1
NMTAP	49	120	4
NMTAP	49	144	1
NMTAP	49	168	4
NMSTR	49	192	0
NMSF_	49	192	0	96	48	4
NMTAP	49	240	7
BXTAP	49	288	0
NMTAP	50	0	5
NMTAP	50	24	4
NMTAP	50	48	5
NMTAP	50	72	4
NMTAP	50	96	6
NMTAP	50	120	3
NMTAP	50	144	6
NMTAP	50	168	3
NMSTR	50	192	7
NMSF_	50	192	7	96	48	3
NMTAP	50	240	0
BXTAP	50	288	7
NMHLD	51	0	5	48
NMTAP	51	48	4
NMHLD	51	96	1	48
NMTAP	51	144	3
NMHLD	51	192	6	48
NMTAP	51	240	4
NMHLD	51	288	0	48
NMTAP	51	336	3
EXTAP	52	0	0
EXTAP	52	24	1
EXTAP	52	48	2
EXTAP	52	72	3
EXTAP	52	96	4
EXTAP	52	120	5
EXTAP	52	144	6
EXTAP	52	168	7
EXSTR	52	192	0
BRSI_	52	192	0	96	48	4
BRTAP	52	288	0
BRTAP	52	288	5
NMSTR	53	0	6
NMSI_	53	0	6	96	48	4
NMTAP	53	48	7
NMSTR	53	96	0
NMSI_	53	96	0	96	48	5
NMTAP	53	144	1
NMSTR	53	192	2
NMSI_	53	192	2	96	48	0
NMTAP	53	240	3
NMTAP	53	288	4
NMTAP	54	0	6
NMHLD	54	0	7	96
NMHLD	54	96	4	96
NMSTR	54	192	0
NMSI_	54	192	0	96	48	2
NMTAP	54	288	0
NMSTR	54	288	7
NMSI_	54	288	7	96	48	3
NMHLD	55	0	6	96
NMTAP	55	0	7
NMTAP	55	96	4
NMTAP	55	144	5
NMHLD	55	192	6	96
NMHLD	55	192	7	96
NMTAP	55	336	5
BRTAP	56	0	4
BRTAP	56	0	5
BRTAP	56	96	1
BRTAP	56	96	7
BRTAP	56	192	2
BRTAP	56	192	3
BRTAP	56	288	0
BRTAP	56	288	6
NMTAP	57	0	2
NMTAP	57	24	3
NMTAP	57	48	2
NMTAP	57	72	3
NMTAP	57	96	2
NMTAP	57	120	3
NMTAP	57	144	2
NMTAP	57	168	3
NMSTR	57	192	1
NMSI_	57	192	1	96	48	4
NMSI_	57	192	1	96	48	6
NMTAP	57	240	0
BXTAP	57	288	1
NMTAP	58	0	5
NMTAP	58	24	4
NMTAP	58	48	5
NMTAP	58	72	4
NMTAP	58	96	5
NMTAP	58	120	4
NMTAP	58	144	5
NMTAP	58	168	4
NMSTR	58	192	5
NMSI_	58	192	5	96	48	1
BXTAP	58	288	5
NMTAP	58	288	7
NMTAP	58	336	7
NMHLD	59	0	0	48
NMHLD	59	96	1	48
NMHLD	59	96	7	48
NMHLD	59	192	2	48
NMHLD	59	192	6	48
NMHLD	59	288	3	48
NMHLD	59	288	5	48
NMTAP	60	0	4
NMSTR	60	96	4
NMSF_	60	96	4	96	96	0
NMTAP	61	0	3
NMTAP	61	0	5
NMTAP	61	48	2
NMTAP	61	72	3
NMTAP	61	96	1
NMTAP	61	144	0
NMTAP	61	192	6
NMTAP	61	192	7
NMTAP	61	240	5
NMTAP	61	264	4
NMTAP	61	288	6
NMTAP	61	336	7
NMTAP	62	0	0
NMTAP	62	0	1
NMTAP	62	48	2
NMTAP	62	72	3
NMTAP	62	96	1
NMTAP	62	144	0
NMTAP	62	192	6
NMTAP	62	192	7
NMTAP	62	240	5
NMTAP	62	264	4
NMSTR	62	288	6
NMSCL	62	288	6	96	96	2
NMTTP	63	0	3	B	0	M1
NMTTP	63	0	4	B	0	M1
NMSTR	63	96	0
NMSCR	63	96	0	96	96	4
NMTTP	63	192	0	C	0	M1
NMSTR	63	288	6
NMSCL	63	288	6	96	96	2
NMTAP	64	0	1
NMTAP	64	48	1
NMTAP	64	96	0
NMTAP	64	144	0
NMTAP	64	192	7
NMTAP	64	240	7
NMTAP	64	288	6
NMTAP	64	336	6
NMTAP	65	0	4
NMTAP	65	0	5
NMTAP	65	48	3
NMTAP	65	96	0
NMTAP	65	96	1
NMTAP	65	144	2
NMTAP	65	192	2
NMTAP	65	192	3
NMTAP	65	240	4
NMTAP	65	288	6
NMTAP	65	288	7
NMTAP	65	336	5
NMTAP	66	0	4
NMTAP	66	0	5
NMTAP	66	48	3
NMTAP	66	96	2
NMTAP	66	144	1
NMTAP	66	192	0
NMTAP	66	192	7
NMTAP	66	240	6
NMTAP	66	288	2
NMTAP	66	288	5
NMTAP	67	0	3
NMTAP	67	24	4
NMTAP	67	48	3
NMTAP	67	72	4
NMTAP	67	96	3
NMTAP	67	120	4
NMTAP	67	144	3
NMTAP	67	168	4
NMTTP	67	192	1	B	0	M1
NMTTP	67	192	2	B	0	M1
NMTTP	67	192	2	E	0	M1
NMTTP	67	288	5	B	0	M1
NMTTP	67	288	6	B	0	M1
NMTAP	68	0	0
NMTTP	68	0	0	C	0	M1
NMTAP	68	72	0
NMTAP	68	144	0
NMTAP	68	144	7
EXSTR	68	192	0
BRSI_	68	192	0	96	48	4
EXSTR	68	192	7
BRSI_	68	192	7	96	48	3
BRTAP	68	288	0
BRTAP	68	288	7
NMTAP	69	0	5
NMTAP	69	48	6
NMTAP	69	96	7
NMTAP	69	144	0
NMTAP	69	192	1
NMSTR	69	240	2
NMSCL	69	240	2	96	48	7
NMSTR	69	240	7
NMSCL	69	240	7	96	48	4
EXTAP	69	336	2
EXTAP	69	336	7
NMTAP	70	48	4
NMTAP	70	96	4
NMTAP	70	144	2
NMSTR	70	192	0
NMSCR	70	192	0	96	48	2
NMSTR	70	192	6
NMSCL	70	192	6	96	48	4
BRTAP	70	240	7
BRTAP	70	288	0
BRTAP	70	288	6
NMTAP	71	0	1
NMTAP	71	48	2
NMTAP	71	96	3
NMTAP	71	144	4
NMTAP	71	192	5
NMSTR	71	240	1
NMSCL	71	240	1	96	48	6
NMSTR	71	240	6
NMSCL	71	240	6	96	48	3
EXTAP	71	336	1
EXTAP	71	336	6
NMTAP	72	48	4
NMTAP	72	96	4
NMTAP	72	144	1
BRSTR	72	192	0
BRSSL	72	192	0	96	96	4
BRSTR	72	192	7
BRSI_	72	192	7	96	48	1
NMTAP	73	0	0
NMTAP	73	48	0
NMTAP	73	96	7
NMTAP	73	144	6
NMTAP	73	192	5
NMTAP	73	240	4
NMTAP	73	288	3
NMTAP	73	336	2
NMSTR	74	0	1
NMSI_	74	0	1	96	48	5
NMSTR	74	0	6
NMSCL	74	0	6	96	48	4
NMSTR	74	192	7
NMSUR	74	192	7	96	48	3
BRTAP	74	240	0
BRTAP	74	288	1
EXTAP	75	0	1
EXTAP	75	0	4
EXSTR	75	48	1
NMSCR	75	48	1	96	48	4
EXSTR	75	48	4
NMSCR	75	48	4	96	48	7
EXTAP	75	144	1
EXTAP	75	144	4
NMTAP	75	240	2
NMSTR	75	288	1
NMSI_	75	288	1	96	48	5
NMSTR	75	288	6
NMSI_	75	288	6	96	48	0
NMSTR	76	96	7
NMSV_	76	96	7	96	48	4
BRTAP	76	192	2
CNSCL	76	240	4	0	48	2
BRHLD	76	288	1	96
NMTAP	77	0	4
NMTAP	77	48	4
NMSTR	77	96	2
NMSV_	77	96	2	96	96	0
NMSTR	77	96	3
NMSLR	77	96	3	96	96	7
NMTAP	78	0	3
NMTAP	78	0	6
NMSTR	78	96	4
NMSLL	78	96	4	96	96	0
NMSTR	78	96	5
NMSV_	78	96	5	96	96	7
NMHLD	79	0	1	48
NMHLD	79	0	4	48
NMHLD	79	96	3	48
NMHLD	79	96	6	48
NMHLD	79	192	6	48
NMHLD	79	192	7	48
NMHLD	79	288	0	48
NMHLD	79	288	1	48
EXTAP	80	0	7
EXTAP	80	12	6
EXTAP	80	24	5
EXTAP	80	36	4
EXTAP	80	48	3
EXTAP	80	60	2
EXTAP	80	72	1
EXTAP	80	84	0
EXTAP	80	96	7
EXTAP	80	108	6
EXTAP	80	120	5
EXTAP	80	132	4
EXTAP	80	144	3
EXTAP	80	156	2
EXTAP	80	168	1
EXTAP	80	180	0
EXTAP	80	192	7
EXTAP	80	204	6
EXTAP	80	216	5
EXTAP	80	228	4
EXTAP	80	240	3
EXTAP	80	252	2
EXTAP	80	264	1
EXTAP	80	276	0
EXTAP	80	288	7
BXTAP	81	0	5
BXTAP	81	24	4
BXTAP	81	48	6
BXTAP	81	72	3
BXTAP	81	96	5
BXTAP	81	120	4
BXTAP	81	144	6
BXTAP	81	168	3
BXTAP	81	192	5
BXTAP	81	216	4
BXTAP	81	240	6
BXTAP	81	264	3
BXTAP	81	288	5
BXTAP	81	312	4
BXTAP	81	336	6
BXTAP	81	360	3
BRTAP	82	0	7
BRTAP	82	96	7
BRSTR	82	192	0
NMSI_	82	192	0	96	48	4
NMSTR	82	192	1
NMSI_	82	192	1	96	48	5
NMTTP	82	288	0	A	0	M1
NMTTP	82	288	1	A	0	M1
NMTTP	82	288	1	D	1	M1
BRTAP	83	0	3
BRTAP	83	0	6
BRTAP	83	48	3
BRTAP	83	48	6
NMTAP	83	144	0
NMTAP	83	144	3
NMTAP	83	192	0
NMSTR	83	192	3
NMSI_	83	192	3	96	48	6
NMTAP	83	288	1
NMSTR	83	288	3
NMSI_	83	288	3	96	48	0
NMSTR	84	0	3
NMSCR	84	0	3	96	48	6
NMTAP	84	0	5
NMTAP	84	96	1
NMSTR	84	96	3
NMSCL	84	96	3	96	48	0
NMSTR	84	192	3
NMSI_	84	192	3	96	48	7
NMTAP	84	192	5
NMSTR	84	288	3
NMSXL	84	288	3	96	144	7
NMSXR	84	288	3	96	144	7
BRTAP	85	192	1
BRTAP	85	192	5
NMSTR	85	288	0
NMSLR	85	288	0	96	96	4
NMSTR	86	0	4
NMSCR	86	0	4	96	192	4
NMTAP	86	96	0
NMTTP	86	192	6	E	1	M1
NMTAP	86	288	0
NMSTR	87	0	3
NMSCL	87	0	3	96	48	0
NMTAP	87	48	3
NMSTR	87	96	4
NMSCR	87	96	4	96	48	7
NMTAP	87	144	4
NMSTR	87	192	3
NMSI_	87	192	3	96	48	0
NMTAP	87	240	3
NMTAP	87	288	4
NMSTR	88	0	6
NMSI_	88	0	6	96	48	4
NMTAP	88	48	6
NMSTR	88	96	3
NMSI_	88	96	3	96	48	0
NMSTR	88	144	3
NMSI_	88	144	3	96	48	6
NMSTR	88	192	3
NMSI_	88	192	3	96	48	7
NMTAP	89	0	0
NMSTR	89	0	5
NMSCR	89	0	5	96	48	7
NMTAP	89	96	2
NMTAP	89	144	1
NMTAP	89	192	0
NMSTR	89	192	5
NMSCR	89	192	5	96	48	7
NMTAP	89	288	2
NMTAP	89	336	1
NMTAP	90	0	0
NMTAP	90	24	1
NMTAP	90	48	2
NMTAP	90	72	3
NMTAP	90	96	4
NMTAP	90	120	5
NMTAP	90	144	6
NMTAP	90	168	7
NMSTR	90	192	0
NMSI_	90	192	0	96	48	4
BRTAP	90	288	0
NMTAP	90	288	4
NMTAP	91	0	3
NMTAP	91	0	5
NMTAP	91	48	6
NMTAP	91	96	4
NMTAP	91	96	7
NMTAP	91	144	3
NMSTR	91	192	2
NMSXR	91	192	2	96	192	4
NMHLD	91	288	5	48
NMHLD	92	0	6	48
NMHLD	92	96	7	48
NMHLD	92	192	4	48
NMHLD	92	192	6	48
NMSTR	92	288	1
NMSLR	92	288	1	96	96	5
NMTAP	92	288	3
NMTTP	93	0	0	E	0	M1
NMTTP	93	0	0	D	0	M1
NMTTP	93	0	7	B	0	M1
NMTTP	93	0	7	E	0	M1
NMTTP	93	0	7	A	1	M1
NMTTP	93	0	7	D	0	M1
NMSTR	93	96	6
NMSI_	93	96	6	96	48	2
NMTAP	93	192	1
NMSTR	93	288	0
NMSI_	93	288	0	96	48	4
NMSTR	93	288	7
NMSI_	93	288	7	96	48	5
NMSTR	94	0	0
NMSI_	94	0	0	96	48	2
NMSTR	94	0	7
NMSI_	94	0	7	96	48	3
NMSTR	94	96	0
NMSI_	94	96	0	96	48	4
NMSTR	94	96	7
NMSI_	94	96	7	96	48	5
NMTAP	94	192	0
NMTAP	94	192	7
NMSTR	94	288	0
NMSCR	94	288	0	96	48	2
NMSTR	95	0	0
NMSCL	95	0	0	96	48	6
NMTAP	95	0	4
NMSTR	95	96	0
NMSI_	95	96	0	96	48	2
NMTAP	95	96	3
NMSTR	95	192	0
NMSCL	95	192	0	96	48	6
NMTAP	95	192	5
NMTAP	95	288	0
NMTAP	95	288	3
BRTAP	96	0	1
BRTAP	96	0	5
BRTAP	96	72	3
BRTAP	96	72	7
BRTAP	96	144	0
BRTAP	96	144	4
BRSTR	96	192	2
NMSCL	96	192	2	96	48	7
BRSTR	96	192	6
NMSCL	96	192	6	96	48	3
NMSTR	97	0	4
NMSCL	97	0	4	96	48	1
NMTAP	97	0	5
NMTAP	97	96	4
NMSTR	97	96	5
NMSCR	97	96	5	96	48	0
NMSTR	97	192	4
NMSUL	97	192	4	96	48	0
NMSTR	97	288	4
BRSXL	97	288	4	96	96	4
BRSXR	97	288	4	96	96	4
NMTAP	97	288	6
BRHLD	98	192	2	96
BRHLD	98	192	6	96
NMTAP	99	0	3
NMTAP	99	0	5
NMTAP	99	48	2
NMTAP	99	72	3
NMTAP	99	96	1
NMTAP	99	144	5
NMTAP	99	168	4
NMTAP	99	192	6
NMTAP	99	240	2
NMTAP	99	264	3
NMTAP	99	288	1
NMTAP	99	336	6
NMTAP	99	360	4
NMTAP	100	0	5
NMTAP	100	48	1
NMTAP	100	72	3
NMTAP	100	96	2
NMTAP	100	144	6
NMTAP	100	168	4
NMTAP	100	192	5
NMTAP	100	240	1
NMTAP	100	264	3
NMTAP	100	288	2
NMTAP	100	336	6
NMTAP	100	360	7
NMTAP	101	0	5
NMTAP	101	48	1
NMTAP	101	72	0
NMTAP	101	96	2
NMTAP	101	144	6
NMTAP	101	168	7
NMTAP	101	192	5
NMSTR	101	288	3
NMSCL	101	288	3	96	96	0
NMTAP	102	0	5
NMSTR	102	96	3
NMSCR	102	96	3	96	96	6
NMTAP	102	192	1
NMSTR	102	288	3
NMSXR	102	288	3	96	336	0
NMTAP	103	0	7
NMTAP	103	96	5
NMSTR	103	192	4
NMSI_	103	192	4	96	48	7
NMTAP	104	0	6
NMTAP	104	48	6
NMTAP	104	96	2
NMTAP	104	144	2
NMTAP	104	192	4
NMTAP	104	240	4
NMSTR	104	288	3
NMSI_	104	288	3	96	48	0
NMSTR	105	0	4
NMSI_	105	0	4	96	48	7
NMSTR	105	96	3
NMSI_	105	96	3	96	48	0
NMSTR	105	192	4
NMSI_	105	192	4	96	48	7
NMSTR	105	288	2
NMSI_	105	288	2	96	48	0
NMSTR	106	0	5
NMSI_	106	0	5	96	48	7
NMSTR	106	96	2
NMSI_	106	96	2	96	48	0
NMSTR	106	192	5
NMSI_	106	192	5	96	48	7
NMSTR	106	288	3
NMSI_	106	288	3	96	48	0
NMTAP	107	0	3
NMSTR	107	0	4
NMSI_	107	0	4	96	48	7
NMSTR	107	96	3
NMSI_	107	96	3	96	48	0
NMTAP	107	96	4
NMTAP	107	192	3
NMSTR	107	192	4
NMSI_	107	192	4	96	48	7
NMSTR	107	288	2
NMSI_	107	288	2	96	48	0
NMTAP	107	288	4
BRTAP	108	0	2
NMSTR	108	0	5
NMSI_	108	0	5	96	48	7
NMSTR	108	96	2
NMSI_	108	96	2	96	48	0
BRTAP	108	96	5
BRTAP	108	192	2
NMSTR	108	192	5
NMSI_	108	192	5	96	48	7
NMSTR	108	288	3
NMSCL	108	288	3	96	48	0
BRTAP	108	288	5
CNSUL	109	48	0	0	144	7
CNSCL	109	192	7	0	48	4
EXTAP	109	288	2
EXTAP	109	288	6
NMTAP	110	0	1
NMTAP	110	0	5
NMTAP	110	72	6
NMTAP	110	72	7
NMTAP	110	144	0
NMTAP	110	144	1
NMSTR	110	192	2
NMSXL	110	192	2	96	48	2
NMSTR	110	192	7
NMSV_	110	192	7	96	48	6

T_REC_TAP	402
T_REC_BRK	62
T_REC_XTP	96
T_REC_BXX	22
T_REC_HLD	50
T_REC_XHO	14
T_REC_BHO	3
T_REC_BXH	0
T_REC_STR	110
T_REC_BST	5
T_REC_XST	7
T_REC_XBS	0
T_REC_TTP	114
T_REC_THO	0
T_REC_SLD	118
T_REC_BSL	7
T_REC_ALL	1010
T_NUM_TAP	729
T_NUM_BRK	99
T_NUM_HLD	64
T_NUM_SLD	118
T_NUM_ALL	1010
T_JUDGE_TAP	818
T_JUDGE_HLD	126
T_JUDGE_SLD	125
T_JUDGE_ALL	1069
TTM_EACHPAIRS	165
TTM_SCR_TAP	364500
TTM_SCR_BRK	257400
TTM_SCR_HLD	64000
TTM_SCR_SLD	177000
TTM_SCR_ALL	862900
TTM_SCR_S	827450
TTM_SCR_SS	853000
TTM_RAT_ACV	10116

