VERSION	0.00.00	1.04.00
FES_MODE	0
BPM_DEF	175.000	175.000	175.000	175.000
MET_DEF	4	4
RESOLUTION	384
CLK_DEF	384
COMPATIBLE_CODE	MA2

BPM	0	0	175.000
MET	0	0	4	4

EXSTR	2	240	0
NMSSL	2	240	0	96	288	4
NMTAP	4	0	5
NMTAP	4	48	5
NMTAP	4	96	4
BRTAP	4	192	3
BRSTR	4	192	4
BRSI_	4	192	4	96	48	7
NMTAP	5	0	1
NMTAP	5	96	0
NMTAP	5	96	1
NMTAP	5	192	2
NMTAP	5	240	2
NMTAP	5	288	3
NMTAP	6	0	5
NMTAP	6	96	4
NMTAP	6	96	5
NMTAP	6	192	6
BRTAP	6	240	7
BRTAP	6	288	7
NMTAP	7	0	6
NMTAP	7	96	6
NMTAP	7	96	7
NMTAP	7	192	5
NMTAP	7	240	5
NMTAP	7	288	4
NMTAP	8	0	2
NMTAP	8	96	2
NMTAP	8	96	3
BRTAP	8	192	0
BRTAP	8	192	1
BRTAP	8	288	0
BRTAP	8	288	1
NMTAP	9	0	1
NMTAP	9	96	0
NMTAP	9	96	2
NMTAP	9	192	3
NMTAP	9	240	3
NMTAP	9	288	4
NMTAP	10	0	5
NMTAP	10	96	6
NMTAP	10	96	7
NMTAP	10	192	0
BRTAP	10	240	7
BRTAP	10	288	7
NMTAP	11	0	6
NMHLD	11	48	6	96
NMHLD	11	144	4	96
NMTAP	11	240	2
NMHLD	11	288	2	96
NMTAP	12	0	0
NMHLD	12	48	0	96
NMTAP	12	144	7
BRTAP	12	192	0
BRTAP	12	192	7
BRTAP	12	288	1
BRTAP	12	288	6
NMTAP	13	0	2
NMHLD	13	96	2	480
NMTAP	13	192	4
NMTAP	13	288	3
NMTAP	14	0	6
NMTAP	14	96	3
NMTAP	14	192	4
NMTAP	14	240	4
NMTAP	14	288	3
NMTAP	15	0	5
NMHLD	15	96	5	480
NMTAP	15	192	3
NMTAP	15	288	4
NMTAP	16	0	1
NMTAP	16	96	4
NMTAP	16	192	3
NMTAP	16	240	3
NMTAP	16	288	4
NMHLD	17	0	1	288
NMTAP	17	96	4
NMTAP	17	192	3
NMTAP	17	240	3
NMTAP	17	288	4
NMHLD	18	0	6	288
NMTAP	18	96	3
NMTAP	18	192	4
NMTAP	18	240	4
NMTAP	18	288	3
NMTAP	19	0	2
NMTAP	19	0	6
NMSTR	19	48	2
NMSUR	19	48	2	96	144	7
NMSTR	19	48	6
NMSCL	19	48	6	96	144	3
NMTAP	20	0	1
NMTAP	20	0	5
NMSTR	20	48	1
NMSCR	20	48	1	96	144	4
NMSTR	20	48	5
NMSUL	20	48	5	96	144	0
NMHLD	21	0	6	96
NMTAP	21	96	7
NMTAP	21	192	0
NMTAP	21	192	6
NMTAP	21	240	0
NMTAP	21	240	6
NMHLD	21	336	1	96
NMTAP	22	48	0
NMTAP	22	96	0
NMTAP	22	192	2
NMTAP	22	192	7
NMTAP	22	288	2
NMTAP	22	288	7
NMHLD	23	0	1	96
NMTAP	23	96	0
NMTAP	23	192	1
NMTAP	23	192	7
NMTAP	23	240	1
NMTAP	23	240	7
NMHLD	23	336	6	96
NMTAP	24	48	7
NMTAP	24	96	7
NMTAP	24	192	0
NMTAP	24	192	5
NMTAP	24	288	0
NMTAP	24	288	5
NMHLD	25	0	7	96
NMHLD	25	96	6	96
NMHLD	25	192	5	96
NMHLD	25	288	4	96
NMHLD	26	0	3	96
NMHLD	26	96	2	96
NMHLD	26	192	1	96
NMTAP	26	288	0
NMTAP	27	0	6
NMTAP	27	48	6
NMTAP	27	96	7
NMTAP	27	192	1
NMTAP	27	240	1
NMTAP	27	288	0
NMTAP	28	0	2
NMTAP	28	0	7
NMTAP	28	96	4
NMTAP	28	96	5
BRTAP	28	192	0
BRTAP	28	192	4
NMSTR	29	0	7
NMSF_	29	0	7	96	192	3
NMTAP	30	0	5
NMTAP	30	96	5
NMTAP	30	192	2
NMTAP	30	288	2
NMSTR	31	0	3
NMSUL	31	0	3	96	384	1
NMSTR	31	0	4
NMSUR	31	0	4	96	384	6
EXTAP	32	288	1
EXTAP	32	288	6
NMTAP	33	0	5
NMTAP	33	0	7
NMTAP	33	96	5
NMTAP	33	96	7
NMHLD	33	192	5	96
NMHLD	33	192	7	96
NMTAP	34	0	0
NMTAP	34	0	2
NMTAP	34	96	0
NMTAP	34	96	2
NMHLD	34	192	0	96
NMHLD	34	192	2	96
NMTAP	35	0	5
NMTAP	35	0	7
NMTAP	35	96	5
NMTAP	35	96	7
NMHLD	35	192	5	96
NMHLD	35	192	7	96
NMTTP	36	0	5	E	0	M1
NMTTP	36	0	5	D	0	M1
NMTTP	36	96	1	E	0	M1
NMTTP	36	96	1	D	0	M1
NMTTP	36	192	7	E	0	M1
NMTTP	36	192	7	D	0	M1
NMTTP	36	288	3	E	0	M1
NMTTP	36	288	3	D	0	M1
NMTAP	37	0	0
NMTAP	37	0	2
NMTAP	37	96	0
NMTAP	37	96	2
NMHLD	37	192	0	96
NMHLD	37	192	2	96
NMTAP	38	0	5
NMTAP	38	0	7
NMTAP	38	96	5
NMTAP	38	96	7
NMHLD	38	192	5	96
NMHLD	38	192	7	96
NMSTR	39	0	0
NMSCR	39	0	0	96	192	4
NMTAP	39	48	0
EXTAP	39	288	5
NMSTR	40	0	7
NMSCL	40	0	7	96	192	3
NMTAP	40	48	7
EXTAP	40	288	2
NMHLD	41	0	2	96
NMHLD	41	96	0	96
NMHLD	41	192	7	96
NMSTR	41	288	5
NMSCR	41	288	5	96	384	4
NMHLD	43	0	0	576
NMTAP	44	0	2
NMTAP	44	96	2
BRSTR	44	192	3
BRSI_	44	192	3	96	48	7
NMTAP	45	0	1
NMTAP	45	48	0
NMTAP	45	48	1
NMTAP	45	144	6
NMTAP	45	192	6
NMTAP	45	192	7
NMTAP	45	288	4
NMTAP	45	288	5
NMTAP	46	0	2
NMTAP	46	0	3
NMTAP	46	96	1
NMTAP	46	144	1
NMTAP	46	192	0
NMTAP	46	288	2
NMTAP	46	288	3
NMTAP	47	0	4
NMSTR	47	0	5
NMSI_	47	0	5	96	48	0
NMSTR	47	192	2
NMSI_	47	192	2	96	48	7
NMTAP	47	192	3
NMTAP	48	0	4
NMTAP	48	0	5
NMTAP	48	96	6
NMTAP	48	96	7
NMTAP	48	192	0
NMTAP	48	192	1
NMTAP	48	288	2
NMTAP	48	288	3
NMTAP	49	0	1
NMTAP	49	48	1
NMTAP	49	96	3
NMTAP	49	144	3
NMTAP	49	192	2
BRTAP	49	288	6
BRTAP	49	288	7
NMTAP	50	0	6
NMTAP	50	48	6
NMTAP	50	96	4
NMTAP	50	144	4
NMTAP	50	192	5
BRTAP	50	288	0
BRTAP	50	288	1
NMSTR	51	0	2
NMSI_	51	0	2	96	48	7
NMSTR	51	0	7
NMSI_	51	0	7	96	48	4
NMSTR	51	192	0
NMSI_	51	192	0	96	48	3
NMSTR	51	192	5
NMSI_	51	192	5	96	48	0
NMTAP	52	0	2
NMHLD	52	0	7	192
BRSTR	52	192	4
BRSI_	52	192	4	96	48	0
NMTAP	53	0	6
NMTAP	53	48	6
NMTAP	53	48	7
NMTAP	53	144	1
NMTAP	53	192	0
NMTAP	53	192	1
NMTAP	53	288	2
NMTAP	53	288	3
NMTAP	54	0	4
NMTAP	54	0	5
NMHLD	54	96	6	96
NMTAP	54	192	7
NMTAP	54	288	4
NMTAP	54	288	5
NMSTR	55	0	2
NMSI_	55	0	2	96	48	7
NMTAP	55	0	3
NMTAP	55	192	4
NMSTR	55	192	5
NMSI_	55	192	5	96	48	0
NMTAP	56	0	2
NMTAP	56	0	3
NMTAP	56	96	0
NMTAP	56	96	1
NMTAP	56	192	6
NMTAP	56	192	7
NMTAP	56	288	4
NMTAP	56	288	5
NMTAP	57	0	6
NMTAP	57	48	6
NMTAP	57	96	4
NMTAP	57	144	4
NMTAP	57	192	5
BRTAP	57	288	3
BRTAP	57	288	7
NMTAP	58	0	2
NMTAP	58	48	2
NMTAP	58	96	3
NMTAP	58	144	3
NMTAP	58	192	1
NMHLD	58	288	0	96
NMTAP	58	288	4
NMHLD	59	0	6	96
NMHLD	59	96	4	96
NMHLD	59	192	2	96
NMHLD	59	288	0	96
BRTAP	60	0	7
NMTAP	60	192	1
NMTAP	60	192	6
NMSTR	60	288	2
NMSCL	60	288	2	96	480	4
NMSTR	60	288	5
NMSCR	60	288	5	96	480	3
NMTAP	62	288	3
NMTAP	62	288	4
NMTAP	63	0	2
NMTAP	63	48	2
NMTAP	63	96	0
NMTAP	63	192	5
NMTAP	63	240	5
NMTAP	63	288	7
NMTAP	64	0	1
NMTAP	64	48	1
NMTAP	64	96	3
NMTAP	64	192	6
NMTAP	64	240	6
NMTAP	64	288	4
NMTAP	65	0	4
NMTAP	65	0	5
NMTAP	65	96	6
NMTAP	65	96	7
NMTAP	65	192	0
NMTAP	65	192	1
NMTAP	65	288	2
NMTAP	65	288	3
NMTAP	66	0	4
NMTAP	66	0	5
NMTAP	66	96	6
NMTAP	66	96	7
NMTAP	66	192	0
NMTAP	66	192	1
NMTAP	66	288	2
NMTAP	66	288	3
NMSTR	67	0	3
NMSUR	67	0	3	96	192	0
NMSTR	67	0	4
NMSUL	67	0	4	96	192	7
NMTAP	68	0	1
NMTAP	68	0	6
NMTAP	68	72	3
NMTAP	68	72	4
NMTAP	68	144	2
NMTAP	68	144	5
BRSTR	68	192	2
NMSCR	68	192	2	96	48	5
BRTAP	68	192	5
NMHLD	69	0	6	96
NMHLD	69	96	7	96
NMTAP	69	192	5
NMTAP	69	240	5
NMHLD	69	336	1	96
NMTAP	70	48	0
NMHLD	70	96	0	96
NMTAP	70	192	2
BRTAP	70	240	7
BRTAP	70	288	7
NMHLD	71	0	1	96
NMHLD	71	96	0	96
NMTAP	71	192	2
NMTAP	71	240	2
NMHLD	71	336	6	96
NMTAP	72	48	7
NMTAP	72	96	7
BRTAP	72	192	6
BRTAP	72	192	7
BRTAP	72	288	6
BRTAP	72	288	7
NMHLD	73	0	5	96
NMHLD	73	96	4	96
NMTAP	73	192	6
NMTAP	73	240	6
NMHLD	73	336	2	96
NMTAP	74	48	3
NMHLD	74	96	3	96
NMTAP	74	192	1
BRTAP	74	240	0
BRTAP	74	288	0
NMTAP	75	0	6
NMTAP	75	0	7
NMTAP	75	48	6
NMTAP	75	48	7
NMTAP	75	144	3
NMTAP	75	144	4
NMTAP	75	240	0
NMTAP	75	240	1
NMTAP	75	288	0
NMTAP	75	288	1
NMTAP	76	0	7
NMHLD	76	48	7	96
NMTAP	76	144	1
BRTAP	76	192	1
BRTAP	76	192	7
BRTAP	76	288	2
BRTAP	76	288	6
NMSTR	77	0	1
NMSI_	77	0	1	96	96	4
NMSTR	77	0	5
NMSV_	77	0	5	96	96	0
NMTAP	77	48	1
NMTAP	77	48	5
NMTAP	77	288	3
NMTAP	77	288	7
NMSTR	78	0	2
NMSV_	78	0	2	96	96	7
NMSTR	78	0	6
NMSI_	78	0	6	96	96	3
NMTAP	78	48	2
NMTAP	78	48	6
NMTAP	78	288	0
NMTAP	78	288	4
BRTAP	79	0	1
BRTAP	79	0	3
BRTAP	79	96	0
BRTAP	79	96	7
BRTAP	79	192	4
BRTAP	79	192	6
BRSTR	79	288	3
BRSI_	79	288	3	96	96	5
BRSTR	79	288	4
BRSI_	79	288	4	96	96	2
CNSI_	80	96	2	0	96	6
CNSI_	80	96	5	0	96	1
CNSI_	80	192	1	0	96	7
CNSI_	80	192	6	0	96	0
NMTTP	81	0	2	E	0	M1
NMTTP	81	0	2	A	0	M1
NMTTP	81	0	2	D	0	M1
NMTTP	81	0	5	A	0	M1
NMTTP	81	0	6	E	1	M1
NMTTP	81	0	6	D	0	M1
NMHLD	82	0	6	96
NMHLD	82	96	4	96
BRSTR	82	192	3
BRSI_	82	192	3	96	48	7
NMTAP	83	0	1
NMTAP	83	48	0
NMTAP	83	48	1
NMTAP	83	144	6
NMTAP	83	192	6
NMTAP	83	192	7
NMTAP	83	288	4
NMTAP	83	288	6
NMTAP	84	0	3
NMTAP	84	0	4
NMTAP	84	96	1
NMTAP	84	144	1
NMTAP	84	192	0
NMTAP	84	288	3
NMTAP	84	288	7
NMSTR	85	0	4
NMSI_	85	0	4	96	48	0
NMTAP	85	0	6
NMTAP	85	192	1
NMSTR	85	192	3
NMSI_	85	192	3	96	48	7
NMTAP	86	0	0
NMTAP	86	0	6
NMTAP	86	96	1
NMTAP	86	96	3
NMTAP	86	192	4
NMTAP	86	192	6
NMTAP	86	288	0
NMTAP	86	288	7
NMTAP	87	0	1
NMTAP	87	48	1
NMTAP	87	96	7
NMTAP	87	144	7
BRTAP	87	192	1
BRSTR	87	192	6
NMSI_	87	192	6	96	48	2
NMTAP	88	0	1
NMTAP	88	48	1
NMTAP	88	96	3
NMTAP	88	144	3
NMTTP	88	192	1	E	1	M1
NMTTP	88	192	1	D	0	M1
NMTTP	88	240	7	E	1	M1
NMTTP	88	240	7	D	0	M1
NMTTP	88	288	0	E	1	M1
NMTTP	88	288	0	D	0	M1
NMSTR	89	0	3
NMSI_	89	0	3	96	48	7
NMSTR	89	0	4
NMSI_	89	0	4	96	48	6
NMSTR	89	192	3
NMSI_	89	192	3	96	48	1
NMSTR	89	192	4
NMSI_	89	192	4	96	48	0
NMTAP	90	0	2
NMHLD	90	0	7	192
BRSTR	90	192	4
BRSI_	90	192	4	96	48	0
NMTAP	91	0	6
NMTAP	91	48	6
NMTAP	91	48	7
NMTAP	91	144	1
NMTAP	91	192	0
NMTAP	91	192	1
NMTAP	91	288	1
NMTAP	91	288	3
NMTAP	92	0	3
NMTAP	92	0	4
NMHLD	92	96	6	96
NMTAP	92	192	7
NMTAP	92	288	0
NMTAP	92	288	4
NMTAP	93	0	1
NMSTR	93	0	3
NMSI_	93	0	3	96	48	7
NMSTR	93	192	4
NMSI_	93	192	4	96	48	0
NMTAP	93	192	6
NMTAP	94	0	1
NMTAP	94	0	7
NMTAP	94	96	4
NMTAP	94	96	6
NMTAP	94	192	1
NMTAP	94	192	3
NMTAP	94	288	0
NMTAP	94	288	7
NMTAP	95	0	1
NMTAP	95	48	1
NMTAP	95	96	4
NMTAP	95	144	4
NMTAP	95	192	0
NMTAP	95	192	5
BRTAP	95	288	2
BRTAP	95	288	7
NMTAP	96	0	1
NMTAP	96	48	0
NMTAP	96	96	2
NMTAP	96	96	7
NMTAP	96	192	6
NMTAP	96	240	7
BRTAP	96	288	0
BRTAP	96	288	5
NMTAP	97	0	4
NMTAP	97	0	5
NMHLD	97	96	2	96
NMSTR	97	96	7
NMSUL	97	96	7	96	48	3
NMSTR	97	288	0
NMSUR	97	288	0	96	48	4
NMHLD	97	288	5	96
NMSTR	98	192	2
NMSI_	98	192	2	96	48	7
NMSTR	98	192	4
NMSI_	98	192	4	96	48	7
BRHLD	99	0	0	192
BRTAP	99	0	6
NMTAP	99	96	3
NMTAP	99	192	7
NMHLD	99	240	7	144
NMTAP	99	288	4
NMTAP	100	0	1
NMHLD	100	48	1	144
NMTAP	100	96	3
NMTAP	100	192	6
NMHLD	100	240	6	144
NMTAP	100	288	4
NMTAP	101	0	2
NMHLD	101	48	2	144
NMTAP	101	96	0
NMTAP	101	192	5
NMHLD	101	240	5	144
NMTAP	101	288	7
NMTAP	102	0	3
NMHLD	102	48	3	144
NMTAP	102	96	1
NMTAP	102	192	4
NMTAP	102	240	4
NMSTR	102	288	3
NMSCL	102	288	3	96	480	3
NMSCR	102	288	3	96	480	3
NMTAP	104	288	2
NMTAP	104	288	4
NMSTR	105	0	2
NMSI_	105	0	2	96	48	0
NMSTR	105	0	3
NMSI_	105	0	3	96	48	0
NMSTR	105	192	4
NMSI_	105	192	4	96	48	7
NMSTR	105	192	5
NMSI_	105	192	5	96	48	7
NMSTR	106	0	0
NMSI_	106	0	0	96	48	4
NMSTR	106	0	1
NMSI_	106	0	1	96	48	5
NMSTR	106	192	6
NMSI_	106	192	6	96	48	2
NMSTR	106	192	7
NMSI_	106	192	7	96	48	3
NMTAP	107	0	0
NMTAP	107	0	7
NMTAP	107	96	5
NMTAP	107	96	6
NMTAP	107	192	3
NMTAP	107	192	4
NMTAP	107	288	1
NMTAP	107	288	2
NMTAP	108	0	0
NMTAP	108	0	7
NMTAP	108	96	1
NMTAP	108	96	2
NMTAP	108	192	3
NMTAP	108	192	4
NMTAP	108	288	5
NMTAP	108	288	6
NMTAP	109	0	0
NMTAP	109	48	0
NMTAP	109	96	6
NMTAP	109	144	6
NMTAP	109	192	2
NMTAP	109	240	2
NMTAP	109	288	4
NMTAP	110	0	4
NMTAP	110	0	5
NMTAP	110	72	0
NMTAP	110	72	7
NMTAP	110	144	2
NMTAP	110	144	3
BRSTR	110	192	2
NMSI_	110	192	2	96	48	5
NMSI_	110	192	2	96	48	7
BRTAP	110	192	3

T_REC_TAP	382
T_REC_BRK	48
T_REC_XTP	4
T_REC_BXX	0
T_REC_HLD	64
T_REC_XHO	0
T_REC_BHO	1
T_REC_BXH	0
T_REC_STR	47
T_REC_BST	10
T_REC_XST	1
T_REC_XBS	0
T_REC_TTP	20
T_REC_THO	0
T_REC_SLD	53
T_REC_BSL	7
T_REC_ALL	637
T_NUM_TAP	454
T_NUM_BRK	66
T_NUM_HLD	64
T_NUM_SLD	53
T_NUM_ALL	637
T_JUDGE_TAP	512
T_JUDGE_HLD	176
T_JUDGE_SLD	60
T_JUDGE_ALL	748
TTM_EACHPAIRS	159
TTM_SCR_TAP	227000
TTM_SCR_BRK	171600
TTM_SCR_HLD	64000
TTM_SCR_SLD	79500
TTM_SCR_ALL	542100
TTM_SCR_S	519450
TTM_SCR_SS	535500
TTM_RAT_ACV	10123

