VERSION	0.00.00	1.04.00
FES_MODE	0
BPM_DEF	175.000	175.000	175.000	175.000
MET_DEF	4	4
RESOLUTION	384
CLK_DEF	384
COMPATIBLE_CODE	MA2

BPM	0	0	175.000
MET	0	0	4	4

EXHLD	2	240	3	144
EXHLD	2	240	4	144
NMTAP	4	0	3
NMTAP	4	0	4
BRTAP	4	192	3
BRTAP	4	192	4
NMTAP	5	0	2
NMTAP	5	96	2
NMTAP	5	192	2
NMTAP	6	0	1
NMTAP	6	96	1
NMTAP	6	192	1
NMTAP	7	0	0
NMTAP	7	96	0
NMTAP	7	192	0
NMTAP	8	0	6
NMTAP	8	0	7
NMTAP	8	192	6
NMTAP	8	192	7
NMTAP	9	0	5
NMTAP	9	96	5
NMTAP	9	192	5
NMTAP	10	0	6
NMTAP	10	96	6
NMTAP	10	192	6
NMTAP	11	0	7
NMTAP	11	96	7
NMTAP	11	192	7
NMTAP	12	0	0
NMTAP	12	0	1
NMTAP	12	192	0
NMTAP	12	192	1
NMSTR	13	0	1
NMSI_	13	0	1	96	192	4
NMSTR	14	0	5
NMSI_	14	0	5	96	192	2
NMSTR	15	0	1
NMSI_	15	0	1	96	192	5
NMTAP	16	0	6
NMTAP	16	192	6
NMTAP	16	192	7
NMSTR	17	0	6
NMSI_	17	0	6	96	192	3
NMSTR	18	0	2
NMSI_	18	0	2	96	192	7
NMSTR	19	0	6
NMSI_	19	0	6	96	192	3
NMTAP	20	0	2
NMTAP	20	192	3
NMTAP	20	192	4
NMTAP	21	0	4
NMTAP	21	96	4
NMTAP	21	192	5
NMTAP	22	0	6
NMTAP	22	96	6
NMTAP	22	192	7
NMTAP	23	0	0
NMTAP	23	96	0
NMTAP	23	192	1
NMTAP	24	0	2
NMTAP	24	96	2
NMTAP	24	192	2
NMTAP	24	192	3
NMTAP	25	0	3
NMTAP	25	96	3
NMTAP	25	192	2
NMTAP	26	0	1
NMTAP	26	96	1
NMTAP	26	192	0
NMTAP	27	0	7
NMTAP	27	96	7
NMTAP	27	192	6
NMTAP	28	0	5
NMTAP	28	96	5
NMTAP	28	192	4
NMTAP	28	192	5
NMSTR	29	0	5
NMSUL	29	0	5	96	480	3
EXSTR	31	0	3
NMSI_	31	0	3	96	288	0
EXSTR	31	0	4
NMSI_	31	0	4	96	288	7
NMTAP	32	192	0
NMTAP	32	192	7
EXTAP	33	0	6
EXTAP	33	0	7
EXTAP	33	96	6
EXTAP	33	96	7
EXTAP	33	192	6
EXTAP	33	192	7
EXTAP	34	0	0
EXTAP	34	0	1
EXTAP	34	96	0
EXTAP	34	96	1
EXTAP	34	192	0
EXTAP	34	192	1
EXTAP	35	0	6
EXTAP	35	0	7
EXTAP	35	96	6
EXTAP	35	96	7
EXTAP	35	192	6
EXTAP	35	192	7
NMTAP	36	0	0
NMTAP	36	0	7
NMTAP	36	192	0
NMTAP	36	192	7
EXTAP	37	0	0
EXTAP	37	0	1
EXTAP	37	96	0
EXTAP	37	96	1
EXTAP	37	192	0
EXTAP	37	192	1
EXTAP	38	0	6
EXTAP	38	0	7
EXTAP	38	96	6
EXTAP	38	96	7
EXTAP	38	192	6
EXTAP	38	192	7
NMTAP	39	0	0
NMTAP	39	96	0
NMTAP	39	192	0
NMTAP	40	0	7
NMTAP	40	96	7
NMTAP	40	192	7
NMSTR	41	0	0
NMSCR	41	0	0	96	288	3
NMSTR	41	0	7
NMSCL	41	0	7	96	288	4
NMHLD	43	0	3	384
NMHLD	43	0	4	384
BXTAP	44	192	3
BXTAP	44	192	4
NMTAP	45	0	5
NMTAP	45	96	5
NMTAP	45	192	6
NMTAP	45	288	6
NMTAP	46	0	7
NMTAP	46	96	7
NMTAP	46	192	0
NMTAP	46	192	1
NMTAP	47	0	2
NMTAP	47	96	2
NMTAP	47	192	1
NMTAP	47	288	1
NMTAP	48	0	0
NMTAP	48	96	0
NMTAP	48	192	6
NMTAP	48	192	7
NMTAP	49	0	6
NMTAP	49	96	6
NMTAP	49	192	5
NMTAP	49	288	5
NMTAP	50	0	4
NMTAP	50	96	4
NMTAP	50	192	2
NMTAP	50	192	3
NMTAP	51	0	1
NMTAP	51	96	1
NMTAP	51	192	2
NMTAP	51	288	2
NMTAP	52	0	3
NMTAP	52	96	3
BXTAP	52	192	4
BXTAP	52	192	5
NMTAP	53	0	5
NMTAP	53	96	5
NMTAP	53	192	6
NMTAP	53	288	6
NMTAP	54	0	7
NMTAP	54	96	7
NMTAP	54	192	0
NMTAP	54	192	1
NMTAP	55	0	2
NMTAP	55	96	2
NMTAP	55	192	1
NMTAP	55	288	1
NMTAP	56	0	0
NMTAP	56	96	0
NMTAP	56	192	6
NMTAP	56	192	7
NMTAP	57	0	6
NMTAP	57	96	6
NMTAP	57	192	5
NMTAP	57	288	5
NMTAP	58	0	4
NMTAP	58	96	4
NMTAP	58	192	2
NMTAP	58	192	3
NMTAP	59	0	1
NMTAP	59	96	1
NMTAP	59	192	2
NMTAP	59	288	2
NMTAP	60	0	3
NMTAP	60	96	3
NMTAP	60	192	4
NMTAP	60	192	5
NMTAP	61	0	5
NMTAP	61	96	5
NMTAP	61	192	5
NMTAP	61	288	5
NMTAP	62	0	6
NMTAP	62	96	6
NMTAP	62	192	6
NMTAP	62	288	6
NMTAP	63	0	7
NMTAP	63	96	7
NMTAP	63	192	7
NMTAP	63	288	7
NMHLD	64	0	0	192
NMHLD	64	0	1	192
NMTAP	65	0	2
NMTAP	65	96	2
NMTAP	65	192	2
NMTAP	65	288	2
NMTAP	66	0	1
NMTAP	66	96	1
NMTAP	66	192	1
NMTAP	66	288	1
NMTAP	67	0	0
NMTAP	67	96	0
NMTAP	67	192	0
NMTAP	67	288	0
EXHLD	68	0	6	192
EXHLD	68	0	7	192
NMHLD	69	0	5	192
NMHLD	69	192	4	192
NMHLD	70	0	3	192
NMTAP	70	192	2
NMHLD	71	0	2	192
NMHLD	71	192	3	192
NMHLD	72	0	4	192
NMTAP	72	192	5
NMHLD	73	0	6	192
NMHLD	73	192	5	192
NMHLD	74	0	4	192
NMTAP	74	192	3
NMHLD	75	0	1	192
NMHLD	75	192	2	192
NMHLD	76	0	3	192
NMTAP	76	192	4
NMTTP	77	0	4	B	0	L1
NMTTP	77	96	5	B	0	L1
NMTTP	77	192	6	B	0	L1
NMTTP	78	0	3	B	0	L1
NMTTP	78	96	2	B	0	L1
NMTTP	78	192	1	B	0	L1
NMTTP	79	0	4	B	0	L1
NMTTP	79	96	5	B	0	L1
NMTTP	79	192	6	B	0	L1
NMTTP	79	288	7	B	0	L1
NMTTP	80	0	0	B	0	L1
NMTTP	80	96	1	B	0	L1
NMTTP	80	192	2	B	0	L1
NMTTP	80	288	3	B	0	L1
NMTTP	81	0	0	C	1	L1
BXTAP	82	192	0
BXTAP	82	192	7
NMTAP	83	0	1
NMTAP	83	96	1
NMTAP	83	192	0
NMTAP	83	192	1
NMTAP	83	288	0
NMTAP	83	288	1
NMTAP	84	0	7
NMTAP	84	96	7
NMTAP	84	192	6
NMTAP	84	192	7
NMTAP	85	0	5
NMTAP	85	96	5
NMTAP	85	192	6
NMTAP	85	192	7
NMTAP	85	288	6
NMTAP	85	288	7
NMTAP	86	0	0
NMTAP	86	96	0
NMTAP	86	192	0
NMTAP	86	192	1
NMTAP	87	0	1
NMTAP	87	96	1
NMTAP	87	192	2
NMTAP	87	192	3
NMTAP	87	288	2
NMTAP	87	288	3
NMTAP	88	0	4
NMTAP	88	96	4
NMTAP	88	192	4
NMTAP	88	192	5
NMTAP	89	0	6
NMTAP	89	96	6
NMTAP	89	192	4
NMTAP	89	192	5
NMTAP	89	288	4
NMTAP	89	288	5
NMTAP	90	0	3
NMTAP	90	96	3
BXTAP	90	192	2
BXTAP	90	192	3
NMTAP	91	0	2
NMTAP	91	96	2
NMTAP	91	192	0
NMTAP	91	192	1
NMTAP	91	288	0
NMTAP	91	288	1
NMTAP	92	0	7
NMTAP	92	96	7
NMTAP	92	192	6
NMTAP	92	192	7
NMTAP	92	288	6
NMTAP	92	288	7
NMTAP	93	0	5
NMTAP	93	96	5
NMTAP	93	192	6
NMTAP	93	192	7
NMTAP	93	288	6
NMTAP	93	288	7
NMTAP	94	0	0
NMTAP	94	96	0
NMTAP	94	192	0
NMTAP	94	192	1
NMTAP	95	0	1
NMTAP	95	96	1
NMTAP	95	192	2
NMTAP	95	192	3
NMTAP	95	288	2
NMTAP	95	288	3
NMTAP	96	0	4
NMTAP	96	96	4
NMTAP	96	192	4
NMTAP	96	192	5
NMTAP	96	288	4
NMTAP	96	288	5
NMTAP	97	0	6
NMTAP	97	96	6
NMTAP	97	192	4
NMTAP	97	192	5
NMTAP	97	288	4
NMTAP	97	288	5
NMTAP	98	0	3
NMTAP	98	96	3
NMTAP	98	192	2
NMTAP	98	192	3
NMTAP	99	0	1
NMTAP	99	96	1
NMTAP	99	192	1
NMTAP	99	288	0
NMTAP	99	288	1
NMTAP	100	0	2
NMTAP	100	96	2
NMTAP	100	192	2
NMTAP	100	288	2
NMTAP	100	288	3
NMTAP	101	0	4
NMTAP	101	96	4
NMTAP	101	192	4
NMTAP	101	288	4
NMTAP	101	288	5
NMTAP	102	0	6
NMTAP	102	0	7
NMTAP	102	96	6
NMTAP	102	96	7
NMTAP	102	192	6
NMTAP	102	192	7
NMTAP	103	0	6
NMTAP	103	96	6
NMTAP	103	192	6
NMTAP	103	288	6
NMTAP	103	288	7
NMTAP	104	0	5
NMTAP	104	96	5
NMTAP	104	192	5
NMTAP	104	288	4
NMTAP	104	288	5
NMTAP	105	0	3
NMTAP	105	96	3
NMTAP	105	192	3
NMTAP	105	288	2
NMTAP	105	288	3
NMTAP	106	0	0
NMTAP	106	0	1
NMTAP	106	96	0
NMTAP	106	96	1
NMTAP	106	192	0
NMTAP	106	192	1
NMTAP	107	0	0
NMTAP	107	96	1
NMTAP	107	192	2
NMTAP	107	288	3
NMTAP	108	0	4
NMTAP	108	96	5
NMTAP	108	192	6
NMTAP	108	288	7
NMTAP	109	0	0
NMTAP	109	96	1
NMTAP	109	192	2
NMTAP	109	288	3
NMTAP	110	0	3
NMTAP	110	0	4
NMTAP	110	96	3
NMTAP	110	96	4
BXTAP	110	192	3
BXTAP	110	192	4

T_REC_TAP	302
T_REC_BRK	2
T_REC_XTP	30
T_REC_BXX	10
T_REC_HLD	16
T_REC_XHO	4
T_REC_BHO	0
T_REC_BXH	0
T_REC_STR	9
T_REC_BST	0
T_REC_XST	2
T_REC_XBS	0
T_REC_TTP	15
T_REC_THO	0
T_REC_SLD	11
T_REC_BSL	0
T_REC_ALL	401
T_NUM_TAP	358
T_NUM_BRK	12
T_NUM_HLD	20
T_NUM_SLD	11
T_NUM_ALL	401
T_JUDGE_TAP	370
T_JUDGE_HLD	86
T_JUDGE_SLD	11
T_JUDGE_ALL	467
TTM_EACHPAIRS	85
TTM_SCR_TAP	179000
TTM_SCR_BRK	31200
TTM_SCR_HLD	20000
TTM_SCR_SLD	16500
TTM_SCR_ALL	246700
TTM_SCR_S	238150
TTM_SCR_SS	245500
TTM_RAT_ACV	10048

