VERSION	0.00.00	1.04.00
FES_MODE	0
BPM_DEF	190.000	190.000	190.000	190.000
MET_DEF	4	4
RESOLUTION	384
CLK_DEF	384
COMPATIBLE_CODE	MA2

BPM	0	0	190.000
MET	0	0	4	4

NMSTR	1	0	3
NMSI_	1	0	3	96	192	5
NMSTR	1	0	5
NMSI_	1	0	5	96	480	3
CNSI_	1	288	5	0	480	0
CNSI_	2	192	3	0	480	0
CNSI_	3	0	0	0	480	4
CNSI_	3	288	0	0	192	4
NMTAP	5	0	4
NMHLD	5	0	6	288
NMTAP	5	96	4
NMTAP	5	192	4
NMTAP	5	288	4
NMHLD	6	0	2	288
NMTAP	6	0	4
NMTAP	6	96	4
NMTAP	6	192	4
NMTAP	6	288	4
NMTAP	7	0	4
NMHLD	7	0	5	288
NMTAP	7	96	4
NMTAP	7	192	4
NMTAP	7	288	4
NMTAP	8	0	2
NMTAP	8	0	6
NMTAP	8	48	2
NMTAP	8	48	6
NMTAP	8	96	1
NMTAP	8	96	7
NMTAP	8	144	1
NMTAP	8	144	7
NMSTR	8	192	0
NMSI_	8	192	0	96	48	4
BRTAP	8	288	0
NMTAP	8	288	1
NMTAP	9	0	2
NMHLD	9	0	3	96
NMTAP	9	96	0
NMHLD	9	192	2	288
NMTAP	9	192	4
NMTAP	9	288	1
NMSTR	9	336	1
NMSI_	9	336	1	96	48	5
CNSI_	10	96	5	0	96	3
NMTAP	10	192	1
CNSI_	10	192	3	0	96	7
NMTAP	10	288	0
NMTAP	11	0	0
NMTAP	11	0	1
NMTAP	11	96	2
NMHLD	11	144	2	96
NMTAP	11	240	0
NMTAP	11	288	7
NMTAP	11	336	6
NMTAP	12	48	2
NMTAP	12	96	3
NMTAP	12	144	4
NMTAP	12	192	1
NMTAP	12	240	2
NMTAP	12	288	3
NMTAP	12	336	4
NMHLD	13	0	4	96
NMTAP	13	0	5
NMTAP	13	96	7
NMTAP	13	192	3
NMHLD	13	192	5	288
NMTAP	13	288	6
NMSTR	13	336	6
NMSI_	13	336	6	96	48	2
CNSI_	14	96	2	0	96	4
CNSI_	14	192	4	0	96	0
NMTAP	14	192	6
NMTAP	14	288	7
NMTAP	15	0	6
NMTAP	15	0	7
NMTAP	15	96	5
NMHLD	15	144	5	144
NMTAP	15	288	7
NMTAP	15	336	0
NMTAP	16	0	1
NMTAP	16	48	2
NMTAP	16	144	0
NMTAP	16	144	1
NMTAP	16	240	6
NMTAP	16	240	7
NMTAP	16	336	5
NMHLD	17	0	4	576
NMTAP	17	0	6
NMTAP	17	48	6
NMTAP	17	96	6
NMTTP	17	192	4	B	0	M1
NMTTP	17	192	4	E	0	M1
NMTTP	17	192	5	E	0	M1
NMTAP	17	336	2
NMTAP	18	48	1
NMTAP	18	96	1
NMTTP	18	192	3	B	0	M1
NMTTP	18	192	3	E	0	M1
NMTTP	18	192	4	E	0	M1
NMHLD	19	0	0	576
NMTAP	19	0	6
NMTAP	19	48	6
NMTAP	19	96	6
NMTTP	19	192	0	B	0	M1
NMTTP	19	192	0	E	0	M1
NMTTP	19	192	1	E	0	M1
NMTAP	19	336	2
NMTAP	20	48	3
NMTAP	20	96	3
NMTTP	20	192	5	B	0	M1
NMTTP	20	192	6	B	0	M1
NMTTP	20	192	6	E	0	M1
NMTAP	21	0	0
NMTAP	21	0	1
NMTAP	21	96	1
NMTAP	21	96	7
NMTAP	21	192	1
NMTAP	21	192	5
NMTAP	21	288	1
NMTAP	21	288	4
NMTAP	22	0	2
NMTAP	22	0	3
NMTAP	22	96	0
NMTAP	22	96	1
NMTAP	22	192	6
NMTAP	22	192	7
NMTAP	22	288	4
NMTAP	22	288	5
NMTAP	23	0	5
NMTAP	23	48	5
NMTAP	23	96	4
NMTAP	23	144	4
NMTAP	23	192	6
NMTAP	23	216	3
NMTAP	23	240	6
NMTAP	23	264	3
NMTAP	23	288	7
NMTAP	23	312	2
NMHLD	23	336	7	240
NMHLD	23	360	2	216
BRSTR	24	288	0
NMSI_	24	288	0	96	48	4
BRTAP	24	288	6
NMTAP	25	0	0
NMTAP	25	0	5
NMSTR	25	48	7
NMSI_	25	48	7	96	48	2
NMTAP	25	144	3
NMTAP	25	144	7
NMSTR	25	192	1
NMSI_	25	192	1	96	48	4
NMTAP	25	288	1
NMTAP	25	288	5
NMSTR	25	336	6
NMSI_	25	336	6	96	48	3
NMTAP	26	48	0
NMTAP	26	48	6
BRSTR	26	96	2
NMSI_	26	96	2	96	48	5
NMTAP	26	192	2
NMTAP	26	192	4
BRSTR	26	240	6
NMSI_	26	240	6	96	48	1
NMTAP	26	336	2
NMTAP	26	336	6
NMSTR	27	0	3
NMSCL	27	0	3	96	48	0
NMTAP	27	96	3
NMTAP	27	96	5
NMSTR	27	144	7
NMSV_	27	144	7	96	48	4
NMTAP	27	240	2
NMSTR	27	240	7
NMSCL	27	240	7	96	48	3
NMTAP	27	336	1
NMHLD	28	0	1	144
NMTAP	28	144	7
NMTAP	28	192	6
NMTAP	28	240	5
NMSTR	28	288	2
NMSCR	28	288	2	96	96	6
NMTAP	28	288	4
NMTAP	29	0	7
NMHLD	29	48	7	240
CNSXR	29	96	6	0	192	0
EXTAP	29	336	7
NMTAP	30	0	0
NMTAP	30	0	1
NMTAP	30	48	2
NMTAP	30	96	3
NMTAP	30	96	4
NMTAP	30	144	5
NMTAP	30	192	6
NMTAP	30	192	7
NMSTR	30	240	0
NMSUR	30	240	0	96	96	4
NMSTR	30	336	4
NMSLR	30	336	4	96	96	0
NMSTR	31	48	0
NMSCR	31	48	0	96	96	4
NMTAP	31	144	4
NMTAP	31	240	0
NMTAP	31	288	0
NMTAP	32	0	2
NMTAP	32	24	3
NMTAP	32	48	2
NMTAP	32	72	3
NMTAP	32	96	1
NMTAP	32	96	4
NMSTR	32	192	0
NMSI_	32	192	0	96	48	4
NMSTR	32	192	3
NMSCR	32	192	3	96	48	6
BRTAP	32	288	0
BRSTR	32	288	3
NMSI_	32	288	3	96	48	7
NMTAP	33	0	3
NMTAP	33	0	6
NMSTR	33	48	4
NMSI_	33	48	4	96	48	1
NMTAP	33	144	0
NMTAP	33	144	4
NMSTR	33	192	2
NMSI_	33	192	2	96	48	7
NMTAP	33	288	2
NMTAP	33	288	6
NMSTR	33	336	5
NMSI_	33	336	5	96	48	0
NMTAP	34	48	3
NMTAP	34	48	5
NMSTR	34	96	1
NMSI_	34	96	1	96	48	6
NMTAP	34	192	1
NMTAP	34	192	7
NMSTR	34	240	5
NMSI_	34	240	5	96	48	2
NMTAP	34	336	1
NMTAP	34	336	5
NMSTR	35	0	0
NMSCR	35	0	0	96	48	3
NMTAP	35	96	0
NMTAP	35	96	6
NMSTR	35	144	4
NMSV_	35	144	4	96	48	7
NMTAP	35	240	1
NMSTR	35	240	4
NMSCR	35	240	4	96	48	0
NMTAP	35	336	2
NMHLD	36	0	2	144
NMTAP	36	144	4
NMTAP	36	192	5
NMTAP	36	240	6
NMSTR	36	288	1
NMSCL	36	288	1	96	96	5
NMTAP	36	288	7
NMTAP	37	0	4
NMHLD	37	48	4	240
CNSXL	37	96	5	0	192	3
EXTAP	37	336	4
NMTAP	38	0	2
NMTAP	38	0	3
NMTAP	38	48	1
NMTAP	38	96	0
NMTAP	38	96	7
NMTAP	38	144	6
NMTAP	38	192	4
NMTAP	38	192	5
NMSTR	38	240	3
NMSUL	38	240	3	96	96	7
NMSTR	38	336	7
NMSLL	38	336	7	96	96	3
NMSTR	39	48	3
NMSCL	39	48	3	96	96	7
NMSTR	39	144	7
NMSCL	39	144	7	96	96	3
NMTAP	39	240	3
NMTAP	39	288	3
NMTAP	40	0	0
NMTAP	40	48	0
NMTAP	40	96	1
NMTAP	40	96	7
NMHLD	40	144	1	240
NMTAP	40	144	7
EXTAP	40	192	6
EXTAP	40	216	5
EXTAP	40	240	4
EXTAP	40	264	3
EXSTR	40	288	2
NMSI_	40	288	2	96	48	6
NMTAP	41	0	2
NMTAP	41	96	1
NMTAP	41	144	0
NMSTR	41	192	7
NMSI_	41	192	7	96	48	4
NMSCL	41	192	7	96	48	4
NMSTR	41	288	7
NMSI_	41	288	7	96	48	2
NMSCR	41	288	7	96	48	2
NMTAP	42	0	7
NMTAP	42	96	3
NMTAP	42	144	4
NMTAP	42	192	4
NMSTR	42	240	3
NMSUR	42	240	3	96	48	0
NMSTR	42	240	5
NMSUL	42	240	5	96	48	0
NMTAP	42	336	3
NMTAP	42	336	5
NMTAP	43	96	3
NMTAP	43	96	5
NMTAP	43	192	6
NMTAP	43	192	7
NMTAP	43	240	6
NMSTR	43	240	7
NMSCR	43	240	7	96	48	2
NMSTR	43	336	6
NMSCL	43	336	6	96	48	3
NMTAP	43	336	7
NMSTR	44	48	6
NMSI_	44	48	6	96	48	2
NMSTR	44	48	7
NMSI_	44	48	7	96	48	1
NMSTR	44	144	6
NMSI_	44	144	6	96	48	4
NMSTR	44	144	7
NMSI_	44	144	7	96	48	3
BRTAP	44	240	6
BRTAP	44	240	7
NMTAP	45	0	5
NMTAP	45	48	5
NMTAP	45	96	4
NMTAP	45	96	5
NMTAP	45	144	5
NMTAP	45	192	5
NMTAP	45	192	6
NMTAP	45	240	5
NMTAP	45	288	0
NMTAP	45	288	5
NMTAP	45	336	5
NMTAP	46	0	2
NMTAP	46	48	2
NMTAP	46	96	2
NMTAP	46	96	3
NMTAP	46	144	2
NMTAP	46	192	1
NMTAP	46	192	2
NMTAP	46	240	2
NMTAP	46	288	2
NMSTR	46	288	7
NMSI_	46	288	7	96	48	4
NMTAP	46	336	2
NMSTR	47	0	7
NMSI_	47	0	7	96	48	2
NMTAP	47	96	7
NMTAP	47	192	0
NMTAP	47	192	5
NMTAP	47	240	6
NMTAP	47	264	7
NMTAP	47	288	6
NMTAP	47	312	7
NMTAP	47	336	6
NMTAP	47	360	7
NMHLD	48	0	6	192
NMTAP	48	192	0
NMTAP	48	216	1
NMTAP	48	240	2
NMTAP	48	264	3
NMTAP	48	288	0
NMTAP	48	312	7
NMTAP	48	336	6
NMTAP	48	360	5
NMSTR	49	0	4
NMSCR	49	0	4	96	384	4
CNSI_	50	96	4	0	48	6
CNSI_	50	144	6	0	48	0
CNSI_	50	192	0	0	48	2
CNSI_	50	240	2	0	48	4
CNSI_	50	288	4	0	48	6
CNSI_	50	336	6	0	48	1
CNSI_	51	0	1	0	48	4
CNSI_	51	48	4	0	48	7
CNSI_	51	96	7	0	480	3
NMTTP	53	0	0	E	0	M1
NMTTP	53	48	7	B	0	M1
NMTTP	53	96	6	B	0	M1
NMTTP	53	144	6	E	0	M1
NMTTP	53	192	2	E	0	M1
NMTTP	53	240	2	B	0	M1
NMTTP	53	288	3	B	0	M1
NMTTP	53	336	4	E	0	M1
NMTTP	54	0	7	E	0	M1
NMTTP	54	48	6	B	0	M1
NMTTP	54	96	5	B	0	M1
NMTTP	54	144	5	E	0	M1
NMTTP	54	192	1	E	0	M1
NMTTP	54	240	1	B	0	M1
NMTTP	54	288	2	B	0	M1
NMTTP	54	336	3	E	0	M1
NMTTP	55	0	7	A	0	M1
NMTTP	55	48	6	A	0	M1
NMTTP	55	96	5	A	0	M1
NMTTP	55	144	4	A	0	M1
NMTTP	55	192	3	A	0	M1
NMTTP	55	240	2	A	0	M1
NMTTP	55	288	1	A	0	M1
NMTTP	55	336	0	A	0	M1
EXTAP	56	0	7
EXTAP	56	32	6
EXTAP	56	64	5
EXTAP	56	96	3
EXTAP	56	128	2
EXTAP	56	160	1
NMTHO	56	192	0	96	C	0	M1
NMHLD	57	0	1	192
NMHLD	57	0	2	192
NMTTP	57	204	1	E	0	M1
NMTTP	57	216	0	B	0	M1
NMTTP	57	228	7	B	0	M1
NMTTP	57	240	7	E	0	M1
NMHLD	58	0	5	192
NMHLD	58	0	6	192
NMTTP	58	204	7	E	0	M1
NMTTP	58	216	7	B	0	M1
NMTTP	58	228	0	B	0	M1
NMTTP	58	240	1	E	0	M1
NMHLD	59	0	2	192
NMHLD	59	0	3	192
NMTTP	59	204	2	E	0	M1
NMTTP	59	216	1	B	0	M1
NMTTP	59	228	0	B	0	M1
NMTTP	59	240	0	E	0	M1
NMHLD	60	0	4	192
NMHLD	60	0	5	192
NMTTP	60	204	6	E	0	M1
NMTTP	60	216	6	B	0	M1
NMTTP	60	228	7	B	0	M1
NMTTP	60	240	0	E	0	M1
NMTAP	60	288	1
NMTAP	60	336	1
NMTAP	61	0	2
NMHLD	61	0	3	192
NMSTR	61	96	2
NMSI_	61	96	2	96	48	7
NMTTP	61	204	2	E	0	M1
NMTTP	61	216	1	B	0	M1
NMTTP	61	228	0	B	0	M1
NMTTP	61	240	0	E	0	M1
NMHLD	62	0	4	192
NMTAP	62	0	5
NMSTR	62	96	5
NMSI_	62	96	5	96	48	0
NMTTP	62	204	6	E	0	M1
NMTTP	62	216	6	B	0	M1
NMTTP	62	228	7	B	0	M1
NMTTP	62	240	0	E	0	M1
NMTAP	63	0	3
NMHLD	63	0	5	192
NMSTR	63	96	3
NMSI_	63	96	3	96	48	0
NMTTP	63	204	3	E	0	M1
NMTTP	63	216	2	B	0	M1
NMTTP	63	228	1	B	0	M1
NMTTP	63	240	1	E	0	M1
NMHLD	64	0	4	96
NMHLD	64	96	6	96
NMHLD	64	192	0	96
NMTAP	64	288	2
NMTAP	65	0	2
NMHLD	65	0	4	192
NMSTR	65	96	5
NMSI_	65	96	5	96	48	3
CNSXR	65	240	3	0	48	1
NMTAP	65	240	6
NMTAP	65	288	6
NMTAP	66	0	3
NMHLD	66	0	5	192
NMSTR	66	96	6
NMSI_	66	96	6	96	48	4
CNSXR	66	240	4	0	48	2
NMTAP	66	240	7
NMTAP	66	288	7
NMHLD	67	0	3	192
NMTAP	67	0	5
NMSTR	67	96	2
NMSI_	67	96	2	96	48	4
NMTAP	67	240	1
CNSXL	67	240	4	0	48	6
NMTAP	67	288	1
NMHLD	68	0	2	192
NMTAP	68	0	4
NMSTR	68	96	1
NMSI_	68	96	1	96	48	3
NMTAP	68	240	0
CNSXL	68	240	3	0	48	5
NMTAP	68	288	0
NMTAP	69	0	2
NMHLD	69	0	4	192
NMSTR	69	96	5
NMSXR	69	96	5	96	48	3
CNSI_	69	240	3	0	48	1
NMTAP	69	240	6
NMTAP	69	288	6
NMTAP	70	0	3
NMHLD	70	0	5	192
NMSTR	70	96	6
NMSXR	70	96	6	96	48	4
CNSI_	70	240	4	0	48	2
NMTAP	70	240	7
NMTAP	70	288	7
NMSTR	71	0	0
NMSI_	71	0	0	96	48	4
NMSTR	71	0	1
NMSI_	71	0	1	96	48	4
BRTAP	71	96	0
BRTAP	71	96	1
NMSTR	71	192	0
NMSI_	71	192	0	96	48	4
NMSTR	71	192	1
NMSI_	71	192	1	96	48	4
BRTAP	71	288	0
BRTAP	71	288	1
NMTAP	72	0	5
NMTAP	72	48	5
NMTAP	72	96	6
NMTAP	72	144	6
NMTAP	72	192	7
NMTAP	72	216	1
NMTAP	72	240	7
NMTAP	72	264	1
NMSTR	72	288	7
NMSI_	72	288	7	96	48	3
BRTAP	73	0	1
BRTAP	73	0	7
NMTAP	73	96	2
NMTAP	73	96	4
NMTAP	73	192	4
NMTAP	73	240	5
NMTAP	73	288	3
NMTAP	73	288	6
NMTAP	74	0	3
NMTAP	74	48	2
NMTAP	74	96	1
NMTAP	74	96	4
NMTAP	74	192	4
NMTAP	74	240	5
NMTAP	74	288	3
NMTAP	74	288	6
NMHLD	75	0	5	96
NMHLD	75	96	4	48
NMHLD	75	144	6	48
NMHLD	75	192	3	48
NMHLD	75	240	7	48
NMHLD	75	288	2	48
NMHLD	75	336	0	48
NMTAP	76	0	1
NMTAP	76	48	1
NMTAP	76	96	1
NMTAP	76	144	0
NMTAP	76	144	2
NMTAP	76	240	3
NMTAP	76	288	5
NMTAP	76	336	5
NMHLD	77	0	2	48
NMTAP	77	48	3
NMHLD	77	96	4	48
NMTAP	77	144	3
NMHLD	77	192	1	48
NMTAP	77	240	3
NMHLD	77	288	5	48
NMTAP	77	336	3
NMTAP	78	0	2
NMTAP	78	0	4
NMTAP	78	48	1
NMTAP	78	48	5
NMTAP	78	96	0
NMTAP	78	96	6
NMSTR	78	144	7
NMSUL	78	144	7	96	48	3
NMSUR	78	144	7	96	48	3
NMTAP	79	0	2
NMTAP	79	24	3
NMTAP	79	48	2
NMTAP	79	72	3
NMTAP	79	96	1
NMTAP	79	144	5
NMTAP	79	168	4
NMTAP	79	192	5
NMTAP	79	216	4
NMTAP	79	240	6
NMTAP	79	288	2
NMTAP	79	312	3
NMTAP	79	336	2
NMTAP	79	360	3
NMSTR	80	0	1
NMSUR	80	0	1	96	96	2
CNSCR	80	192	2	0	192	0
EXHLD	81	0	6	1152
NMHLD	85	0	3	384
NMHLD	86	0	2	384
NMHLD	87	0	1	576
NMHLD	88	0	7	192
NMSTR	88	288	0
BRSI_	88	288	0	96	48	4
BRTAP	88	288	6
NMTAP	89	0	0
EXTAP	89	0	5
CNSI_	89	48	4	0	24	1
NMSTR	89	48	7
NMSI_	89	48	7	96	48	3
EXTAP	89	144	2
NMTAP	89	144	7
NMSTR	89	192	0
BRSI_	89	192	0	96	48	5
CNSI_	89	192	3	0	24	6
NMTAP	89	288	0
EXTAP	89	288	4
CNSI_	89	336	5	0	24	1
NMSTR	89	336	6
NMSI_	89	336	6	96	48	1
EXTAP	90	48	3
BRTAP	90	48	6
CNSI_	90	96	1	0	24	7
NMSTR	90	96	2
BRSI_	90	96	2	96	48	5
BRTAP	90	192	2
EXTAP	90	192	4
CNSI_	90	240	5	0	24	3
NMTAP	90	240	6
NMTAP	90	336	1
NMSTR	91	0	7
NMSCL	91	0	7	96	48	4
NMTAP	91	96	1
NMTAP	91	96	7
NMSTR	91	144	3
NMSV_	91	144	3	96	48	0
NMSTR	91	240	3
NMSCL	91	240	3	96	48	7
NMTAP	91	240	5
NMTAP	91	336	6
NMHLD	92	0	6	96
EXTAP	92	96	1
EXTAP	92	120	2
EXTAP	92	144	3
EXTAP	92	168	4
EXTAP	92	192	5
EXTAP	92	216	6
EXTAP	92	240	7
EXTAP	92	264	0
EXTAP	92	288	1
NMSTR	92	288	6
NMSCR	92	288	6	96	96	2
NMTAP	93	0	3
NMHLD	93	48	3	240
CNSXR	93	96	2	0	192	4
EXTAP	93	336	3
NMTAP	94	0	4
NMTAP	94	0	5
NMTAP	94	48	6
NMTAP	94	96	0
NMTAP	94	96	7
NMTAP	94	144	1
NMTAP	94	192	2
NMTAP	94	192	3
NMSTR	94	240	4
NMSUL	94	240	4	96	96	0
NMSTR	94	336	0
NMSLL	94	336	0	96	96	4
NMSTR	95	48	4
NMSCL	95	48	4	96	96	0
NMSTR	95	144	0
NMSCL	95	144	0	96	96	4
NMTAP	95	240	4
NMTAP	95	288	4
NMTAP	96	0	0
NMTAP	96	48	0
NMTAP	96	96	1
NMTAP	96	96	7
NMHLD	96	144	1	240
NMTAP	96	144	7
EXTAP	96	192	6
EXTAP	96	216	5
EXTAP	96	240	4
EXTAP	96	264	3
EXSTR	96	288	2
NMSI_	96	288	2	96	48	6
NMTAP	97	0	2
NMTAP	97	96	1
NMTAP	97	144	0
NMSTR	97	192	7
NMSI_	97	192	7	96	48	5
NMSV_	97	192	7	96	48	4
NMSTR	97	288	7
NMSI_	97	288	7	96	48	1
NMSV_	97	288	7	96	48	2
NMTAP	98	0	7
NMTAP	98	96	3
NMTAP	98	144	4
NMTAP	98	192	4
NMSTR	98	240	3
NMSUL	98	240	3	96	48	7
NMSTR	98	240	5
NMSUR	98	240	5	96	48	1
NMTAP	98	336	3
NMTAP	98	336	5
NMTAP	99	96	3
NMTAP	99	96	5
NMTAP	99	192	0
NMTAP	99	192	6
NMTAP	99	240	0
NMSTR	99	240	6
NMSI_	99	240	6	96	48	2
NMSTR	99	336	0
NMSI_	99	336	0	96	48	4
NMTAP	99	336	6
NMSTR	100	48	0
NMSCR	100	48	0	96	48	2
NMSTR	100	48	6
NMSUR	100	48	6	96	48	2
NMSTR	100	144	0
NMSUL	100	144	0	96	48	4
NMSTR	100	144	6
NMSCL	100	144	6	96	48	4
BRTAP	100	240	0
BRTAP	100	240	6
NMTAP	101	0	5
NMTAP	101	48	5
NMTAP	101	96	4
NMTAP	101	96	5
NMTAP	101	144	5
NMTAP	101	192	5
NMTAP	101	192	6
NMTAP	101	240	5
NMTAP	101	288	0
NMTAP	101	288	5
NMTAP	101	336	5
NMTAP	102	0	2
NMTAP	102	48	2
NMTAP	102	96	2
NMTAP	102	96	3
NMTAP	102	144	2
NMTAP	102	192	1
NMTAP	102	192	2
NMTAP	102	240	2
NMTAP	102	288	2
NMSTR	102	288	7
NMSV_	102	288	7	96	48	4
NMTAP	102	336	2
NMSTR	103	0	7
NMSV_	103	0	7	96	48	2
NMTAP	103	96	7
NMTAP	103	192	3
NMTAP	103	192	6
NMTAP	103	240	5
NMTAP	103	264	3
NMTAP	103	288	5
NMTAP	103	312	3
NMTAP	103	336	5
NMTAP	103	360	3
NMSTR	104	0	4
NMSSL	104	0	4	96	96	0
NMSSR	104	0	4	96	96	0
NMSTR	104	288	2
NMSI_	104	288	2	96	48	5
NMSTR	104	288	6
NMSI_	104	288	6	96	48	3
BRTAP	105	0	2
BRTAP	105	0	6
NMHLD	105	192	7	72
NMHLD	105	264	6	72
NMTAP	105	336	5
NMTAP	106	0	3
NMTAP	106	96	2
NMTAP	106	96	4
NMTAP	106	192	6
NMHLD	106	192	7	72
NMHLD	106	264	0	72
NMTAP	106	336	1
NMTAP	107	0	4
NMTAP	107	96	3
NMTAP	107	96	5
NMHLD	107	192	0	72
NMTAP	107	192	1
NMHLD	107	264	7	72
NMTAP	107	336	6
NMTAP	108	0	3
NMTAP	108	48	3
NMTAP	108	96	2
NMTAP	108	96	4
NMTAP	108	144	2
NMTAP	108	144	4
NMSTR	108	192	1
NMSI_	108	192	1	96	48	3
NMSTR	108	192	5
NMSI_	108	192	5	96	48	3
NMTAP	109	0	2
NMTAP	109	48	2
NMTAP	109	96	1
NMTAP	109	96	4
NMTAP	109	192	2
NMTAP	109	192	3
NMTAP	109	240	1
NMTAP	109	264	0
NMTAP	109	312	6
NMTAP	109	336	7
NMTAP	110	0	5
NMTAP	110	48	5
NMTAP	110	96	3
NMTAP	110	96	6
NMTAP	110	192	4
NMTAP	110	192	5
NMTAP	110	240	6
NMTAP	110	264	7
NMTAP	110	312	1
NMTAP	110	336	0
NMTAP	111	0	2
NMTAP	111	48	2
NMTAP	111	96	1
NMTAP	111	96	4
NMTAP	111	192	2
NMTAP	111	192	3
NMTAP	111	240	1
NMTAP	111	264	0
NMTAP	111	312	6
NMTAP	111	336	7
NMSTR	112	0	0
NMSI_	112	0	0	96	48	4
NMSTR	112	0	1
NMSI_	112	0	1	96	48	5
NMTAP	112	96	0
NMTAP	112	96	1
NMTAP	112	192	1
NMTAP	112	216	0
NMTAP	112	240	1
NMTAP	112	264	0
BRTAP	112	288	2
BRTAP	112	288	7
NMTAP	113	0	6
NMTAP	113	48	5
NMTAP	113	96	1
NMTAP	113	96	4
NMTAP	113	144	2
NMTAP	113	192	3
NMTAP	113	192	6
NMSTR	113	240	5
NMSI_	113	240	5	96	48	0
NMTAP	113	264	4
NMTAP	113	312	4
NMTAP	113	336	5
NMTAP	114	0	1
NMTAP	114	48	2
NMTAP	114	96	3
NMTAP	114	96	6
NMTAP	114	144	5
NMTAP	114	192	1
NMTAP	114	192	4
NMSTR	114	240	2
NMSI_	114	240	2	96	48	7
NMTAP	114	264	3
NMTAP	114	312	3
NMTAP	114	336	2
NMTAP	115	0	6
NMTAP	115	48	5
NMTAP	115	96	1
NMTAP	115	96	4
NMTAP	115	144	2
NMTAP	115	192	3
NMTAP	115	192	6
NMSTR	115	240	5
NMSI_	115	240	5	96	48	0
NMTAP	115	264	4
NMTAP	115	312	4
NMTAP	115	336	5
NMTAP	116	0	3
NMTAP	116	48	3
NMTAP	116	96	2
NMTAP	116	96	4
NMTAP	116	144	2
NMTAP	116	144	4
NMSTR	116	192	1
NMSI_	116	192	1	96	48	7
NMSTR	116	192	5
NMSI_	116	192	5	96	48	7
NMTAP	117	0	5
NMTAP	117	48	6
NMTAP	117	96	2
NMTAP	117	96	7
NMSTR	117	144	1
NMSV_	117	144	1	96	96	4
NMTAP	117	192	0
NMTAP	117	192	5
NMTAP	117	240	4
NMTAP	117	264	5
NMTAP	117	288	6
NMTAP	117	312	7
NMTAP	117	336	0
NMTAP	118	0	2
NMTAP	118	48	1
NMTAP	118	96	0
NMTAP	118	96	5
NMSTR	118	144	6
NMSV_	118	144	6	96	96	3
NMTAP	118	192	2
NMTAP	118	192	7
NMTAP	118	240	3
NMTAP	118	264	2
NMTAP	118	288	1
NMTAP	118	312	0
NMTAP	118	336	7
NMTAP	119	0	5
NMTAP	119	48	6
NMTAP	119	96	2
NMTAP	119	96	7
NMSTR	119	144	1
NMSV_	119	144	1	96	96	4
NMTAP	119	192	0
NMTAP	119	192	5
NMTAP	119	240	4
NMTAP	119	264	5
NMTAP	119	288	6
NMTAP	119	312	7
NMTAP	119	336	0
NMTAP	120	0	3
NMTAP	120	48	3
NMTAP	120	96	7
NMTAP	120	144	7
NMTAP	120	192	0
NMTAP	120	216	6
NMTAP	120	240	0
NMTAP	120	264	6
NMSTR	120	288	0
NMSSL	120	288	0	96	48	4
BRSTR	121	0	0
NMSCR	121	0	0	96	672	7
BRTAP	121	0	7

T_REC_TAP	501
T_REC_BRK	21
T_REC_XTP	31
T_REC_BXX	0
T_REC_HLD	63
T_REC_XHO	1
T_REC_BHO	0
T_REC_BXH	0
T_REC_STR	100
T_REC_BST	5
T_REC_XST	2
T_REC_XBS	0
T_REC_TTP	64
T_REC_THO	1
T_REC_SLD	110
T_REC_BSL	3
T_REC_ALL	902
T_NUM_TAP	698
T_NUM_BRK	29
T_NUM_HLD	65
T_NUM_SLD	110
T_NUM_ALL	902
T_JUDGE_TAP	724
T_JUDGE_HLD	266
T_JUDGE_SLD	113
T_JUDGE_ALL	1103
TTM_EACHPAIRS	163
TTM_SCR_TAP	349000
TTM_SCR_BRK	75400
TTM_SCR_HLD	65000
TTM_SCR_SLD	165000
TTM_SCR_ALL	654400
TTM_SCR_S	632000
TTM_SCR_SS	651500
TTM_RAT_ACV	10044

