VERSION	0.00.00	1.04.00
FES_MODE	0
BPM_DEF	190.000	190.000	190.000	190.000
MET_DEF	4	4
RESOLUTION	384
CLK_DEF	384
COMPATIBLE_CODE	MA2

BPM	0	0	190.000
MET	0	0	4	4

BXSTR	1	0	3
NMSUR	1	0	3	96	480	4
BXTAP	1	0	5
NMSTR	3	0	5
NMSUL	3	0	5	96	480	3
NMSTR	5	0	1
NMSXR	5	0	1	96	480	4
NMHLD	7	0	7	384
NMTAP	8	0	0
NMTAP	8	48	0
NMTAP	8	144	1
NMTAP	8	144	7
BRTAP	8	240	2
BRTAP	8	240	6
NMTAP	9	0	1
NMTAP	9	96	0
NMTAP	9	96	1
NMTAP	9	192	7
NMTAP	9	240	7
NMTAP	9	288	0
NMTAP	10	0	0
NMTAP	10	0	7
NMTAP	10	96	6
NMHLD	10	144	6	96
NMTAP	10	240	7
NMTAP	10	288	7
NMTAP	11	0	5
NMTAP	11	96	6
NMTAP	11	96	7
NMTAP	11	192	0
NMTAP	11	240	0
NMTAP	11	288	7
NMTAP	12	0	0
NMTAP	12	0	7
NMTAP	12	96	1
NMHLD	12	144	1	96
NMTAP	12	240	0
NMTAP	12	288	0
NMHLD	13	0	1	96
NMHLD	13	96	2	96
NMHLD	13	192	3	96
NMTAP	13	288	4
NMHLD	14	0	6	96
NMHLD	14	96	5	96
NMHLD	14	192	4	96
NMTAP	14	288	3
NMHLD	15	0	2	96
NMHLD	15	96	0	96
NMHLD	15	192	7	96
NMHLD	15	288	5	96
NMTAP	16	0	4
NMTAP	16	48	4
NMTAP	16	144	4
NMTAP	16	144	6
NMTAP	16	240	0
NMTAP	16	240	7
NMTAP	16	336	1
NMTAP	16	336	5
BRHLD	17	0	1	336
BRTAP	17	0	5
NMTTP	17	192	4	E	0	M1
EXHLD	17	336	5	432
NMTAP	18	96	3
NMTTP	18	192	4	E	0	M1
NMHLD	19	0	3	336
NMTTP	19	192	4	E	0	M1
EXHLD	19	336	6	432
NMTAP	20	96	3
NMTTP	20	192	4	E	0	M1
NMTAP	21	0	3
NMTAP	21	96	4
NMTAP	21	96	5
NMTAP	21	192	3
NMTAP	21	192	4
NMTAP	21	288	2
NMTAP	21	288	3
NMTAP	22	0	1
NMTAP	22	0	4
NMTAP	22	96	2
NMTAP	22	96	3
NMTAP	22	192	3
NMTAP	22	192	4
NMTAP	22	288	4
NMTAP	22	288	5
NMTAP	23	0	6
NMTAP	23	48	6
NMTAP	23	96	0
NMTAP	23	144	0
NMTAP	23	192	2
NMTAP	23	240	2
NMSTR	23	288	4
NMSF_	23	288	4	96	192	0
BXTAP	24	288	1
BXTAP	24	288	7
NMTAP	25	0	1
NMTAP	25	48	0
NMTAP	25	48	2
NMTAP	25	144	5
NMTAP	25	192	4
NMTAP	25	192	6
NMTAP	25	288	2
NMTAP	25	336	1
NMTAP	25	336	3
NMTAP	26	48	6
NMTAP	26	96	5
NMTAP	26	96	7
NMTAP	26	192	1
NMTAP	26	240	0
NMTAP	26	240	2
NMTAP	26	336	5
NMTAP	27	0	4
NMTAP	27	0	6
NMTAP	27	96	7
NMTAP	27	144	0
NMTAP	27	144	6
NMTAP	27	240	3
NMTAP	27	240	4
NMTAP	27	336	1
NMTAP	27	336	7
BRTAP	28	0	1
BRTAP	28	0	7
NMTAP	28	144	2
NMHLD	28	192	2	96
NMSTR	28	288	0
NMSCL	28	288	0	96	240	2
NMTTP	29	0	0	C	1	M1
NMTAP	29	336	1
NMTAP	30	0	0
NMTAP	30	0	1
NMTAP	30	96	2
NMTAP	30	96	3
NMTAP	30	144	2
NMTAP	30	144	3
NMTAP	30	240	4
NMTAP	30	240	5
NMTAP	30	336	6
NMTAP	30	336	7
NMTAP	31	48	1
NMTAP	31	48	5
BRHLD	31	96	1	96
BRTAP	31	96	5
NMHLD	31	192	7	96
NMHLD	31	288	5	96
NMHLD	32	0	3	96
NMTAP	32	96	1
NMTAP	32	192	0
NMTAP	32	192	5
BRTAP	32	288	0
BRTAP	32	288	5
NMTAP	33	0	6
NMTAP	33	48	5
NMTAP	33	48	7
NMTAP	33	144	2
NMTAP	33	192	1
NMTAP	33	192	3
NMTAP	33	288	5
NMTAP	33	336	4
NMTAP	33	336	6
NMTAP	34	48	1
NMTAP	34	96	0
NMTAP	34	96	2
NMTAP	34	192	6
NMTAP	34	240	5
NMTAP	34	240	7
NMTAP	34	336	2
NMTAP	35	0	1
NMTAP	35	0	3
NMTAP	35	96	0
NMTAP	35	144	1
NMTAP	35	144	7
NMTAP	35	240	3
NMTAP	35	240	4
NMTAP	35	336	0
NMTAP	35	336	6
BRTAP	36	0	0
BRTAP	36	0	6
NMTAP	36	144	5
NMHLD	36	192	5	96
NMSTR	36	288	7
NMSCR	36	288	7	96	240	5
NMTTP	37	0	0	C	1	M1
NMTAP	37	336	6
NMTAP	38	0	6
NMTAP	38	0	7
NMTAP	38	96	4
NMTAP	38	96	5
NMTAP	38	144	4
NMTAP	38	144	5
NMTAP	38	240	2
NMTAP	38	240	3
NMTAP	38	336	0
NMTAP	38	336	1
NMTAP	39	48	3
NMTAP	39	48	7
BRTAP	39	96	3
BRTAP	39	96	7
NMTAP	39	192	0
NMTAP	39	192	1
NMTAP	39	288	2
NMTAP	39	288	3
NMTAP	40	0	4
NMTAP	40	0	5
NMTAP	40	96	6
NMTAP	40	96	7
NMTAP	40	192	0
NMTAP	40	192	1
NMSTR	40	288	0
NMSI_	40	288	0	96	48	4
NMSTR	40	288	1
NMSI_	40	288	1	96	48	4
NMTAP	41	144	5
NMTAP	41	192	4
NMTAP	41	192	5
NMSTR	41	288	6
NMSI_	41	288	6	96	48	3
NMSTR	41	288	7
NMSI_	41	288	7	96	48	3
NMTAP	42	144	4
NMHLD	42	192	4	96
NMTAP	42	288	5
NMHLD	42	336	5	96
NMTAP	43	48	7
NMHLD	43	96	7	96
NMTAP	43	192	0
NMTAP	43	240	0
BRTAP	43	336	0
BRTAP	43	336	1
BRTAP	44	48	4
BRTAP	44	48	5
BRTAP	44	144	2
BRTAP	44	144	3
BRTAP	44	240	6
BRTAP	44	240	7
NMSTR	44	288	6
NMSCL	44	288	6	96	288	7
NMSTR	44	288	7
NMSCR	44	288	7	96	288	6
NMTAP	46	0	6
NMTAP	46	0	7
NMTAP	46	96	4
NMTAP	46	96	5
NMTAP	46	192	2
NMTAP	46	192	3
NMTAP	46	288	0
NMTAP	46	288	1
NMTAP	47	0	1
NMTAP	47	48	1
NMTAP	47	96	3
NMTAP	47	144	3
NMTAP	47	192	4
NMTAP	47	240	4
NMTAP	47	288	6
NMTAP	47	336	6
NMHLD	48	0	0	192
NMSTR	48	192	7
NMSI_	48	192	7	96	48	2
NMSI_	48	192	7	96	48	4
NMTTP	49	0	0	C	1	M1
NMTTP	49	0	2	B	0	M1
NMTTP	49	0	3	B	0	M1
NMTTP	49	0	4	B	0	M1
NMHLD	53	0	2	384
NMHLD	54	0	3	384
NMHLD	55	0	4	384
NMTAP	56	0	5
BRTAP	56	192	3
BRTAP	56	192	7
NMSTR	57	0	2
NMSCR	57	0	2	96	96	5
NMSTR	57	192	6
NMSI_	57	192	6	96	96	3
NMHLD	58	0	2	96
NMTAP	58	96	3
NMTAP	58	192	1
NMTAP	58	192	4
NMSTR	59	0	5
NMSCL	59	0	5	96	96	2
NMSTR	59	192	1
NMSI_	59	192	1	96	96	4
NMTAP	60	0	5
NMTAP	60	96	4
NMTAP	60	96	5
NMTAP	60	192	3
NMTAP	60	192	4
NMTAP	60	288	2
NMTAP	60	288	3
NMSTR	61	0	4
NMSCR	61	0	4	96	96	7
NMSTR	61	192	1
NMSCR	61	192	1	96	96	4
NMHLD	62	0	5	96
NMTAP	62	96	4
NMTAP	62	192	3
NMTAP	62	192	6
NMHLD	63	0	6	96
NMTAP	63	96	4
NMHLD	63	192	1	96
NMTAP	63	288	3
NMSTR	64	0	4
NMSI_	64	0	4	96	48	7
NMSTR	64	96	3
NMSI_	64	96	3	96	48	0
NMTAP	64	288	6
BRHLD	64	336	6	96
NMTAP	65	48	7
NMTAP	65	96	7
NMTAP	65	192	0
NMTAP	65	192	5
NMTAP	65	288	1
NMHLD	65	336	1	96
NMTAP	66	48	0
NMTAP	66	96	0
NMTAP	66	192	2
NMTAP	66	192	7
NMTAP	66	336	6
NMSTR	67	0	6
NMSI_	67	0	6	96	96	1
NMSTR	67	192	2
NMSI_	67	192	2	96	96	5
NMTAP	68	0	6
NMSTR	68	96	7
NMSSR	68	96	7	96	192	3
NMHLD	69	0	2	96
NMHLD	69	96	1	96
NMHLD	69	192	0	96
NMHLD	69	288	7	96
NMHLD	70	0	6	96
NMHLD	70	96	5	96
NMTAP	70	192	4
NMTAP	70	288	3
NMTAP	70	288	4
NMTAP	71	0	2
NMSTR	71	0	3
NMSI_	71	0	3	96	48	7
NMSTR	71	192	4
NMSI_	71	192	4	96	48	0
NMTAP	71	192	5
NMTAP	72	0	1
NMTAP	72	0	7
NMTAP	72	96	2
NMTAP	72	96	3
NMTAP	72	192	4
NMTAP	72	192	5
NMTAP	72	288	0
NMSTR	72	288	7
BRSUR	72	288	7	96	288	0
NMTTP	73	0	0	C	1	M1
CNSCR	73	288	0	0	384	6
NMTAP	75	0	1
NMTAP	75	48	1
NMTAP	75	96	0
NMTAP	75	96	2
NMTAP	75	192	5
NMTAP	75	240	5
NMTAP	75	288	4
NMTAP	75	288	6
NMHLD	76	0	7	96
NMHLD	76	96	6	96
NMHLD	76	192	5	96
NMTAP	76	288	4
NMTAP	77	0	2
NMTAP	77	48	2
NMTAP	77	96	0
NMTAP	77	96	2
NMTAP	77	192	5
NMTAP	77	240	5
NMTAP	77	288	5
NMTAP	77	288	7
NMTAP	78	0	1
NMTAP	78	48	1
NMTAP	78	96	1
NMTAP	78	96	3
NMTAP	78	192	6
NMTAP	78	240	6
NMTAP	78	288	4
NMTAP	78	288	6
NMTAP	79	0	7
NMTAP	79	48	7
NMTAP	79	96	1
NMTAP	79	144	1
NMTAP	79	192	5
NMTAP	79	240	5
NMSTR	79	288	3
NMSXL	79	288	3	96	288	7
NMSXR	79	288	3	96	288	7
BRTAP	81	0	0
BRTAP	81	0	6
NMTTP	83	0	2	E	0	M1
NMTTP	84	0	6	E	0	M1
NMTTP	85	0	3	E	0	M1
NMTTP	86	0	5	E	0	M1
NMTHO	87	0	0	384	C	0	M1
BXTAP	88	288	0
BXTAP	88	288	7
NMTAP	89	0	0
NMTAP	89	0	1
NMTAP	89	48	2
NMTAP	89	48	7
NMTAP	89	144	4
NMTAP	89	144	5
NMTAP	89	192	3
NMTAP	89	192	6
NMTAP	89	288	2
NMTAP	89	288	3
NMTAP	89	336	1
NMTAP	89	336	4
NMTAP	90	48	6
NMTAP	90	48	7
NMTAP	90	96	0
NMTAP	90	96	5
NMTAP	90	192	0
NMTAP	90	192	1
NMTAP	90	240	2
NMTAP	90	240	7
NMTAP	90	336	4
NMTAP	90	336	5
NMTAP	91	0	3
NMTAP	91	0	6
NMTAP	91	96	7
NMTAP	91	144	0
NMTAP	91	144	6
NMTAP	91	240	2
NMTAP	91	240	3
NMTAP	91	336	3
NMTAP	91	336	7
BRTAP	92	0	3
BRTAP	92	0	7
NMTAP	92	144	2
NMHLD	92	192	2	96
NMSTR	92	288	0
NMSCL	92	288	0	96	144	4
NMTTP	93	0	0	C	1	M1
CNSUL	93	144	4	0	192	2
NMTAP	93	336	0
NMTAP	94	0	0
NMTAP	94	96	1
NMTAP	94	96	3
NMTAP	94	144	1
NMTAP	94	144	3
NMTAP	94	240	4
NMTAP	94	240	6
NMTAP	94	336	0
NMTAP	94	336	7
NMTAP	95	48	1
NMTAP	95	48	5
BRTAP	95	96	1
BRTAP	95	96	5
NMTAP	95	192	1
NMTAP	95	192	3
NMTAP	95	288	0
NMTAP	95	288	7
NMTAP	96	0	4
NMTAP	96	0	6
NMTAP	96	96	3
NMTAP	96	96	4
NMTAP	96	192	1
NMTAP	96	192	5
NMSTR	96	288	2
NMSI_	96	288	2	96	48	7
NMSTR	96	288	6
NMSV_	96	288	6	96	48	3
NMTAP	97	144	0
NMTAP	97	144	4
NMTAP	97	192	0
NMTAP	97	192	4
NMSTR	97	288	1
NMSI_	97	288	1	96	48	4
NMSTR	97	288	5
NMSV_	97	288	5	96	48	0
NMTAP	98	144	3
NMHLD	98	192	3	96
NMTAP	98	288	2
NMHLD	98	336	2	96
NMTAP	99	48	0
NMHLD	99	96	0	96
NMTAP	99	192	7
NMTAP	99	240	7
BRTAP	99	336	6
BRTAP	99	336	7
BRTAP	100	48	1
BRTAP	100	48	3
BRTAP	100	144	4
BRTAP	100	144	6
BRTAP	100	240	0
BRTAP	100	240	1
NMTAP	100	288	0
NMSTR	100	288	1
NMSCR	100	288	1	96	192	6
NMTTP	101	0	0	C	1	M1
NMTTP	101	0	3	B	0	M1
NMTTP	101	0	4	B	0	M1
NMTAP	101	288	0
NMTAP	101	288	7
NMTAP	102	0	1
NMTAP	102	0	2
NMTAP	102	96	3
NMTAP	102	96	4
NMTAP	102	192	5
NMTAP	102	192	6
NMTAP	102	288	0
NMTAP	102	288	7
NMTAP	103	0	6
NMTAP	103	48	6
NMTAP	103	96	4
NMTAP	103	144	4
NMTAP	103	192	2
NMTAP	103	240	2
NMTAP	103	288	0
NMTAP	103	336	0
NMHLD	104	0	7	192
NMSTR	104	192	0
NMSF_	104	192	0	96	48	4
BRTAP	105	0	2
BRTAP	105	0	6
NMTAP	105	96	1
NMTAP	105	192	7
NMTAP	105	240	7
NMTAP	105	288	0
NMTAP	105	288	6
NMTAP	106	0	5
NMTAP	106	96	6
NMTAP	106	96	7
NMTAP	106	192	0
NMTAP	106	240	0
NMTAP	106	288	1
NMTAP	106	288	7
NMTAP	107	0	2
NMTAP	107	48	2
NMTAP	107	96	1
NMTAP	107	96	3
NMTAP	107	192	5
NMTAP	107	240	5
NMTAP	107	288	4
NMTAP	107	288	6
NMTAP	108	0	7
NMTAP	108	96	0
NMTAP	108	96	6
NMTAP	108	192	1
NMTAP	108	192	5
NMTAP	108	288	2
NMTAP	108	288	4
NMTAP	109	0	5
NMTAP	109	96	6
NMTAP	109	96	7
NMTAP	109	192	0
NMTAP	109	240	0
NMTAP	109	288	1
NMTAP	109	288	7
NMTAP	110	0	2
NMTAP	110	96	0
NMTAP	110	96	1
NMTAP	110	192	7
NMTAP	110	240	7
NMTAP	110	288	0
NMTAP	110	288	6
NMHLD	111	0	5	96
NMHLD	111	96	7	96
NMHLD	111	192	0	96
NMHLD	111	288	2	96
NMTAP	112	0	4
NMTAP	112	48	4
NMTAP	112	96	3
NMTAP	112	144	3
NMTAP	112	192	5
NMTAP	112	288	4
NMTAP	112	288	5
BRTAP	113	0	3
BRSTR	113	0	6
NMSI_	113	0	6	96	48	3
NMTAP	113	96	2
NMTAP	113	192	1
NMTAP	113	240	1
NMTAP	113	288	1
NMTAP	113	288	3
NMSTR	114	0	0
NMSI_	114	0	0	96	48	4
NMTAP	114	96	5
NMTAP	114	192	6
NMTAP	114	240	6
NMTAP	114	288	4
NMTAP	114	288	6
NMSTR	115	0	7
NMSV_	115	0	7	96	48	2
NMTAP	115	96	1
NMTAP	115	192	0
NMTAP	115	240	0
NMTAP	115	288	0
NMTAP	115	288	3
NMTAP	116	0	1
NMTAP	116	0	2
NMTAP	116	96	2
NMTAP	116	96	3
NMTAP	116	192	4
NMTAP	116	192	5
NMTAP	116	288	3
NMTAP	116	288	6
NMSTR	117	0	5
NMSI_	117	0	5	96	48	0
NMSTR	117	96	1
NMSI_	117	96	1	96	48	4
NMTAP	117	192	7
NMTAP	117	240	7
NMTAP	117	288	3
NMTAP	117	288	7
NMSTR	118	0	2
NMSI_	118	0	2	96	48	7
NMSTR	118	96	6
NMSI_	118	96	6	96	48	3
NMTAP	118	192	0
NMTAP	118	240	0
NMTAP	118	288	0
NMTAP	118	288	4
NMTAP	119	0	6
NMTAP	119	48	6
NMTAP	119	96	4
NMTAP	119	144	4
NMTAP	119	192	5
NMTAP	119	240	5
NMTAP	119	288	2
NMTAP	119	336	2
NMTAP	120	0	3
NMTAP	120	48	3
NMTAP	120	96	1
NMTAP	120	144	1
NMTAP	120	192	7
NMTAP	120	240	7
NMTAP	120	288	0
BRSTR	121	0	2
BRSV_	121	0	2	96	672	4
BRSTR	121	0	6
BRSV_	121	0	6	96	672	0

T_REC_TAP	421
T_REC_BRK	39
T_REC_XTP	0
T_REC_BXX	5
T_REC_HLD	49
T_REC_XHO	2
T_REC_BHO	3
T_REC_BXH	0
T_REC_STR	40
T_REC_BST	3
T_REC_XST	0
T_REC_XBS	1
T_REC_TTP	19
T_REC_THO	1
T_REC_SLD	43
T_REC_BSL	3
T_REC_ALL	629
T_NUM_TAP	480
T_NUM_BRK	54
T_NUM_HLD	52
T_NUM_SLD	43
T_NUM_ALL	629
T_JUDGE_TAP	528
T_JUDGE_HLD	168
T_JUDGE_SLD	46
T_JUDGE_ALL	742
TTM_EACHPAIRS	161
TTM_SCR_TAP	240000
TTM_SCR_BRK	140400
TTM_SCR_HLD	52000
TTM_SCR_SLD	64500
TTM_SCR_ALL	496900
TTM_SCR_S	476800
TTM_SCR_SS	491500
TTM_RAT_ACV	10109

