VERSION	0.00.00	1.04.00
FES_MODE	0
BPM_DEF	190.000	190.000	190.000	190.000
MET_DEF	4	4
RESOLUTION	384
CLK_DEF	384
COMPATIBLE_CODE	MA2

BPM	0	0	190.000
MET	0	0	4	4

NMTAP	9	0	3
NMTAP	9	96	3
NMTAP	9	192	2
NMTAP	10	0	1
NMTAP	10	96	1
NMTAP	10	192	0
NMTAP	11	0	7
NMTAP	11	96	7
NMTAP	11	192	6
NMTAP	12	0	5
NMTAP	12	96	5
NMTAP	12	192	4
NMTAP	12	192	5
NMTAP	13	0	4
NMTAP	13	96	4
NMTAP	13	192	5
NMTAP	14	0	6
NMTAP	14	96	6
NMTAP	14	192	7
NMTAP	15	0	0
NMTAP	15	96	0
NMTAP	15	192	1
NMTAP	16	0	2
NMTAP	16	96	2
NMTAP	16	192	2
NMTAP	16	192	3
NMHLD	17	0	2	192
NMTAP	17	192	3
NMHLD	18	0	1	192
NMTAP	18	192	0
NMHLD	19	0	6	192
NMTAP	19	192	7
NMHLD	20	0	5	192
NMTAP	20	192	4
NMTAP	21	0	3
NMTAP	21	96	3
NMTAP	21	192	2
NMTAP	21	192	3
NMTAP	22	0	4
NMTAP	22	96	4
NMTAP	22	192	4
NMTAP	22	192	5
NMTAP	23	0	3
NMTAP	23	96	3
NMTAP	23	192	4
NMTAP	23	288	4
NMTAP	24	0	3
NMTAP	24	0	4
EXTAP	25	0	5
NMTAP	25	96	5
NMTAP	25	192	6
NMTAP	25	288	6
NMTAP	26	0	7
NMTAP	26	96	7
NMTAP	26	192	0
NMTAP	26	192	1
NMTAP	27	0	2
NMTAP	27	96	2
NMTAP	27	192	1
NMTAP	27	288	1
NMTAP	28	0	0
NMTAP	28	96	0
NMTAP	28	192	6
NMTAP	28	192	7
NMTAP	29	0	6
NMTAP	29	96	6
NMTAP	29	192	5
NMTAP	29	288	5
NMTAP	30	0	4
NMTAP	30	96	4
NMTAP	30	192	2
NMTAP	30	192	3
NMTAP	31	0	1
NMTAP	31	96	1
NMTAP	31	192	2
NMTAP	31	288	2
NMTAP	32	0	3
NMTAP	32	96	3
NMTAP	32	192	4
NMTAP	32	192	5
NMTAP	33	0	5
NMTAP	33	96	5
NMTAP	33	192	6
NMTAP	33	288	6
NMTAP	34	0	7
NMTAP	34	96	7
NMTAP	34	192	0
NMTAP	34	192	1
NMTAP	35	0	2
NMTAP	35	96	2
NMTAP	35	192	1
NMTAP	35	288	1
NMTAP	36	0	0
NMTAP	36	96	0
NMTAP	36	192	6
NMTAP	36	192	7
NMTAP	37	0	6
NMTAP	37	96	6
NMTAP	37	192	5
NMTAP	37	288	5
NMTAP	38	0	4
NMTAP	38	96	4
NMTAP	38	192	2
NMTAP	38	192	3
NMTAP	39	0	1
NMTAP	39	96	1
NMTAP	39	192	2
NMTAP	39	288	2
NMTAP	40	0	3
NMTAP	40	96	3
NMTAP	40	192	4
NMTAP	40	192	5
NMTAP	41	0	5
NMTAP	41	96	5
NMTAP	41	192	5
NMTAP	41	288	5
NMTAP	42	0	6
NMTAP	42	96	6
NMTAP	42	192	6
NMTAP	42	288	6
NMTAP	43	0	7
NMTAP	43	96	7
NMTAP	43	192	7
NMTAP	43	288	7
NMHLD	44	0	0	192
NMHLD	44	0	1	192
NMTAP	45	0	2
NMTAP	45	96	2
NMTAP	45	192	2
NMTAP	45	288	2
NMTAP	46	0	1
NMTAP	46	96	1
NMTAP	46	192	1
NMTAP	46	288	1
NMTAP	47	0	0
NMTAP	47	96	0
NMTAP	47	192	0
NMTAP	47	288	0
NMHLD	48	0	6	192
NMHLD	48	0	7	192
NMSTR	49	0	6
NMSI_	49	0	6	96	288	3
NMTAP	50	192	2
NMSTR	51	0	1
NMSI_	51	0	1	96	288	4
NMTAP	52	192	5
NMSTR	53	0	6
NMSI_	53	0	6	96	288	2
NMTAP	54	192	1
NMSTR	55	0	0
NMSI_	55	0	0	96	288	4
NMTAP	56	192	3
NMTAP	56	192	4
NMTAP	57	0	2
NMTAP	57	96	2
NMTAP	57	192	2
NMTAP	57	192	3
NMTAP	58	0	1
NMTAP	58	96	1
NMTAP	58	192	0
NMTAP	58	192	1
NMTAP	59	0	7
NMTAP	59	96	7
NMTAP	59	192	6
NMTAP	59	192	7
NMTAP	60	0	4
NMTAP	60	0	5
NMTAP	60	96	4
NMTAP	60	96	5
NMTAP	60	192	4
NMTAP	60	192	5
NMTAP	61	0	5
NMTAP	61	96	5
NMTAP	61	192	4
NMTAP	61	192	5
NMTAP	62	0	6
NMTAP	62	96	6
NMTAP	62	192	6
NMTAP	62	192	7
NMTAP	63	0	0
NMTAP	63	96	0
NMTAP	63	192	0
NMTAP	63	192	1
NMTAP	64	0	2
NMTAP	64	0	3
NMTAP	64	96	2
NMTAP	64	96	3
NMTAP	64	192	2
NMTAP	64	192	3
NMTTP	65	0	1	B	0	L1
NMTTP	65	96	2	B	0	L1
NMTTP	65	192	3	B	0	L1
NMTTP	66	0	6	B	0	L1
NMTTP	66	96	5	B	0	L1
NMTTP	66	192	4	B	0	L1
NMTTP	67	0	1	B	0	L1
NMTTP	67	96	2	B	0	L1
NMTTP	67	192	3	B	0	L1
NMTTP	67	288	4	B	0	L1
NMTTP	68	0	0	C	0	L1
NMTTP	69	0	7	B	0	L1
NMTTP	69	96	6	B	0	L1
NMTTP	69	192	4	B	0	L1
NMTTP	69	192	5	B	0	L1
NMTTP	70	0	0	B	0	L1
NMTTP	70	96	1	B	0	L1
NMTTP	70	192	2	B	0	L1
NMTTP	70	192	3	B	0	L1
NMTTP	71	0	5	B	0	L1
NMTTP	71	96	4	B	0	L1
NMTTP	71	192	3	B	0	L1
NMTTP	71	288	2	B	0	L1
NMTTP	72	0	0	C	0	L1
NMTAP	73	0	1
NMTAP	73	96	1
NMTAP	73	192	1
NMTAP	73	288	1
NMTAP	74	0	2
NMTAP	74	96	2
NMTAP	74	192	2
NMTAP	74	288	2
NMTAP	75	0	3
NMTAP	75	96	3
NMTAP	75	192	3
NMTAP	75	288	3
NMTAP	76	0	4
NMTAP	76	0	5
NMTAP	76	192	4
NMTAP	76	192	5
NMTAP	77	0	6
NMTAP	77	96	6
NMTAP	77	192	6
NMTAP	77	288	6
NMTAP	78	0	5
NMTAP	78	96	5
NMTAP	78	192	5
NMTAP	78	288	5
NMTAP	79	0	4
NMTAP	79	96	4
NMTAP	79	192	4
NMTAP	79	288	4
NMTAP	80	0	2
NMTAP	80	0	3
NMTAP	80	192	2
NMTAP	80	192	3
NMHLD	81	0	1	384
NMHLD	82	0	2	384
NMHLD	83	0	3	384
NMTAP	84	0	4
NMHLD	85	0	6	384
NMHLD	86	0	5	384
NMHLD	87	0	4	384
NMTAP	88	0	3
BRTAP	89	0	5
NMTAP	89	96	5
NMTAP	89	192	6
NMTAP	89	192	7
NMTAP	89	288	6
NMTAP	89	288	7
NMTAP	90	0	0
NMTAP	90	96	0
NMTAP	90	192	0
NMTAP	90	192	1
NMTAP	91	0	2
NMTAP	91	96	2
NMTAP	91	192	0
NMTAP	91	192	1
NMTAP	91	288	0
NMTAP	91	288	1
NMTAP	92	0	7
NMTAP	92	96	7
NMTAP	92	192	6
NMTAP	92	192	7
NMTAP	93	0	6
NMTAP	93	96	6
NMTAP	93	192	4
NMTAP	93	192	5
NMTAP	93	288	4
NMTAP	93	288	5
NMTAP	94	0	3
NMTAP	94	96	3
NMTAP	94	192	2
NMTAP	94	192	3
NMTAP	95	0	1
NMTAP	95	96	1
NMTAP	95	192	2
NMTAP	95	192	3
NMTAP	95	288	2
NMTAP	95	288	3
NMTAP	96	0	4
NMTAP	96	96	4
NMTAP	96	192	4
NMTAP	96	192	5
BXTAP	97	0	6
NMTAP	97	96	6
NMTAP	97	192	6
NMTAP	97	288	6
NMTAP	97	288	7
NMTAP	98	0	5
NMTAP	98	96	5
NMTAP	98	192	5
NMTAP	98	288	4
NMTAP	98	288	5
NMTAP	99	0	3
NMTAP	99	96	3
NMTAP	99	192	3
NMTAP	99	288	2
NMTAP	99	288	3
NMTAP	100	0	1
NMTAP	100	96	1
NMTAP	100	192	0
NMTAP	100	192	1
NMTAP	101	0	1
NMTAP	101	96	1
NMTAP	101	192	1
NMTAP	101	288	0
NMTAP	101	288	1
NMTAP	102	0	2
NMTAP	102	96	2
NMTAP	102	192	2
NMTAP	102	288	2
NMTAP	102	288	3
NMTAP	103	0	4
NMTAP	103	96	4
NMTAP	103	192	4
NMTAP	103	288	4
NMTAP	103	288	5
NMTAP	104	0	6
NMTAP	104	96	6
NMTAP	104	192	6
NMTAP	104	192	7
NMTAP	105	0	5
NMTAP	105	96	5
NMTAP	105	192	6
NMTAP	105	192	7
NMTAP	105	288	6
NMTAP	105	288	7
NMTAP	106	0	0
NMTAP	106	96	1
NMTAP	106	192	2
NMTAP	106	192	3
NMTAP	107	0	2
NMTAP	107	96	2
NMTAP	107	192	0
NMTAP	107	192	1
NMTAP	107	288	0
NMTAP	107	288	1
NMTAP	108	0	7
NMTAP	108	96	6
NMTAP	108	192	4
NMTAP	108	192	5
NMTAP	109	0	6
NMTAP	109	96	6
NMTAP	109	192	4
NMTAP	109	192	5
NMTAP	109	288	4
NMTAP	109	288	5
NMTAP	110	0	3
NMTAP	110	96	2
NMTAP	110	192	0
NMTAP	110	192	1
NMTAP	111	0	1
NMTAP	111	96	1
NMTAP	111	192	2
NMTAP	111	192	3
NMTAP	111	288	2
NMTAP	111	288	3
NMTAP	112	0	4
NMTAP	112	96	5
NMTAP	112	192	6
NMTAP	112	192	7
NMTAP	113	0	6
NMTAP	113	0	7
NMTAP	113	96	6
NMTAP	113	96	7
NMTAP	113	192	0
NMTAP	113	192	5
NMTAP	114	0	4
NMTAP	114	0	5
NMTAP	114	96	4
NMTAP	114	96	5
NMTAP	114	192	3
NMTAP	114	192	6
NMTAP	115	0	2
NMTAP	115	0	3
NMTAP	115	96	2
NMTAP	115	96	3
NMTAP	115	192	1
NMTAP	115	192	4
NMTAP	116	0	0
NMTAP	116	0	1
NMTAP	116	96	0
NMTAP	116	96	1
NMTAP	116	192	2
NMTAP	116	192	7
NMTAP	117	0	0
NMTAP	117	0	1
NMTAP	117	96	0
NMTAP	117	96	1
NMTAP	117	192	2
NMTAP	117	192	7
NMTAP	118	0	2
NMTAP	118	0	3
NMTAP	118	96	2
NMTAP	118	96	3
NMTAP	118	192	1
NMTAP	118	192	4
NMTAP	119	0	4
NMTAP	119	0	5
NMTAP	119	96	4
NMTAP	119	96	5
NMTAP	119	192	3
NMTAP	119	192	6
NMTAP	120	0	6
NMTAP	120	0	7
NMTAP	120	96	6
NMTAP	120	96	7
NMTAP	120	192	0
NMTAP	120	192	5
EXSTR	121	0	0
NMSXL	121	0	0	96	672	3
EXSTR	121	0	7
NMSXR	121	0	7	96	672	4

T_REC_TAP	370
T_REC_BRK	1
T_REC_XTP	1
T_REC_BXX	1
T_REC_HLD	14
T_REC_XHO	0
T_REC_BHO	0
T_REC_BXH	0
T_REC_STR	4
T_REC_BST	0
T_REC_XST	2
T_REC_XBS	0
T_REC_TTP	24
T_REC_THO	0
T_REC_SLD	6
T_REC_BSL	0
T_REC_ALL	423
T_NUM_TAP	401
T_NUM_BRK	2
T_NUM_HLD	14
T_NUM_SLD	6
T_NUM_ALL	423
T_JUDGE_TAP	403
T_JUDGE_HLD	80
T_JUDGE_SLD	6
T_JUDGE_ALL	489
TTM_EACHPAIRS	89
TTM_SCR_TAP	200500
TTM_SCR_BRK	5200
TTM_SCR_HLD	14000
TTM_SCR_SLD	9000
TTM_SCR_ALL	228700
TTM_SCR_S	221650
TTM_SCR_SS	228500
TTM_RAT_ACV	10008

