VERSION	0.00.00	1.04.00
FES_MODE	0
BPM_DEF	164.000	164.000	164.000	 89.000
MET_DEF	4	4
RESOLUTION	384
CLK_DEF	384
COMPATIBLE_CODE	MA2

BPM	0	0	164.000
BPM	93	192	152.000
BPM	94	0	142.000
BPM	94	192	129.000
BPM	94	288	 98.000
BPM	95	0	 89.000
MET	0	0	4	4
MET	3	0	4	3
MET	4	192	8	7
MET	6	96	4	3
MET	7	288	8	7
MET	9	192	8	9
MET	10	240	4	3
MET	15	48	4	4
MET	16	48	4	3
MET	18	144	4	4
MET	23	144	4	7
MET	25	48	4	4
MET	27	48	4	3
MET	28	240	4	2
MET	29	48	4	3
MET	30	240	4	2
MET	31	48	8	5
MET	41	48	4	3
MET	42	240	4	2
MET	43	48	4	3
MET	44	240	4	2
MET	45	48	8	5
MET	45	288	8	7
MET	46	240	4	5
MET	47	336	8	5
MET	48	192	8	7
MET	49	144	4	5
MET	50	240	4	4
MET	63	240	8	9
MET	73	288	4	3
MET	78	96	4	4
MET	79	96	4	3
MET	81	192	4	4

BRTAP	1	0	3
BRTAP	1	0	7
NMTAP	1	48	6
NMTAP	1	72	4
NMTAP	1	120	5
NMSTR	1	144	3
NMSI_	1	144	3	96	48	7
NMTAP	1	240	2
NMTAP	1	240	3
BRTAP	1	288	0
NMTAP	1	336	1
NMTAP	1	360	3
NMTAP	2	24	2
NMTAP	2	48	4
NMTAP	2	96	4
NMTAP	2	96	5
NMTAP	2	144	6
NMTAP	2	144	7
NMTAP	2	192	0
NMTAP	2	192	1
NMTAP	2	240	2
NMTAP	2	240	3
NMTAP	2	288	4
NMTAP	2	312	3
NMTAP	2	336	4
NMTAP	2	360	3
EXHLD	3	0	6	144
NMTTP	3	48	5	A	0	M1
NMTTP	3	72	5	D	0	M1
NMTTP	3	96	4	A	0	M1
NMTTP	3	120	4	D	0	M1
NMTTP	3	144	3	A	0	M1
NMTAP	3	192	6
NMTAP	3	240	4
NMTAP	3	240	5
NMSTR	3	288	2
NMSCL	3	288	2	96	48	7
NMTAP	3	312	3
NMTAP	3	336	2
NMTAP	3	360	3
NMSTR	4	0	2
NMSCR	4	0	2	96	48	5
NMTAP	4	96	2
EXTAP	4	192	6
EXTAP	4	192	7
NMTAP	4	240	0
NMTAP	4	264	7
NMTAP	4	312	0
NMTAP	4	312	7
NMTAP	4	360	0
NMTAP	4	360	7
NMTAP	5	48	6
NMTAP	5	48	7
EXTAP	5	144	0
EXTAP	5	144	1
NMTAP	5	192	7
NMTAP	5	216	0
NMTAP	5	264	0
NMTAP	5	264	7
NMTAP	5	312	6
NMTAP	5	336	3
NMTAP	5	360	5
NMTAP	6	0	2
NMTAP	6	24	4
NMTAP	6	48	1
NMTAP	6	72	3
EXHLD	6	96	0	144
NMTTP	6	144	2	A	0	M1
NMTTP	6	168	3	D	0	M1
NMTTP	6	192	3	A	0	M1
NMTTP	6	216	4	D	0	M1
NMTTP	6	240	4	A	0	M1
NMTAP	6	288	1
NMTAP	6	336	2
NMTAP	6	336	3
NMSTR	7	0	5
NMSCL	7	0	5	96	48	2
NMTAP	7	24	4
NMTAP	7	48	5
NMTAP	7	72	4
NMSTR	7	96	5
NMSCR	7	96	5	96	48	0
NMTAP	7	192	5
EXTAP	7	288	2
EXTAP	7	288	3
NMTAP	7	336	4
NMTAP	7	360	3
NMTAP	8	24	3
NMTAP	8	24	4
NMTAP	8	72	3
NMHLD	8	72	4	72
NMTAP	8	144	7
NMTAP	8	168	4
NMTAP	8	192	0
NMTAP	8	216	5
NMTAP	8	240	1
NMTAP	8	264	6
NMTAP	8	288	2
NMSTR	8	312	7
NMSI_	8	312	7	96	48	3
NMTAP	8	336	3
NMHLD	8	360	3	144
EXTAP	9	24	7
CNSI_	9	72	3	0	48	7
BXTAP	9	192	0
BXTAP	9	192	2
NMTAP	9	264	3
NMTAP	9	264	4
NMTAP	9	312	3
NMTAP	9	312	4
BXTAP	9	360	4
BXTAP	9	360	6
NMTAP	10	48	3
NMTAP	10	48	4
NMTAP	10	96	3
NMTAP	10	96	4
NMTAP	10	144	2
NMTAP	10	168	3
NMTAP	10	192	2
NMTAP	10	216	3
NMHLD	10	240	1	168
NMTTP	10	312	4	E	0	M1
NMTTP	10	360	2	E	0	M1
NMTTP	11	24	0	E	0	M1
NMTAP	11	72	7
NMTAP	11	96	6
NMTAP	11	120	5
NMTAP	11	144	3
NMTAP	11	144	4
NMTAP	11	192	2
NMHLD	11	192	5	96
EXTAP	11	288	6
NMTAP	11	312	5
NMTAP	11	336	6
NMTAP	11	360	5
NMTAP	12	0	6
NMTAP	12	24	5
NMTAP	12	48	6
NMTAP	12	72	5
NMTAP	12	96	6
NMTAP	12	120	5
NMTAP	12	144	6
NMTAP	12	168	5
NMTAP	12	192	6
NMTAP	12	216	5
NMTAP	12	240	6
NMTAP	12	264	5
EXHLD	12	336	0	48
EXHLD	12	336	5	48
NMHLD	13	24	1	48
NMHLD	13	24	5	48
NMTAP	13	96	2
NMTAP	13	96	5
NMTAP	13	144	3
NMTAP	13	144	6
NMTAP	13	192	3
NMTAP	13	192	6
EXHLD	13	240	2	48
EXHLD	13	240	7	48
NMHLD	13	312	2	48
NMHLD	13	312	6	48
NMTAP	14	0	2
NMTAP	14	0	5
NMTAP	14	48	1
NMTAP	14	48	4
NMTAP	14	96	1
NMTAP	14	96	4
EXTAP	14	144	0
EXSTR	14	144	5
NMSXL	14	144	5	96	192	3
NMTAP	14	240	3
NMTAP	14	288	2
NMTAP	14	336	1
NMTAP	15	0	0
EXSTR	15	48	7
NMSXL	15	48	7	96	192	3
NMTAP	15	144	3
NMTAP	15	192	4
NMTAP	15	240	5
NMTAP	15	288	6
NMSTR	15	336	7
NMSI_	15	336	7	96	48	2
NMSI_	15	336	7	96	48	3
EXTAP	16	48	7
NMHLD	16	192	0	48
NMHLD	16	192	2	48
NMSTR	16	264	0
NMSI_	16	264	0	96	48	4
NMHLD	16	264	2	48
EXTAP	16	336	0
NMHLD	17	96	5	48
NMHLD	17	96	7	48
NMHLD	17	168	5	48
NMSTR	17	168	7
NMSI_	17	168	7	96	48	3
EXTAP	17	240	7
NMTAP	17	288	6
NMSTR	17	336	5
NMSI_	17	336	5	96	48	1
NMTAP	18	0	4
NMTAP	18	48	3
NMTAP	18	96	2
NMTAP	18	144	0
NMTAP	18	144	1
NMTAP	18	192	2
NMTAP	18	192	3
NMTAP	18	240	4
NMTAP	18	240	5
NMTAP	18	288	6
NMTAP	18	288	7
NMTAP	18	336	1
NMTAP	18	360	0
NMTAP	19	0	1
NMTAP	19	24	0
NMSTR	19	48	1
NMSXR	19	48	1	96	192	4
EXHLD	19	144	0	192
EXTAP	19	144	1
NMSTR	20	0	7
NMSI_	20	0	7	96	48	3
NMTAP	20	48	6
EXHLD	20	96	5	96
EXTAP	20	96	7
NMTAP	20	192	2
NMTAP	20	216	5
NMTAP	20	240	3
NMTAP	20	264	5
NMTAP	20	288	3
NMTAP	20	312	5
NMTAP	20	336	4
NMTAP	20	360	5
NMTAP	21	0	4
NMTAP	21	24	5
NMTAP	21	48	7
NMTAP	21	72	0
NMTAP	21	96	1
NMTAP	21	120	2
EXSTR	21	144	3
NMSI_	21	144	3	96	48	7
EXSTR	21	144	6
NMSI_	21	144	6	96	48	4
EXTAP	21	216	3
EXTAP	21	216	6
NMSTR	22	0	0
NMSI_	22	0	0	96	48	4
NMTAP	22	48	1
EXTAP	22	96	0
EXTAP	22	96	2
NMTAP	22	192	2
NMTAP	22	216	5
NMTAP	22	240	1
NMTAP	22	264	6
NMTAP	22	288	0
NMTAP	22	312	7
NMHLD	22	336	0	48
NMHLD	22	336	1	48
NMHLD	23	24	2	48
NMHLD	23	24	3	48
NMTAP	23	96	4
NMTAP	23	96	5
NMTTP	23	144	3	B	0	M1
NMHLD	23	144	6	48
NMHLD	23	216	0	48
NMTTP	23	216	4	B	0	M1
NMTTP	23	288	3	E	0	M1
NMHLD	23	288	7	48
NMHLD	23	360	1	48
NMTTP	23	360	5	E	0	M1
NMTTP	24	48	4	E	0	M1
NMHLD	24	48	6	48
NMTTP	24	120	0	C	0	M1
NMSTR	24	120	2
NMSSL	24	120	2	96	120	6
NMHLD	25	48	1	48
NMTTP	25	48	4	B	0	M1
NMTTP	25	120	3	B	0	M1
NMHLD	25	120	7	48
NMHLD	25	192	0	48
NMTTP	25	192	5	E	0	M1
NMTTP	25	264	3	E	0	M1
NMHLD	25	264	6	48
NMTTP	25	336	0	C	0	M1
NMSTR	25	336	1
NMSCL	25	336	1	96	96	4
NMTAP	26	192	6
NMTAP	26	216	7
NMTAP	26	240	0
NMTAP	26	264	1
NMTAP	26	288	2
NMTAP	26	312	3
NMTAP	26	336	7
NMTAP	26	360	0
NMTAP	27	0	1
NMTAP	27	24	2
NMHLD	27	48	3	72
NMSTR	27	48	4
NMSI_	27	48	4	96	192	6
NMHLD	27	192	2	72
NMHLD	27	336	1	72
CNSSL	27	336	6	0	144	2
NMHLD	28	96	0	72
NMTAP	28	240	0
NMHLD	28	240	7	96
NMTAP	28	336	3
NMSTR	29	48	3
NMSI_	29	48	3	96	192	1
NMHLD	29	48	4	72
NMHLD	29	192	5	72
CNSSR	29	336	1	0	144	5
NMHLD	29	336	6	72
NMHLD	30	96	7	72
NMHLD	30	240	0	96
NMTAP	30	240	7
NMTAP	30	336	4
NMTAP	31	48	3
NMTAP	31	48	6
NMTAP	31	120	3
NMTAP	31	120	6
NMHLD	31	192	0	96
NMTAP	31	192	5
NMTAP	31	288	7
NMTAP	31	312	1
NMTAP	31	336	3
NMTAP	31	360	0
NMTAP	32	0	6
NMTAP	32	24	4
NMTAP	32	48	7
NMHLD	32	72	3	72
NMTAP	32	144	6
NMTAP	32	216	1
NMTAP	32	216	4
NMTAP	32	288	2
NMHLD	32	288	7	96
NMTAP	33	0	0
NMTAP	33	24	7
NMTAP	33	48	1
NMTAP	33	72	5
NMTAP	33	96	4
NMTAP	33	120	6
NMTAP	33	144	2
NMTAP	33	168	3
NMTAP	33	192	1
NMTAP	33	240	2
NMTAP	33	240	7
NMTAP	33	312	2
NMTAP	33	312	7
NMHLD	34	0	0	96
NMTAP	34	0	4
NMTAP	34	96	7
NMTAP	34	120	1
NMTAP	34	144	4
NMTAP	34	168	0
NMTAP	34	192	6
NMTAP	34	216	3
NMTAP	34	240	7
NMTAP	34	264	6
NMTAP	34	288	5
NMTAP	34	312	4
NMTAP	34	336	2
NMTAP	34	336	3
NMTAP	35	24	2
NMTAP	35	24	3
NMSTR	35	96	0
NMSI_	35	96	0	96	48	5
NMTAP	35	96	6
EXTAP	35	192	0
EXTAP	35	192	1
NMTAP	35	240	2
NMTAP	35	264	3
NMTAP	35	288	4
NMTAP	35	312	5
NMTAP	35	336	6
NMTAP	35	360	7
EXTAP	36	48	0
EXTAP	36	48	6
NMTAP	36	96	1
NMHLD	36	120	1	72
NMTAP	36	192	3
NMTAP	36	216	2
NMTAP	36	240	4
NMTAP	36	264	3
NMSTR	36	288	5
NMSCR	36	288	5	96	48	0
NMTAP	37	48	1
NMTAP	37	72	2
NMTAP	37	96	3
NMTAP	37	120	4
NMTAP	37	144	5
NMTAP	37	168	6
NMTAP	37	192	7
NMHLD	37	216	0	72
NMTAP	37	288	7
NMTAP	37	312	3
NMTAP	37	336	6
NMTAP	37	360	3
NMTAP	38	0	5
NMTAP	38	24	3
NMTAP	38	48	4
NMTAP	38	72	3
NMTAP	38	96	2
NMTAP	38	120	3
NMTAP	38	144	1
NMTAP	38	168	3
NMTAP	38	192	0
NMTAP	38	216	3
EXHLD	38	240	7	48
NMTAP	38	312	0
NMHLD	38	312	2	72
NMTAP	39	0	6
NMTAP	39	24	5
NMTAP	39	48	4
NMTAP	39	72	3
NMTAP	39	96	2
NMTAP	39	120	1
NMTAP	39	144	0
NMHLD	39	168	7	72
NMTAP	39	240	1
NMTAP	39	264	0
NMTAP	39	288	2
NMTAP	39	312	7
NMTAP	39	336	3
NMTAP	39	360	6
NMTAP	40	0	4
NMHLD	40	24	5	72
NMTAP	40	96	3
NMTAP	40	144	2
NMTAP	40	144	4
NMTAP	40	192	1
NMTAP	40	192	3
EXSTR	40	240	0
NMSI_	40	240	0	96	48	5
EXSTR	40	240	2
NMSI_	40	240	2	96	48	5
EXHLD	41	48	0	72
EXSTR	41	48	7
NMSXR	41	48	7	96	336	2
NMHLD	41	192	1	72
NMHLD	41	336	2	72
NMHLD	42	96	3	72
NMTAP	42	240	3
NMHLD	42	240	4	144
NMTTP	42	288	5	A	0	M1
NMTTP	42	312	5	B	0	M1
NMTTP	42	336	0	C	0	M1
NMTTP	42	360	1	B	0	M1
NMTTP	43	0	1	A	0	M1
NMSTR	43	48	0
NMSXL	43	48	0	96	336	5
EXHLD	43	48	7	72
NMHLD	43	192	6	72
NMHLD	43	336	5	72
NMHLD	44	96	4	72
NMHLD	44	240	3	144
NMTAP	44	240	4
NMTTP	44	288	2	A	0	M1
NMTTP	44	312	2	B	0	M1
NMTTP	44	336	0	C	0	M1
NMTTP	44	360	6	B	0	M1
NMTTP	45	0	6	A	0	M1
BRTAP	45	48	1
BRTAP	45	48	7
NMSTR	45	192	0
NMSSL	45	192	0	96	240	4
NMTAP	45	192	6
NMTAP	46	96	7
NMTAP	46	144	6
NMTAP	46	192	5
NMHLD	46	240	4	480
NMTTP	47	0	7	D	0	M1
NMTTP	47	48	6	D	0	M1
NMTTP	47	96	5	D	0	M1
NMTTP	47	144	4	D	0	M1
NMTTP	47	192	3	D	0	M1
NMTTP	47	240	2	D	0	M1
NMSTR	47	336	7
NMSCL	47	336	7	96	96	5
NMSTR	48	48	5
NMSCL	48	48	5	96	96	3
NMSTR	48	144	3
NMSCL	48	144	3	96	96	1
NMSTR	48	240	1
NMSUL	48	240	1	96	192	7
NMHLD	49	144	3	96
NMTAP	49	240	7
NMTAP	49	288	6
NMSTR	49	336	4
NMSI_	49	336	4	96	48	0
NMSTR	49	336	5
NMSI_	49	336	5	96	48	7
CNSI_	50	96	0	0	48	2
BRTAP	50	240	4
BRTAP	50	240	7
NMTAP	50	312	3
NMTAP	50	312	6
NMTAP	51	0	2
NMSTR	51	0	5
NMSXL	51	0	5	96	96	4
BRTAP	51	240	0
BRTAP	51	240	3
NMTAP	51	312	1
NMTAP	51	312	4
NMSTR	52	0	2
NMSUR	52	0	2	96	96	4
NMTAP	52	0	5
BRTAP	52	240	7
NMTAP	52	288	7
NMTAP	52	312	2
NMTAP	52	360	2
NMSTR	53	0	4
NMSI_	53	0	4	96	48	2
EXSTR	53	48	4
NMSI_	53	48	4	96	48	6
EXSTR	53	96	4
NMSI_	53	96	4	96	48	0
EXTAP	53	144	4
EXTAP	53	192	4
BRTAP	53	240	7
NMTAP	53	288	7
NMTAP	53	312	2
NMTAP	53	360	2
NMHLD	54	0	4	96
NMTTP	54	48	2	D	0	M1
NMTTP	54	60	3	D	0	M1
NMTTP	54	72	4	D	0	M1
NMTTP	54	84	5	D	0	M1
NMTTP	54	96	6	D	0	M1
NMTTP	54	108	7	D	0	M1
NMTTP	54	120	0	D	0	M1
NMTTP	54	132	1	D	0	M1
EXTAP	54	144	2
EXTAP	54	156	3
EXTAP	54	168	4
EXTAP	54	180	5
EXTAP	54	192	6
EXTAP	54	204	7
EXTAP	54	216	0
EXTAP	54	228	1
EXTAP	54	240	2
BRTAP	54	240	5
NMTAP	54	336	0
NMTAP	54	336	7
NMTAP	55	0	1
NMTAP	55	24	0
NMTAP	55	48	1
NMTAP	55	96	6
NMSTR	55	120	4
NMSCL	55	120	4	96	120	7
NMTAP	55	120	6
NMTAP	55	168	1
NMHLD	55	192	1	144
NMTAP	55	192	4
NMTAP	56	0	5
NMTAP	56	24	4
NMTAP	56	48	5
NMTAP	56	96	1
NMTAP	56	120	1
NMTAP	56	120	3
NMTAP	56	168	6
NMTAP	56	192	3
NMTAP	56	192	6
NMHLD	56	240	0	48
NMHLD	56	240	7	48
NMHLD	56	336	1	48
NMHLD	56	336	3	48
NMTAP	57	48	4
NMTAP	57	48	6
NMTAP	57	96	3
NMTAP	57	120	4
NMTAP	57	168	1
NMTAP	57	192	1
NMSTR	57	192	7
NMSI_	57	192	7	96	24	5
NMTAP	57	240	2
NMTAP	57	288	3
CNSI_	57	312	5	0	48	1
NMTAP	57	336	4
NMTAP	57	360	4
EXTAP	58	24	0
EXSTR	58	24	4
NMSCL	58	24	4	96	72	0
NMTAP	58	96	0
NMTAP	58	120	7
NMTAP	58	144	6
NMTAP	58	168	5
NMTAP	58	192	4
NMSTR	58	240	1
NMSI_	58	240	1	96	48	3
NMSTR	58	240	4
NMSI_	58	240	4	96	48	0
NMTAP	58	336	1
NMTAP	58	336	4
NMTAP	59	48	7
NMTAP	59	96	7
NMTAP	59	120	2
NMTAP	59	168	2
NMTAP	59	192	7
NMTAP	59	240	0
NMHLD	59	240	6	144
NMTAP	59	288	7
NMTAP	59	312	0
NMTAP	59	336	1
NMTAP	59	360	2
NMTAP	60	0	3
EXHLD	60	24	4	120
NMSTR	60	96	0
NMSI_	60	96	0	96	48	4
NMTAP	60	120	7
NMSTR	60	144	6
BRSCR	60	144	6	96	96	3
NMTAP	60	192	0
EXTAP	60	240	6
NMTAP	61	0	5
NMTAP	61	24	6
NMTAP	61	48	7
NMTAP	61	72	0
NMTAP	61	96	1
NMSTR	61	120	2
BRSCL	61	120	2	96	120	5
NMTAP	61	120	5
NMTAP	61	192	3
NMTAP	61	192	4
EXTAP	61	240	2
NMTAP	62	0	3
NMTAP	62	24	2
NMTAP	62	48	1
NMTAP	62	72	0
NMTAP	62	96	7
NMTAP	62	120	1
NMTAP	62	120	6
NMTAP	62	192	3
NMTAP	62	192	4
NMTAP	62	240	0
NMTAP	62	264	4
NMTAP	62	288	1
NMTAP	62	312	5
NMTAP	62	336	2
NMTAP	62	360	6
NMTAP	63	0	3
NMTAP	63	24	7
NMTAP	63	48	4
NMTAP	63	96	2
NMTAP	63	96	6
NMTAP	63	120	2
NMTAP	63	120	6
NMTAP	63	192	3
NMTAP	63	192	4
BRSTR	63	240	0
NMSF_	63	240	0	96	288	4
NMTTP	65	48	1	B	0	M1
NMTTP	65	48	2	B	0	M1
NMTTP	65	144	0	C	0	M1
NMTTP	65	144	1	E	0	M1
NMTTP	65	240	0	E	0	M1
NMTTP	65	240	6	B	0	M1
NMTTP	65	336	6	E	0	M1
NMTTP	65	360	5	B	0	M1
NMTTP	66	0	4	B	0	M1
NMTTP	66	24	4	E	0	M1
NMTTP	66	48	2	E	0	M1
NMTTP	66	72	1	B	0	M1
NMTTP	66	96	0	B	0	M1
NMTTP	66	120	0	E	0	M1
NMTTP	66	144	5	E	0	M1
NMTTP	66	168	4	B	0	M1
NMTTP	66	192	3	B	0	M1
NMTTP	66	216	3	E	0	M1
NMTTP	66	240	6	A	0	M1
NMTTP	66	264	7	E	0	M1
NMTTP	66	288	7	B	0	M1
NMTTP	66	312	0	B	0	M1
NMTTP	66	336	1	E	0	M1
NMTTP	66	360	1	A	0	M1
NMTTP	67	0	7	A	0	M1
NMTTP	67	24	6	A	0	M1
NMTTP	67	48	5	A	0	M1
NMTTP	67	72	4	A	0	M1
NMTTP	67	96	3	A	0	M1
NMTTP	67	120	2	A	0	M1
NMTTP	67	144	1	A	0	M1
NMTTP	67	168	0	A	0	M1
EXTAP	67	192	7
EXTAP	67	216	6
EXTAP	67	240	5
EXTAP	67	264	4
EXTAP	67	288	3
EXTAP	67	312	2
EXTAP	67	336	1
EXTAP	67	360	0
EXTAP	68	0	7
EXTAP	68	24	6
BXSTR	68	48	1
NMSXL	68	48	1	96	240	4
BXSTR	68	48	5
NMSXL	68	48	5	96	240	0
NMHLD	69	96	2	192
NMTAP	69	96	6
NMTTP	69	192	0	E	0	M1
NMTTP	69	216	1	E	0	M1
NMTTP	69	240	2	E	0	M1
NMTTP	69	264	3	E	0	M1
NMTTP	69	288	4	E	0	M1
NMTTP	69	312	5	E	0	M1
NMTTP	69	336	6	E	0	M1
NMTTP	69	360	7	E	0	M1
EXTAP	70	0	2
NMTAP	70	24	3
NMTAP	70	48	4
NMTAP	70	72	5
NMTAP	70	96	6
NMTAP	70	120	7
NMTAP	70	192	0
NMTAP	70	192	1
NMTAP	70	288	6
NMTAP	70	288	7
NMSTR	71	0	0
NMSCR	71	0	0	96	96	4
NMTAP	71	0	7
NMTTP	71	192	0	B	0	M1
NMTTP	71	192	7	B	0	M1
NMTTP	71	208	6	B	0	M1
NMTTP	71	224	5	B	0	M1
NMTTP	71	240	4	B	0	M1
NMTTP	71	256	3	B	0	M1
NMTTP	71	272	2	B	0	M1
NMTTP	71	288	1	B	0	M1
NMTTP	71	296	0	A	0	M1
NMTTP	71	312	7	A	0	M1
NMTTP	71	328	6	A	0	M1
NMTTP	71	344	5	A	0	M1
NMTTP	71	360	4	A	0	M1
NMTTP	71	380	3	A	0	M1
NMTTP	72	12	2	A	0	M1
NMTTP	72	28	1	A	0	M1
NMTTP	72	44	0	A	0	M1
NMTTP	72	60	7	A	0	M1
NMTTP	72	76	6	A	0	M1
EXTAP	72	96	3
EXTAP	72	112	4
EXTAP	72	128	5
EXTAP	72	144	6
EXTAP	72	160	7
EXTAP	72	176	0
EXTAP	72	192	1
EXTAP	72	208	2
EXTAP	72	224	3
BXTAP	72	240	4
BXTAP	72	240	7
NMTAP	72	312	0
NMTAP	72	312	7
NMTAP	72	360	0
NMTAP	72	360	7
BXTAP	73	24	1
BXTAP	73	24	3
NMTAP	73	96	0
NMTAP	73	96	7
NMTAP	73	144	0
NMTAP	73	144	7
NMTAP	73	192	5
NMTAP	73	216	4
NMTAP	73	240	5
NMTAP	73	264	4
NMHLD	73	288	6	168
NMTTP	73	360	0	E	0	M1
NMTTP	74	24	2	E	0	M1
NMTTP	74	72	4	E	0	M1
NMTAP	74	120	7
NMTAP	74	144	6
NMTAP	74	168	5
NMTAP	74	192	3
NMTAP	74	192	4
NMTAP	74	240	2
NMHLD	74	240	5	96
EXTAP	74	336	6
NMTAP	74	360	5
NMTAP	75	0	6
NMTAP	75	24	5
NMTAP	75	48	6
NMTAP	75	72	5
NMTAP	75	96	6
NMTAP	75	120	5
NMTAP	75	144	6
NMTAP	75	168	5
NMTAP	75	192	6
NMTAP	75	216	5
NMTAP	75	240	6
NMTAP	75	264	5
NMTAP	75	288	6
NMTAP	75	312	5
EXHLD	76	0	0	48
EXHLD	76	0	5	48
NMHLD	76	72	3	48
NMHLD	76	72	5	48
NMTAP	76	144	2
NMTAP	76	144	5
NMTAP	76	192	1
NMTAP	76	192	4
NMTAP	76	240	1
NMTAP	76	240	4
EXHLD	76	288	2	48
EXHLD	76	288	7	48
NMHLD	76	360	2	48
NMHLD	76	360	4	48
NMTAP	77	48	2
NMTAP	77	48	5
NMTAP	77	96	3
NMTAP	77	96	6
NMTAP	77	144	3
NMTAP	77	144	6
EXTAP	77	192	4
EXSTR	77	192	5
NMSXL	77	192	5	96	192	3
NMTAP	77	288	3
NMTAP	77	336	2
NMTAP	78	0	1
NMTAP	78	48	0
EXSTR	78	96	7
NMSXL	78	96	7	96	192	3
NMTAP	78	192	3
NMTAP	78	240	4
NMTAP	78	288	5
NMTAP	78	336	6
NMSTR	79	0	7
NMSI_	79	0	7	96	48	2
NMSI_	79	0	7	96	48	3
EXTAP	79	96	7
NMHLD	79	240	0	48
NMHLD	79	240	2	48
NMSTR	79	312	0
NMSI_	79	312	0	96	48	3
NMSI_	79	312	0	96	48	4
NMHLD	79	312	2	48
EXTAP	80	0	0
NMHLD	80	144	5	48
NMHLD	80	144	7	48
NMSTR	80	216	5
NMSI_	80	216	5	96	48	1
NMHLD	80	216	7	48
EXTAP	80	288	5
NMTAP	80	336	6
NMSTR	81	0	7
NMSI_	81	0	7	96	48	3
NMTAP	81	48	0
NMTAP	81	96	1
NMTAP	81	144	2
NMTAP	81	192	4
NMTAP	81	192	5
NMTAP	81	240	6
NMTAP	81	240	7
NMTAP	81	288	0
NMTAP	81	288	1
NMTAP	81	336	2
NMTAP	81	336	3
NMSTR	82	0	3
NMSI_	82	0	3	96	48	6
NMSTR	82	48	1
NMSI_	82	48	1	96	48	5
NMSTR	82	96	3
BRSCL	82	96	3	96	96	7
NMTAP	82	144	1
BRTAP	82	192	3
NMTAP	82	336	1
NMTAP	83	0	1
NMHLD	83	0	5	48
NMTAP	83	48	0
NMTAP	83	96	1
NMHLD	83	96	4	48
NMTAP	83	144	7
NMTAP	83	192	1
NMTAP	83	192	3
NMTAP	83	240	3
NMTAP	83	264	2
NMTAP	83	312	2
NMSTR	83	336	7
NMSI_	83	336	7	96	48	3
NMSTR	84	0	3
NMSI_	84	0	3	96	48	7
NMTAP	84	48	7
NMTAP	84	96	0
NMTAP	84	144	1
NMHLD	84	192	2	48
NMTAP	84	192	6
NMTAP	84	240	7
NMHLD	84	288	3	48
NMTAP	84	288	6
NMTAP	84	336	0
NMTAP	85	0	4
NMTAP	85	0	6
NMTAP	85	48	4
NMTAP	85	72	5
NMTAP	85	120	5
NMTAP	85	144	0
NMTAP	85	192	6
NMTAP	85	216	3
NMTAP	85	240	5
NMTAP	85	264	3
NMTAP	85	288	4
NMTAP	85	312	3
NMTAP	85	336	2
NMTAP	85	360	3
NMTAP	86	0	1
NMTAP	86	24	3
NMTAP	86	48	0
NMTAP	86	72	3
NMTAP	86	96	7
NMTAP	86	120	3
NMTAP	86	144	6
NMTAP	86	168	3
NMHLD	86	192	5	48
NMHLD	86	240	4	48
NMHLD	86	288	6	48
NMHLD	86	336	0	48
NMHLD	87	0	3	48
NMSTR	87	48	2
NMSI_	87	48	2	96	48	0
NMSI_	87	48	2	96	48	7
NMTAP	87	96	2
EXSTR	87	144	2
NMSI_	87	144	2	96	48	4
NMSI_	87	144	2	96	48	5
EXSTR	87	240	2
BRSCL	87	240	2	96	96	5
BRSUL	87	240	2	96	96	5
BRTAP	87	336	2
NMTAP	88	192	1
NMTAP	88	216	3
NMTAP	88	240	0
NMTAP	88	264	6
NMTAP	88	288	4
NMTAP	88	312	7
NMTAP	88	336	1
NMTAP	88	360	6
NMTAP	89	0	0
NMTAP	89	24	7
NMTAP	89	48	2
NMTAP	89	72	3
NMTAP	89	96	0
NMTAP	89	120	7
NMTAP	89	144	4
NMTAP	89	168	5
NMTAP	89	192	1
NMTAP	89	216	4
NMTAP	89	240	0
NMTAP	89	264	4
NMTAP	89	288	1
NMTAP	89	312	5
NMTAP	89	336	0
NMTAP	89	360	5
NMTAP	90	0	2
NMTAP	90	24	3
NMTAP	90	48	1
NMTAP	90	72	5
NMTAP	90	96	4
NMTAP	90	120	6
NMTAP	90	144	3
NMTAP	90	168	4
BRTAP	90	192	0
NMTAP	90	208	1
NMTAP	90	224	2
NMTAP	90	240	7
NMTAP	90	256	6
NMTAP	90	272	5
NMSTR	90	288	1
NMSSR	90	288	1	96	96	5
NMTAP	90	304	2
NMTAP	90	320	3
NMTAP	90	336	6
NMTAP	90	352	5
NMTAP	90	368	4
EXTAP	91	0	1
BRSTR	91	192	0
NMSI_	91	192	0	96	48	2
BRTAP	91	192	6
NMTAP	91	264	4
NMSTR	91	288	0
NMSI_	91	288	0	96	48	5
NMTAP	91	288	4
NMSTR	92	0	0
NMSI_	92	0	0	96	48	3
NMSTR	92	0	4
NMSCR	92	0	4	96	48	7
NMTAP	92	96	0
NMTAP	92	96	4
NMTAP	92	192	1
NMSTR	92	192	7
NMSI_	92	192	7	96	48	5
NMTAP	92	264	3
NMTAP	92	288	3
NMSTR	92	288	7
NMSI_	92	288	7	96	48	2
NMSTR	93	0	3
NMSCL	93	0	3	96	48	0
NMSTR	93	0	7
NMSI_	93	0	7	96	48	4
NMTAP	93	96	3
NMTAP	93	96	7
BRSTR	93	192	3
NMSI_	93	192	3	96	48	6
BRSTR	93	192	7
NMSI_	93	192	7	96	48	2
NMSTR	94	0	3
NMSI_	94	0	3	96	48	0
NMSTR	94	0	7
NMSI_	94	0	7	96	48	4
NMTAP	94	192	1
NMHLD	94	192	5	192
NMTTP	94	288	1	B	0	M1
NMTTP	94	288	2	B	0	M1
NMTTP	94	288	2	E	0	M1
NMTTP	94	336	5	B	0	M1
NMTTP	94	336	6	B	0	M1
NMTTP	94	336	6	E	0	M1
NMSTR	95	0	7
NMSI_	95	0	7	96	96	1
NMSSR	95	0	7	96	384	3
CNSI_	95	192	1	0	288	4
EXSTR	96	144	7
NMSSR	96	144	7	96	48	3

T_REC_TAP	540
T_REC_BRK	16
T_REC_XTP	62
T_REC_BXX	8
T_REC_HLD	86
T_REC_XHO	16
T_REC_BHO	0
T_REC_BXH	0
T_REC_STR	59
T_REC_BST	4
T_REC_XST	15
T_REC_XBS	2
T_REC_TTP	116
T_REC_THO	0
T_REC_SLD	82
T_REC_BSL	5
T_REC_ALL	1011
T_NUM_TAP	792
T_NUM_BRK	35
T_NUM_HLD	102
T_NUM_SLD	82
T_NUM_ALL	1011
T_JUDGE_TAP	822
T_JUDGE_HLD	177
T_JUDGE_SLD	87
T_JUDGE_ALL	1086
TTM_EACHPAIRS	156
TTM_SCR_TAP	396000
TTM_SCR_BRK	91000
TTM_SCR_HLD	102000
TTM_SCR_SLD	123000
TTM_SCR_ALL	712000
TTM_SCR_S	687250
TTM_SCR_SS	708500
TTM_RAT_ACV	10049

