VERSION	0.00.00	1.04.00
FES_MODE	0
BPM_DEF	164.000	164.000	164.000	 89.000
MET_DEF	4	4
RESOLUTION	384
CLK_DEF	384
COMPATIBLE_CODE	MA2

BPM	0	0	164.000
BPM	93	192	152.000
BPM	94	0	142.000
BPM	94	192	129.000
BPM	94	288	 98.000
BPM	95	0	 89.000
MET	0	0	4	4
MET	3	0	4	3
MET	4	192	8	7
MET	6	96	4	3
MET	7	288	8	7
MET	9	192	8	9
MET	10	240	4	3
MET	15	48	4	4
MET	16	48	4	3
MET	18	144	4	4
MET	23	144	4	7
MET	25	48	4	4
MET	27	48	4	3
MET	28	240	4	2
MET	29	48	4	3
MET	30	240	4	2
MET	31	48	8	5
MET	41	48	4	3
MET	42	240	4	2
MET	43	48	4	3
MET	44	240	4	2
MET	45	48	8	5
MET	45	288	8	7
MET	46	240	4	5
MET	47	336	8	5
MET	48	192	8	7
MET	49	144	4	5
MET	50	240	4	4
MET	63	240	8	9
MET	73	288	4	3
MET	78	96	4	4
MET	79	96	4	3
MET	81	192	4	4

NMTAP	1	0	1
NMTAP	1	0	3
NMTAP	1	72	2
NMTAP	1	72	4
NMHLD	1	144	3	96
NMHLD	1	144	5	96
NMTAP	1	288	2
NMTAP	1	288	6
NMTAP	1	360	2
NMTAP	1	360	6
NMTAP	2	48	1
NMTAP	2	48	7
NMTAP	2	96	1
NMTAP	2	96	7
NMTAP	2	144	1
NMTAP	2	144	7
NMTAP	2	192	0
NMTAP	2	192	6
NMTAP	2	240	0
NMTAP	2	240	6
BRTAP	2	288	0
BRTAP	2	288	6
NMHLD	3	0	1	96
NMTAP	3	96	3
NMHLD	3	144	3	96
NMTAP	3	240	4
NMHLD	3	288	4	96
NMTAP	4	0	6
NMHLD	4	48	6	96
NMTAP	4	144	0
NMSTR	4	192	0
NMSI_	4	192	0	96	48	4
NMTAP	5	48	5
NMTAP	5	96	5
NMTAP	5	144	3
NMTAP	5	192	3
NMTAP	5	240	4
NMTAP	5	288	4
NMTAP	5	336	3
NMTAP	5	336	5
NMTAP	6	0	3
NMTAP	6	0	5
NMTAP	6	48	3
NMTAP	6	48	5
NMHLD	6	96	6	96
NMTAP	6	192	4
NMHLD	6	240	4	96
NMTAP	6	336	3
NMHLD	7	0	3	96
NMTAP	7	96	1
NMHLD	7	144	1	96
NMTAP	7	240	7
NMSTR	7	288	7
NMSI_	7	288	7	96	48	3
NMTAP	8	144	2
NMTAP	8	192	2
NMTAP	8	240	4
NMTAP	8	288	4
NMTAP	8	336	3
NMTAP	9	0	3
NMTAP	9	48	2
NMTAP	9	48	4
NMTAP	9	96	2
NMTAP	9	96	4
NMTAP	9	144	2
NMTAP	9	144	4
NMHLD	9	192	1	72
NMTAP	9	264	3
NMTAP	9	312	1
NMTAP	9	312	3
NMSTR	9	360	1
NMSI_	9	360	1	96	48	7
NMTAP	9	360	3
NMHLD	10	240	6	72
NMTAP	10	312	4
NMTAP	10	360	4
NMTAP	10	360	6
NMTAP	11	24	4
NMSTR	11	24	6
NMSI_	11	24	6	96	48	0
EXSTR	11	288	1
NMSXR	11	288	1	96	192	4
EXTAP	11	336	1
NMTAP	12	336	6
NMTAP	13	0	6
NMTAP	13	48	4
NMTAP	13	96	4
NMHLD	13	144	5	96
NMTAP	13	240	3
NMTAP	13	288	3
NMTAP	13	336	4
NMTAP	14	0	4
NMHLD	14	48	1	96
NMTAP	14	144	3
NMHLD	14	192	3	96
NMTAP	14	288	4
NMHLD	14	336	4	96
NMTAP	15	48	6
NMHLD	15	96	6	96
NMTAP	15	192	0
NMTAP	15	240	0
NMTAP	15	288	1
NMTAP	15	288	7
NMTAP	15	336	1
NMTAP	15	336	7
EXTAP	16	48	0
EXTAP	16	48	6
NMTAP	16	192	2
NMTAP	16	192	7
NMTAP	16	264	1
NMTAP	16	264	6
NMTAP	16	336	0
NMTAP	16	336	5
NMTAP	17	96	0
NMTAP	17	96	5
NMTAP	17	168	1
NMTAP	17	168	6
NMTAP	17	240	2
NMTAP	17	240	7
NMTAP	17	288	2
NMTAP	17	288	7
NMTAP	17	336	3
NMTAP	17	336	6
NMTAP	18	0	3
NMTAP	18	0	6
NMTAP	18	48	4
NMTAP	18	48	5
NMTAP	18	96	4
NMTAP	18	96	5
NMTAP	18	144	3
NMTAP	18	192	3
NMTAP	18	240	2
NMTAP	18	240	4
NMTAP	18	288	2
NMTAP	18	288	4
NMTAP	18	336	1
NMTAP	18	336	5
NMTAP	19	0	1
NMTAP	19	0	5
NMTAP	19	48	1
NMTAP	19	48	5
NMHLD	19	144	0	288
NMSTR	19	144	6
NMSI_	19	144	6	96	48	2
EXTAP	20	48	7
EXTAP	20	96	7
NMTAP	20	192	5
NMTAP	20	240	4
NMTAP	20	240	6
NMTAP	20	336	1
NMTAP	20	336	3
NMTAP	21	48	3
NMTAP	21	48	5
NMSTR	21	144	1
NMSI_	21	144	1	96	48	5
NMHLD	21	144	7	288
EXTAP	22	48	0
EXTAP	22	96	0
NMTAP	22	192	2
NMTAP	22	240	1
NMTAP	22	240	3
NMTAP	22	336	4
NMTAP	22	336	6
NMTAP	23	48	2
NMTAP	23	48	4
NMHLD	23	144	1	72
NMHLD	23	216	2	72
NMHLD	23	288	3	72
NMHLD	23	360	4	72
NMHLD	24	48	5	72
NMTAP	24	120	6
NMTAP	24	336	4
NMTAP	24	336	5
NMHLD	25	48	6	72
NMHLD	25	120	5	72
NMHLD	25	192	4	72
NMHLD	25	264	3	72
NMHLD	25	336	2	72
NMTAP	26	24	1
NMTAP	26	192	0
NMTAP	26	240	0
NMTAP	26	288	4
NMTAP	26	336	4
NMTAP	27	0	2
NMHLD	27	48	1	80
NMHLD	27	48	3	80
NMHLD	27	192	4	80
NMHLD	27	192	6	80
NMHLD	27	336	1	80
NMHLD	27	336	3	80
NMHLD	28	96	4	80
NMHLD	28	96	6	80
NMTAP	28	240	5
NMTAP	28	288	5
NMTAP	28	336	4
NMTAP	29	0	6
NMHLD	29	48	5	80
NMHLD	29	48	7	80
NMHLD	29	192	1	80
NMHLD	29	192	3	80
NMHLD	29	336	4	80
NMHLD	29	336	6	80
NMHLD	30	96	0	80
NMHLD	30	96	2	80
NMTAP	30	240	1
NMTAP	30	288	1
NMTAP	30	336	3
NMTAP	31	0	2
NMTAP	31	48	1
NMTAP	31	48	3
NMTAP	31	120	1
NMTAP	31	120	3
NMSTR	31	192	0
NMSLR	31	192	0	96	96	4
NMTAP	31	192	4
NMTAP	32	144	4
NMTAP	32	144	6
NMTAP	32	216	4
NMTAP	32	216	6
NMTAP	32	288	3
NMSTR	32	288	7
NMSLL	32	288	7	96	96	3
NMTAP	33	240	1
NMTAP	33	240	3
NMTAP	33	312	1
NMTAP	33	312	3
NMTAP	34	0	0
NMSTR	34	0	4
NMSLL	34	0	4	96	144	7
NMTAP	34	336	4
NMTAP	34	336	6
NMTAP	35	24	4
NMTAP	35	24	6
NMSTR	35	96	3
NMSLR	35	96	3	96	144	0
NMTAP	35	96	7
NMHLD	36	48	1	72
NMHLD	36	120	2	72
NMTAP	36	192	3
NMTAP	36	240	3
NMHLD	36	288	4	72
NMHLD	36	360	5	72
NMTAP	37	48	6
NMTAP	37	96	6
NMTAP	37	144	4
NMTAP	37	192	4
NMTAP	37	240	5
NMTAP	37	288	5
NMTAP	37	336	2
NMTAP	38	0	3
NMTAP	38	48	1
NMTAP	38	96	5
NMTAP	38	144	4
NMTAP	38	192	6
NMHLD	38	240	6	72
NMHLD	38	312	5	72
NMTAP	39	0	4
NMTAP	39	48	4
NMHLD	39	96	3	72
NMHLD	39	168	2	72
NMTAP	39	240	1
NMTAP	39	288	1
NMHLD	39	336	1	72
NMHLD	40	24	2	72
NMTAP	40	96	3
NMTAP	40	144	3
NMHLD	40	192	4	72
NMHLD	40	264	5	72
NMTAP	40	336	6
NMHLD	41	48	4	80
NMHLD	41	48	6	80
NMHLD	41	192	1	80
NMHLD	41	192	3	80
NMHLD	41	336	4	80
NMHLD	41	336	6	80
NMHLD	42	96	1	80
NMHLD	42	96	3	80
NMTAP	42	240	2
NMTAP	42	288	2
NMTAP	42	336	3
NMTAP	43	0	1
NMHLD	43	48	0	80
NMHLD	43	48	2	80
NMHLD	43	192	4	80
NMHLD	43	192	6	80
NMHLD	43	336	1	80
NMHLD	43	336	3	80
NMHLD	44	96	5	80
NMHLD	44	96	7	80
NMTAP	44	240	6
NMTAP	44	288	6
NMTAP	44	336	4
NMTAP	45	0	4
NMSTR	45	48	5
NMSCR	45	48	5	96	240	2
NMTAP	46	240	5
NMTAP	46	336	6
NMTAP	47	48	7
NMTAP	47	144	0
NMTAP	47	240	1
NMSTR	47	336	2
NMSCL	47	336	2	96	240	5
NMTAP	49	144	2
NMTAP	49	240	1
NMTAP	49	336	0
NMTAP	50	48	7
NMTAP	50	144	6
NMSTR	50	240	4
NMSI_	50	240	4	96	96	1
NMSI_	50	240	4	96	96	7
NMTAP	50	240	5
NMTAP	51	240	2
NMSTR	51	240	3
NMSI_	51	240	3	96	96	0
NMSI_	51	240	3	96	96	6
NMHLD	52	240	0	96
NMHLD	52	240	6	96
NMHLD	53	48	1	96
NMHLD	53	48	7	96
NMTAP	53	240	0
NMTAP	53	288	0
NMTAP	53	336	6
NMTAP	54	0	6
NMTAP	54	48	2
BRSTR	54	144	3
NMSCR	54	144	3	96	192	1
BRTAP	54	144	5
NMTTP	54	240	5	E	1	M1
NMTAP	55	144	2
NMSTR	55	144	4
NMSCL	55	144	4	96	192	6
NMTTP	55	240	3	E	1	M1
NMTAP	56	144	3
NMTAP	56	144	5
NMHLD	56	240	2	96
NMHLD	56	336	0	96
NMHLD	57	48	7	96
NMTAP	57	144	5
NMTAP	57	240	3
NMTAP	57	288	3
NMSTR	57	336	2
NMSI_	57	336	2	96	48	7
NMTAP	57	336	4
NMSTR	58	48	6
NMSI_	58	48	6	96	48	3
EXTAP	58	144	0
EXTAP	58	240	0
NMTAP	58	336	1
NMTAP	58	336	7
NMHLD	59	48	6	72
NMHLD	59	120	5	72
NMTAP	59	192	4
NMTAP	59	240	4
NMTAP	59	288	2
NMTAP	59	336	2
NMTAP	60	0	6
NMTAP	60	48	6
NMTAP	60	96	0
NMSTR	60	144	0
NMSCR	60	144	0	96	96	4
NMTAP	60	240	5
NMTAP	61	0	6
NMTAP	61	48	6
NMTAP	61	96	4
NMSTR	61	144	7
NMSCL	61	144	7	96	96	3
NMTAP	61	240	2
NMTAP	62	0	1
NMTAP	62	48	1
NMTAP	62	96	3
NMSTR	62	144	0
NMSI_	62	144	0	96	48	4
NMTAP	62	240	5
NMSTR	62	336	7
NMSI_	62	336	7	96	48	3
NMTAP	63	48	2
NMSTR	63	144	0
NMSCR	63	144	0	96	432	7
NMTTP	63	240	0	C	1	M1
NMTTP	65	336	6	E	0	M1
NMTTP	65	360	5	B	0	M1
NMTTP	66	0	4	B	0	M1
NMTTP	66	24	4	E	0	M1
NMTTP	67	0	2	E	0	M1
NMTTP	67	24	2	B	0	M1
NMTTP	67	48	3	B	0	M1
NMTTP	67	72	4	E	0	M1
NMSTR	68	48	5
NMSXL	68	48	5	96	240	3
NMSTR	69	96	2
NMSXR	69	96	2	96	240	4
NMHLD	70	144	6	96
NMHLD	70	240	4	96
NMHLD	70	336	3	96
NMHLD	71	48	1	96
NMTAP	71	144	7
NMTAP	71	192	7
NMTAP	71	264	4
NMTAP	71	264	6
NMTAP	71	336	0
NMTAP	72	24	1
NMTAP	72	24	3
NMTAP	72	96	7
NMTAP	72	144	7
NMTAP	72	192	0
NMSTR	72	240	0
NMSI_	72	240	0	96	72	5
CNSI_	73	24	5	0	72	1
CNSI_	73	96	1	0	72	4
NMSTR	73	288	7
NMSI_	73	288	7	96	72	2
CNSI_	74	72	2	0	72	6
CNSI_	74	144	6	0	72	3
EXTAP	75	48	1
EXTAP	75	96	1
EXTAP	75	144	7
EXTAP	75	192	7
EXTAP	75	240	0
EXTAP	75	288	0
EXTAP	75	336	6
EXHLD	76	0	6	72
NMTAP	76	72	4
NMTAP	76	144	3
NMTAP	76	144	7
NMHLD	76	288	1	72
NMTAP	76	360	3
NMTAP	77	48	0
NMTAP	77	48	4
NMTAP	77	192	5
NMTAP	77	240	6
NMTAP	77	288	7
NMTAP	77	336	0
NMTAP	78	0	1
NMTAP	78	48	2
NMTAP	78	96	5
NMTAP	78	144	6
NMTAP	78	192	7
NMTAP	78	240	0
NMTAP	78	288	1
NMTAP	78	336	2
NMTAP	79	0	3
NMTAP	79	0	4
NMTAP	79	96	2
NMTAP	79	96	5
NMHLD	79	240	1	72
NMTAP	79	312	0
NMTAP	80	0	2
NMTAP	80	0	7
NMHLD	80	144	6	72
NMTAP	80	216	7
NMTAP	80	288	0
NMTAP	80	288	5
NMTAP	80	336	0
NMTAP	80	336	5
NMTAP	81	0	1
NMTAP	81	0	4
NMTAP	81	48	1
NMTAP	81	48	4
NMTAP	81	96	2
NMTAP	81	96	3
NMTAP	81	192	0
NMTAP	81	192	1
NMTAP	81	288	6
NMTAP	81	288	7
NMTAP	82	0	4
NMTAP	82	0	5
NMSTR	82	96	3
BRSCL	82	96	3	96	48	0
NMTAP	82	96	6
BRTAP	82	192	5
NMTAP	82	336	6
NMTAP	83	0	6
NMTAP	83	48	0
NMTAP	83	96	0
NMTAP	83	144	5
NMSTR	83	192	5
NMSCL	83	192	5	96	48	2
NMTAP	83	288	1
NMTAP	84	0	0
NMTAP	84	0	1
NMTAP	84	96	2
NMTAP	84	96	3
EXSTR	84	192	0
NMSI_	84	192	0	96	48	3
EXSTR	84	192	4
NMSI_	84	192	4	96	48	7
EXSTR	85	0	3
NMSI_	85	0	3	96	48	0
EXSTR	85	0	7
NMSI_	85	0	7	96	48	4
NMTAP	85	192	1
NMTAP	85	216	3
NMTAP	85	240	1
NMTAP	85	264	3
NMTAP	85	288	1
NMTAP	86	0	6
NMTAP	86	24	4
NMTAP	86	48	6
NMTAP	86	72	4
NMTAP	86	96	6
EXTAP	86	192	3
EXTAP	86	192	7
NMTAP	86	288	0
NMTAP	86	288	1
NMTAP	87	0	5
NMTAP	87	0	6
NMTAP	87	96	1
NMTAP	87	96	3
NMTAP	87	144	1
NMTAP	87	144	3
NMSTR	87	240	3
NMSCL	87	240	3	96	96	0
NMSTR	87	240	4
NMSCR	87	240	4	96	96	7
NMTAP	88	192	1
NMTAP	88	216	0
NMTAP	88	240	1
NMTAP	88	264	0
NMTAP	88	288	1
NMTAP	88	312	0
NMTAP	88	336	1
NMTAP	88	360	0
NMSTR	89	0	1
NMSI_	89	0	1	96	48	4
NMTAP	89	192	6
NMTAP	89	216	7
NMTAP	89	240	6
NMTAP	89	264	7
NMTAP	89	288	6
NMTAP	89	312	7
NMTAP	89	336	6
NMTAP	89	360	7
NMSTR	90	0	6
NMSI_	90	0	6	96	48	3
NMSTR	90	192	1
BRSCL	90	192	1	96	48	6
EXHLD	90	288	4	192
BRTAP	91	96	0
NMTAP	91	192	1
NMTAP	91	192	3
NMTAP	91	264	2
NMTAP	91	288	3
NMTAP	92	0	0
NMTAP	92	0	1
NMTAP	92	96	6
NMTAP	92	96	7
NMTAP	92	192	4
NMTAP	92	192	6
NMTAP	92	264	5
NMTAP	92	288	4
NMTAP	93	0	6
NMTAP	93	0	7
NMTAP	93	96	0
NMTAP	93	96	1
NMTAP	93	192	1
NMSTR	93	192	3
NMSI_	93	192	3	96	96	7
EXTAP	94	0	2
NMTAP	94	192	2
NMTAP	94	192	7
NMTAP	94	288	2
NMTAP	94	288	7
NMTAP	94	336	1
NMTAP	94	336	6
NMSTR	95	0	0
NMSCR	95	0	0	96	288	7
NMHLD	95	0	5	528
EXSTR	96	144	0
NMSUR	96	144	0	96	48	4

T_REC_TAP	352
T_REC_BRK	5
T_REC_XTP	19
T_REC_BXX	0
T_REC_HLD	90
T_REC_XHO	2
T_REC_BHO	0
T_REC_BXH	0
T_REC_STR	35
T_REC_BST	1
T_REC_XST	6
T_REC_XBS	0
T_REC_TTP	11
T_REC_THO	0
T_REC_SLD	42
T_REC_BSL	2
T_REC_ALL	565
T_NUM_TAP	423
T_NUM_BRK	8
T_NUM_HLD	92
T_NUM_SLD	42
T_NUM_ALL	565
T_JUDGE_TAP	429
T_JUDGE_HLD	214
T_JUDGE_SLD	44
T_JUDGE_ALL	687
TTM_EACHPAIRS	123
TTM_SCR_TAP	211500
TTM_SCR_BRK	20800
TTM_SCR_HLD	92000
TTM_SCR_SLD	63000
TTM_SCR_ALL	387300
TTM_SCR_S	374950
TTM_SCR_SS	386500
TTM_RAT_ACV	10020

