VERSION	0.00.00	1.04.00
FES_MODE	0
BPM_DEF	164.000	164.000	164.000	 89.000
MET_DEF	4	4
RESOLUTION	384
CLK_DEF	384
COMPATIBLE_CODE	MA2

BPM	0	0	164.000
BPM	93	192	152.000
BPM	94	0	142.000
BPM	94	192	129.000
BPM	94	288	 98.000
BPM	95	0	 89.000
MET	0	0	4	4
MET	3	0	4	3
MET	4	192	8	7
MET	6	96	4	3
MET	7	288	8	7
MET	9	192	8	9
MET	10	240	4	3
MET	15	48	4	4
MET	16	48	4	3
MET	18	144	4	4
MET	23	144	4	7
MET	25	48	4	4
MET	27	48	4	3
MET	28	240	4	2
MET	29	48	4	3
MET	30	240	4	2
MET	31	48	8	5
MET	41	48	4	3
MET	42	240	4	2
MET	43	48	4	3
MET	44	240	4	2
MET	45	48	8	5
MET	45	288	8	7
MET	46	240	4	5
MET	47	336	8	5
MET	48	192	8	7
MET	49	144	4	5
MET	50	240	4	4
MET	63	240	8	9
MET	73	288	4	3
MET	78	96	4	4
MET	79	96	4	3
MET	81	192	4	4

NMSTR	1	0	7
NMSI_	1	0	7	96	288	3
NMTAP	3	0	2
NMTAP	3	96	2
NMTAP	3	192	2
NMTAP	3	288	3
NMTAP	4	0	3
NMTAP	4	96	3
NMTAP	4	192	4
NMTAP	4	288	4
NMTAP	5	0	4
NMTAP	5	96	4
NMTAP	5	96	5
NMTAP	6	96	5
NMTAP	6	192	5
NMTAP	6	288	5
NMTAP	7	0	4
NMTAP	7	96	4
NMTAP	7	192	4
NMTAP	7	288	3
NMTAP	8	0	3
NMTAP	8	96	3
NMTAP	8	192	2
NMTAP	8	192	3
NMHLD	9	192	0	192
NMHLD	9	192	1	192
NMTAP	10	240	7
NMTAP	10	336	7
NMTAP	11	144	6
NMTAP	11	144	7
NMTAP	11	240	6
NMTAP	11	240	7
NMTAP	12	48	5
NMTAP	12	144	5
NMTAP	12	336	4
NMTAP	12	336	5
NMTAP	13	48	4
NMTAP	13	48	5
NMTAP	13	240	3
NMTAP	13	336	3
NMTAP	14	144	2
NMTAP	14	144	3
NMTAP	14	240	2
NMTAP	14	240	3
NMTAP	15	48	1
NMTAP	15	144	1
NMTAP	15	240	0
NMTAP	15	336	0
NMSTR	16	48	7
NMSI_	16	48	7	96	192	3
NMTAP	17	240	2
NMTAP	17	240	3
NMTAP	17	336	2
NMTAP	17	336	3
NMTAP	18	144	4
NMTAP	18	144	5
NMTAP	18	240	4
NMTAP	18	240	5
NMTTP	19	144	6	B	0	L1
NMTTP	19	240	5	B	0	L1
NMTTP	19	336	4	B	0	L1
NMTTP	20	144	1	B	0	L1
NMTTP	20	240	2	B	0	L1
NMTTP	20	336	3	B	0	L1
NMTTP	21	144	5	E	0	L1
NMTTP	21	240	6	E	0	L1
NMTTP	21	336	7	E	0	L1
NMTTP	22	48	0	E	0	L1
NMTTP	22	144	1	E	0	L1
NMTTP	22	240	2	E	0	L1
NMTTP	22	336	3	E	0	L1
NMSTR	23	144	1
NMSUR	23	144	1	96	336	4
NMSTR	25	48	6
NMSUL	25	48	6	96	336	3
NMHLD	27	48	2	144
NMHLD	27	48	3	144
NMHLD	27	336	3	144
NMHLD	27	336	4	144
NMTAP	28	240	4
NMTAP	28	240	5
NMHLD	29	48	4	144
NMHLD	29	48	5	144
NMHLD	29	336	3	144
NMHLD	29	336	4	144
NMTAP	30	240	2
NMTAP	30	240	3
EXTAP	31	48	1
EXTAP	31	48	3
EXTAP	31	144	1
EXTAP	31	144	3
EXTAP	31	240	1
EXTAP	31	240	3
EXTAP	32	144	4
EXTAP	32	144	6
EXTAP	32	240	4
EXTAP	32	240	6
EXTAP	32	336	4
EXTAP	32	336	6
NMTAP	33	240	1
NMTAP	33	240	3
NMTAP	33	336	1
NMTAP	33	336	3
NMTAP	34	48	1
NMTAP	34	48	3
NMTAP	34	336	4
NMTAP	34	336	6
NMTAP	35	48	4
NMTAP	35	48	6
NMTAP	35	144	4
NMTAP	35	144	6
NMHLD	36	48	7	96
NMHLD	36	288	6	96
NMHLD	37	144	5	96
NMHLD	38	0	4	96
NMHLD	38	240	3	96
NMHLD	39	96	2	96
NMHLD	39	336	1	96
BXTAP	40	192	0
NMHLD	41	48	0	144
NMHLD	41	48	1	144
NMHLD	41	336	0	144
NMHLD	41	336	7	144
NMTAP	42	240	6
NMTAP	42	240	7
NMHLD	43	48	6	144
NMHLD	43	48	7	144
NMHLD	43	336	0	144
NMHLD	43	336	7	144
NMTAP	44	240	0
NMTAP	44	240	1
NMSTR	45	48	1
NMSXR	45	48	1	96	480	4
NMSTR	47	336	6
NMSXL	47	336	6	96	480	3
NMHLD	50	240	2	144
NMHLD	50	240	4	144
NMHLD	51	240	3	144
NMHLD	51	240	5	144
NMTAP	52	240	6
NMTAP	52	336	6
NMTAP	53	48	7
NMTAP	53	144	7
NMTAP	53	240	0
NMTAP	53	336	0
BRTAP	54	48	1
NMTAP	54	240	2
NMTAP	54	336	2
NMTAP	55	48	0
NMTAP	55	48	1
NMTAP	55	144	0
NMTAP	55	144	1
NMTAP	55	240	7
NMTAP	55	336	7
NMTAP	56	48	6
NMTAP	56	48	7
NMTAP	56	144	6
NMTAP	56	144	7
NMTAP	56	240	5
NMTAP	56	336	5
NMTAP	57	48	6
NMTAP	57	48	7
NMTAP	57	144	6
NMTAP	57	144	7
NMTAP	57	240	0
NMTAP	57	336	0
NMTAP	58	48	0
NMTAP	58	48	1
NMTAP	58	240	1
NMTAP	58	336	1
NMTAP	59	48	2
NMTAP	59	48	3
NMTAP	59	144	2
NMTAP	59	144	3
NMTAP	59	240	4
NMTAP	59	336	4
NMTAP	60	48	4
NMTAP	60	48	5
NMTAP	60	144	4
NMTAP	60	144	5
NMTAP	60	240	6
NMTAP	60	336	6
NMTAP	61	48	4
NMTAP	61	48	5
NMTAP	61	144	4
NMTAP	61	144	5
NMTAP	61	240	3
NMTAP	61	336	3
NMTAP	62	48	2
NMTAP	62	48	3
NMTAP	62	240	2
NMTAP	62	336	2
NMTAP	63	48	1
NMTAP	63	144	1
NMHLD	63	240	0	432
NMHLD	63	240	7	432
NMSTR	65	336	1
NMSI_	65	336	1	96	192	4
NMSTR	67	0	6
NMSI_	67	0	6	96	192	3
NMSTR	68	48	1
NMSI_	68	48	1	96	192	5
NMSTR	69	96	6
NMSI_	69	96	6	96	192	2
NMSTR	70	144	0
NMSI_	70	144	0	96	192	4
NMSTR	71	192	6
NMSUL	71	192	6	96	480	3
NMTAP	73	288	3
NMTAP	74	0	3
NMTAP	74	96	3
NMTAP	74	192	2
NMTAP	74	288	2
NMTAP	75	0	2
NMTAP	75	96	1
NMTAP	75	192	1
NMTAP	75	288	1
NMTAP	76	0	0
NMTAP	76	96	0
NMTAP	76	192	0
NMTAP	76	288	7
NMTAP	77	0	7
NMTAP	77	96	7
NMTAP	77	192	6
NMTAP	77	288	6
NMTAP	78	0	6
NMTAP	78	96	5
NMTAP	78	192	5
NMTAP	78	288	3
NMTAP	78	288	4
EXTAP	79	96	1
EXTAP	79	96	3
EXTAP	79	192	1
EXTAP	79	192	3
EXTAP	80	0	4
EXTAP	80	0	6
EXTAP	80	96	4
EXTAP	80	96	6
EXTAP	80	288	1
EXTAP	80	288	3
EXTAP	81	0	1
EXTAP	81	0	3
NMTAP	81	192	4
NMTAP	81	192	6
NMTAP	81	288	4
NMTAP	81	288	6
NMTAP	82	0	4
NMTAP	82	0	6
BRTAP	82	192	5
NMTAP	82	240	5
NMTAP	82	288	5
NMTAP	83	0	6
NMTAP	83	0	7
NMTAP	83	96	6
NMTAP	83	96	7
NMTAP	83	192	0
NMTAP	83	240	0
NMTAP	83	288	0
NMTAP	84	0	0
NMTAP	84	0	1
NMTAP	84	96	0
NMTAP	84	96	1
NMTAP	84	192	2
NMTAP	84	240	2
NMTAP	84	288	2
NMTAP	85	0	0
NMTAP	85	0	1
NMTAP	85	96	0
NMTAP	85	96	1
NMTAP	85	192	7
NMTAP	85	240	7
NMTAP	85	288	7
NMTAP	86	0	6
NMTAP	86	0	7
NMTAP	86	192	6
NMTAP	86	240	6
NMTAP	86	288	6
NMTAP	87	0	4
NMTAP	87	0	5
NMTAP	87	96	4
NMTAP	87	96	5
NMTAP	87	192	3
NMTAP	87	192	4
NMTAP	87	288	3
NMTAP	87	288	4
NMTAP	88	0	2
NMTAP	88	0	3
NMTAP	88	96	2
NMTAP	88	96	3
NMTAP	88	192	1
NMTAP	88	240	1
NMTAP	88	288	1
NMTAP	89	0	2
NMTAP	89	0	3
NMTAP	89	96	2
NMTAP	89	96	3
NMTAP	89	192	4
NMTAP	89	240	4
NMTAP	89	288	4
NMTAP	90	0	4
NMTAP	90	0	5
NMTAP	90	192	6
NMTAP	90	240	6
NMTAP	90	288	6
NMTAP	91	0	7
NMTAP	91	48	7
NMTAP	91	96	7
NMTAP	91	192	0
NMTAP	91	240	0
NMTAP	91	288	0
NMTAP	92	0	1
NMTAP	92	48	1
NMTAP	92	96	1
NMTAP	92	192	0
NMTAP	92	192	7
NMTAP	92	288	0
NMTAP	92	288	7
BRTAP	93	0	0
BRTAP	93	0	7
EXTAP	93	192	0
EXTAP	93	192	1
EXTAP	94	0	6
EXTAP	94	0	7
BXTAP	94	192	0
BXTAP	94	192	7
BXTAP	94	288	0
BXTAP	94	288	7
EXSTR	95	0	0
NMSXL	95	0	0	96	528	3
EXSTR	95	0	7
NMSXR	95	0	7	96	528	4

T_REC_TAP	222
T_REC_BRK	4
T_REC_XTP	28
T_REC_BXX	5
T_REC_HLD	31
T_REC_XHO	0
T_REC_BHO	0
T_REC_BXH	0
T_REC_STR	12
T_REC_BST	0
T_REC_XST	2
T_REC_XBS	0
T_REC_TTP	13
T_REC_THO	0
T_REC_SLD	14
T_REC_BSL	0
T_REC_ALL	331
T_NUM_TAP	277
T_NUM_BRK	9
T_NUM_HLD	31
T_NUM_SLD	14
T_NUM_ALL	331
T_JUDGE_TAP	286
T_JUDGE_HLD	100
T_JUDGE_SLD	14
T_JUDGE_ALL	400
TTM_EACHPAIRS	88
TTM_SCR_TAP	138500
TTM_SCR_BRK	23400
TTM_SCR_HLD	31000
TTM_SCR_SLD	21000
TTM_SCR_ALL	213900
TTM_SCR_S	206650
TTM_SCR_SS	213000
TTM_RAT_ACV	10042

