VERSION	0.00.00	1.04.00
FES_MODE	0
BPM_DEF	164.000	164.000	164.000	 89.000
MET_DEF	4	4
RESOLUTION	384
CLK_DEF	384
COMPATIBLE_CODE	MA2

BPM	0	0	164.000
BPM	93	192	152.000
BPM	94	0	142.000
BPM	94	192	129.000
BPM	94	288	 98.000
BPM	95	0	 89.000
MET	0	0	4	4
MET	3	0	4	3
MET	4	192	8	7
MET	6	96	4	3
MET	7	288	8	7
MET	9	192	8	9
MET	10	240	4	3
MET	15	48	4	4
MET	16	48	4	3
MET	18	144	4	4
MET	23	144	4	7
MET	25	48	4	4
MET	27	48	4	3
MET	28	240	4	2
MET	29	48	4	3
MET	30	240	4	2
MET	31	48	8	5
MET	41	48	4	3
MET	42	240	4	2
MET	43	48	4	3
MET	44	240	4	2
MET	45	48	8	5
MET	45	288	8	7
MET	46	240	4	5
MET	47	336	8	5
MET	48	192	8	7
MET	49	144	4	5
MET	50	240	4	4
MET	63	240	8	9
MET	73	288	4	3
MET	78	96	4	4
MET	79	96	4	3
MET	81	192	4	4

EXHLD	1	0	0	480
NMTAP	3	0	7
NMTAP	3	96	7
NMTAP	3	192	7
NMSTR	4	192	6
NMSI_	4	192	6	96	240	2
NMTAP	6	96	0
NMTAP	6	192	0
NMTAP	6	288	0
NMSTR	7	288	1
NMSI_	7	288	1	96	240	5
NMHLD	9	192	7	192
NMTAP	10	240	6
NMTAP	10	336	6
NMTAP	11	144	5
NMTAP	11	240	5
NMTAP	12	48	4
NMTAP	12	144	4
NMTAP	12	336	3
NMTAP	13	48	3
NMTAP	13	240	2
NMTAP	13	336	2
NMTAP	14	144	1
NMTAP	14	240	1
NMTAP	15	48	0
NMTAP	15	48	7
NMTAP	15	240	0
NMTAP	15	240	7
NMTAP	16	48	0
NMTAP	16	48	1
NMTAP	16	336	2
NMTAP	16	336	3
NMTAP	17	240	4
NMTAP	17	240	5
NMTAP	18	144	6
NMTAP	18	240	6
NMTAP	18	336	6
NMTAP	19	144	5
NMTAP	19	240	5
NMTAP	19	336	5
NMTAP	20	144	4
NMTAP	20	240	4
NMTAP	20	336	4
NMTAP	21	144	3
NMTAP	21	240	3
NMTAP	21	336	3
NMTAP	22	144	2
NMTAP	22	240	2
NMTAP	22	336	2
NMSTR	23	144	1
NMSI_	23	144	1	96	336	5
NMSTR	25	48	6
NMSI_	25	48	6	96	336	2
EXTAP	27	48	0
EXTAP	27	192	0
EXTAP	27	336	1
EXTAP	28	96	1
EXTAP	28	240	2
EXTAP	28	240	3
NMTAP	29	48	4
NMTAP	29	192	4
NMTAP	29	336	5
NMTAP	30	96	5
NMTAP	30	240	6
NMTAP	30	240	7
NMTAP	31	48	0
NMTAP	31	144	0
NMTAP	31	240	0
NMTAP	32	144	1
NMTAP	32	240	1
NMTAP	32	336	1
NMTAP	33	240	2
NMTAP	33	336	2
NMTAP	34	48	2
NMTAP	34	336	3
NMTAP	35	48	3
NMTAP	35	144	3
NMTAP	36	48	4
NMTAP	36	144	4
NMTAP	36	240	4
NMTAP	37	144	5
NMTAP	37	240	5
NMTAP	37	336	5
NMTAP	38	240	6
NMTAP	38	336	6
NMTAP	39	48	6
NMTAP	39	336	7
NMTAP	40	48	7
NMTAP	40	144	7
EXSTR	41	48	6
NMSI_	41	48	6	96	336	2
EXSTR	43	48	1
NMSI_	43	48	1	96	336	5
NMHLD	45	48	6	576
NMHLD	45	48	7	576
NMHLD	47	336	0	576
NMHLD	47	336	1	576
EXTAP	50	240	2
EXTAP	50	240	3
EXTAP	50	336	2
EXTAP	50	336	3
EXTAP	51	240	4
EXTAP	51	240	5
EXTAP	51	336	4
EXTAP	51	336	5
NMTAP	52	240	6
NMTAP	52	336	6
NMTAP	53	48	7
NMTAP	53	144	7
NMTAP	53	240	0
NMTAP	53	240	7
NMTAP	53	336	0
NMTAP	53	336	7
NMTAP	54	48	0
NMTAP	54	48	7
BRTAP	54	240	7
NMTAP	54	336	7
NMTAP	55	48	7
NMTAP	55	144	7
NMTAP	55	240	6
NMTAP	55	336	6
NMTAP	56	48	6
NMTAP	56	48	7
NMTAP	56	240	5
NMTAP	56	336	5
NMTAP	57	48	5
NMTAP	57	144	5
NMTAP	57	240	4
NMTAP	57	336	4
EXTAP	58	48	3
EXTAP	58	48	4
NMTAP	58	240	3
NMTAP	58	336	3
NMTAP	59	48	3
NMTAP	59	144	3
NMTAP	59	240	2
NMTAP	59	336	2
NMTAP	60	48	2
NMTAP	60	48	3
NMTAP	60	240	1
NMTAP	60	336	1
NMTAP	61	48	1
NMTAP	61	144	1
NMTAP	61	240	0
NMTAP	61	240	7
NMTAP	61	336	0
NMTAP	61	336	7
NMTAP	62	48	0
NMTAP	62	48	7
NMTAP	62	240	7
NMTAP	62	336	7
NMTAP	63	48	0
NMTAP	63	144	0
BRTAP	63	240	7
NMSTR	64	288	7
NMSI_	64	288	7	96	336	3
NMSTR	67	0	2
NMSI_	67	0	2	96	336	5
NMSTR	69	96	6
NMSI_	69	96	6	96	336	3
NMSTR	71	192	1
NMSI_	71	192	1	96	336	4
NMTAP	73	288	4
NMTAP	74	0	4
NMTAP	74	192	5
NMTAP	74	288	5
NMTAP	75	96	6
NMTAP	75	192	6
NMTAP	76	0	7
NMTAP	76	96	7
NMTAP	76	288	0
NMTAP	77	0	0
NMTAP	77	192	1
NMTAP	77	288	1
NMTAP	78	96	2
NMTAP	78	96	3
NMTAP	78	192	2
NMTAP	78	192	3
NMTAP	78	288	2
NMTAP	78	288	3
NMSTR	79	96	4
NMSI_	79	96	4	96	288	7
NMTAP	80	288	0
NMTAP	81	0	0
NMTAP	81	96	0
NMTAP	81	192	0
NMTAP	81	192	7
NMTAP	81	288	0
NMTAP	81	288	7
NMTAP	82	0	0
NMTAP	82	0	7
BRTAP	82	192	0
NMTAP	82	288	0
NMTAP	83	0	1
NMTAP	83	96	1
NMTAP	83	192	2
NMTAP	83	288	2
NMTAP	84	0	2
NMTAP	84	0	3
NMTAP	84	192	4
NMTAP	84	288	4
NMTAP	85	0	5
NMTAP	85	96	5
NMTAP	85	192	6
NMTAP	85	288	6
NMTAP	86	0	6
NMTAP	86	0	7
NMTAP	86	192	7
NMTAP	86	288	7
NMTAP	87	0	6
NMTAP	87	96	6
NMTAP	87	192	5
NMTAP	87	288	5
NMTAP	88	0	3
NMTAP	88	0	4
NMTAP	88	96	3
NMTAP	88	96	4
NMTAP	88	192	3
NMTAP	88	288	3
NMTAP	89	0	2
NMTAP	89	96	2
NMTAP	89	192	1
NMTAP	89	288	1
NMTAP	90	0	0
NMTAP	90	96	0
BRTAP	90	192	0
BRTAP	90	192	7
NMTTP	91	192	0	B	0	L1
NMTTP	91	192	7	B	0	L1
NMTTP	92	0	1	B	0	L1
NMTTP	92	0	6	B	0	L1
NMTTP	92	192	2	B	0	L1
NMTTP	92	192	5	B	0	L1
NMTTP	93	0	3	B	0	L1
NMTTP	93	0	4	B	0	L1
NMTTP	93	192	0	C	1	L1
EXTAP	94	192	0
EXTAP	94	192	7
EXHLD	95	0	0	624
EXHLD	95	0	7	624

T_REC_TAP	178
T_REC_BRK	5
T_REC_XTP	18
T_REC_BXX	0
T_REC_HLD	5
T_REC_XHO	3
T_REC_BHO	0
T_REC_BXH	0
T_REC_STR	9
T_REC_BST	0
T_REC_XST	2
T_REC_XBS	0
T_REC_TTP	9
T_REC_THO	0
T_REC_SLD	11
T_REC_BSL	0
T_REC_ALL	240
T_NUM_TAP	216
T_NUM_BRK	5
T_NUM_HLD	8
T_NUM_SLD	11
T_NUM_ALL	240
T_JUDGE_TAP	221
T_JUDGE_HLD	114
T_JUDGE_SLD	11
T_JUDGE_ALL	346
TTM_EACHPAIRS	35
TTM_SCR_TAP	108000
TTM_SCR_BRK	13000
TTM_SCR_HLD	8000
TTM_SCR_SLD	16500
TTM_SCR_ALL	145500
TTM_SCR_S	140650
TTM_SCR_SS	145000
TTM_RAT_ACV	10034

