VERSION	0.00.00	1.04.00
FES_MODE	0
BPM_DEF	163.000	163.000	163.000	163.000
MET_DEF	4	4
RESOLUTION	384
CLK_DEF	384
COMPATIBLE_CODE	MA2

BPM	0	0	163.000
MET	0	0	4	4

NMTAP	2	0	3
NMTAP	2	0	4
NMTAP	2	96	2
NMTAP	2	96	4
NMTAP	2	144	2
NMTAP	2	192	2
NMTAP	2	192	4
NMTAP	2	288	1
NMTAP	2	288	4
NMTAP	2	336	1
NMTAP	3	0	1
NMTAP	3	0	4
NMTAP	3	96	2
NMTAP	3	96	4
NMTAP	3	144	2
NMTAP	3	192	2
NMTAP	3	192	4
NMTAP	3	288	3
NMTAP	3	288	4
NMTAP	3	336	3
EXTAP	4	0	3
NMTAP	4	0	4
NMTAP	4	96	3
NMTAP	4	96	5
NMTAP	4	144	5
NMTAP	4	192	3
NMTAP	4	192	5
NMTAP	4	288	3
NMTAP	4	288	6
NMTAP	4	336	6
NMTAP	5	0	3
NMTAP	5	0	6
NMTAP	5	96	3
NMTAP	5	96	5
NMTAP	5	144	5
NMTAP	5	192	3
NMTAP	5	192	5
NMTAP	5	288	3
NMTAP	5	288	4
NMTAP	5	336	4
NMTAP	6	0	3
EXTAP	6	0	4
NMTAP	6	96	2
NMTAP	6	96	3
NMTAP	6	144	2
NMTAP	6	192	2
NMTAP	6	192	3
NMTAP	6	288	3
NMTAP	6	288	4
NMTAP	6	336	4
NMTAP	7	0	3
NMTAP	7	0	4
NMTAP	7	96	1
NMTAP	7	96	3
NMTAP	7	144	1
NMTAP	7	192	1
NMTAP	7	192	3
NMTAP	7	288	3
NMTAP	7	288	4
NMTAP	7	336	4
EXTAP	8	0	3
NMTAP	8	0	4
NMTAP	8	96	2
NMTAP	8	96	3
NMTAP	8	144	2
NMTAP	8	192	2
NMTAP	8	192	3
NMSTR	8	288	3
NMSSR	8	288	3	96	216	7
NMTAP	8	288	4
NMTAP	8	336	3
NMSTR	8	336	4
NMSSL	8	336	4	96	168	0
NMTAP	9	0	3
NMTAP	9	0	4
EXTAP	9	288	0
EXTAP	9	288	7
BRTAP	10	0	2
BRTAP	10	0	5
NMHLD	10	96	3	480
NMSTR	10	96	6
NMSI_	10	96	6	96	48	4
NMSTR	10	288	2
NMSI_	10	288	2	96	48	4
NMSTR	11	96	6
NMSI_	11	96	6	96	48	4
NMTAP	11	288	3
NMTAP	11	336	3
EXTAP	12	0	2
EXTAP	12	0	3
NMSTR	12	96	1
NMSI_	12	96	1	96	48	3
NMHLD	12	96	4	480
NMSTR	12	288	5
NMSI_	12	288	5	96	48	3
NMSTR	13	96	1
NMSI_	13	96	1	96	48	3
NMTAP	13	288	4
NMTAP	13	336	4
NMTAP	14	0	3
NMTAP	14	0	5
NMHLD	14	96	2	480
NMSTR	14	96	6
NMSI_	14	96	6	96	48	4
NMSTR	14	288	1
NMSI_	14	288	1	96	48	3
NMSTR	15	96	6
NMSI_	15	96	6	96	48	4
NMTAP	15	288	3
NMTAP	15	336	3
NMTAP	16	0	2
NMTAP	16	0	4
NMTAP	16	96	1
NMTAP	16	144	1
NMTAP	16	192	2
NMHLD	16	192	4	96
NMSTR	16	288	3
NMSSL	16	288	3	96	192	7
NMSSR	16	288	3	96	192	7
NMTAP	16	336	3
BRTAP	17	288	0
BRTAP	17	288	6
NMTAP	18	0	1
NMTAP	18	0	5
NMTAP	18	72	2
NMTAP	18	96	3
NMTAP	18	144	2
NMTAP	18	144	4
NMTAP	18	192	2
NMTAP	18	192	4
NMTAP	18	264	2
NMTAP	18	288	3
NMTAP	18	336	2
NMTAP	18	336	4
NMTAP	19	0	2
NMTAP	19	0	4
NMTAP	19	72	1
NMTAP	19	96	3
NMTAP	19	144	2
NMTAP	19	144	4
NMTAP	19	192	5
NMTAP	19	216	4
NMTAP	19	264	4
NMTAP	19	288	7
NMTAP	19	336	6
EXTAP	20	0	3
EXTAP	20	0	5
NMTAP	20	72	5
NMTAP	20	96	4
NMTAP	20	144	3
NMTAP	20	144	5
NMTAP	20	192	3
NMTAP	20	192	5
NMTAP	20	264	5
NMTAP	20	288	4
NMTAP	20	336	3
NMTAP	20	336	5
NMTAP	21	0	3
NMTAP	21	0	5
NMTAP	21	72	6
NMTAP	21	96	4
NMTAP	21	144	3
NMTAP	21	144	5
NMTAP	21	192	2
NMTAP	21	216	3
NMTAP	21	264	3
NMTAP	21	288	0
NMTAP	21	336	1
NMHLD	22	0	2	72
NMHLD	22	0	4	48
NMHLD	22	96	3	48
NMHLD	22	96	5	48
NMHLD	22	192	1	48
NMHLD	22	192	4	72
NMHLD	22	288	3	48
NMHLD	22	288	6	48
NMHLD	23	0	1	72
NMHLD	23	0	3	48
NMHLD	23	96	4	48
NMHLD	23	96	6	48
NMHLD	23	192	0	48
NMHLD	23	192	1	72
NMHLD	23	288	6	48
NMHLD	23	288	7	48
NMTAP	24	0	0
NMTAP	24	48	0
NMTAP	24	96	1
NMTAP	24	96	7
NMTAP	24	144	1
NMTAP	24	144	7
NMTAP	24	192	2
NMTAP	24	216	6
NMTAP	24	240	2
NMTAP	24	264	6
NMTAP	24	288	3
NMTAP	24	312	5
NMTAP	24	336	3
NMTAP	24	360	5
NMHLD	25	0	4	24
NMHLD	25	48	4	24
NMHLD	25	96	4	24
NMHLD	25	144	4	24
NMTAP	25	192	3
NMSTR	25	192	5
BRSI_	25	192	5	96	48	0
NMTAP	25	288	0
NMTAP	25	288	5
BRTAP	26	0	2
BRHLD	26	0	6	96
EXTAP	26	96	4
NMTAP	26	120	6
NMTAP	26	144	4
NMTAP	26	168	6
EXTAP	26	192	2
NMTAP	26	216	6
NMTAP	26	240	2
NMTAP	26	264	6
EXTAP	26	288	0
NMTAP	26	312	6
NMTAP	26	336	0
NMTAP	26	360	6
EXTAP	27	0	2
NMTAP	27	24	6
NMTAP	27	48	2
NMTAP	27	72	6
EXTAP	27	96	4
NMTAP	27	120	6
NMTAP	27	144	4
NMTAP	27	168	6
EXTAP	27	192	5
NMTAP	27	216	6
NMTAP	27	240	5
NMTAP	27	264	6
EXTAP	27	288	7
NMTAP	27	312	6
NMTAP	27	336	7
NMTAP	27	360	6
NMSTR	28	0	1
NMSCR	28	0	1	96	48	4
NMTAP	28	24	0
NMTAP	28	72	0
NMTAP	28	96	1
NMTAP	28	144	7
NMHLD	28	192	6	48
NMHLD	28	240	4	48
NMTAP	28	288	5
NMTAP	28	336	5
NMSTR	29	0	6
NMSCL	29	0	6	96	48	3
NMTAP	29	24	7
NMTAP	29	72	7
NMTAP	29	96	6
NMTAP	29	144	0
NMTAP	29	192	1
NMTAP	29	216	3
NMTAP	29	240	1
NMTAP	29	264	3
NMTAP	29	288	2
NMTAP	29	336	2
NMTAP	29	336	4
BRHLD	30	0	1	96
BRTAP	30	0	5
NMTAP	30	96	3
NMTAP	30	120	1
NMTAP	30	144	3
NMTAP	30	168	1
NMTAP	30	192	5
NMTAP	30	216	1
NMTAP	30	240	5
NMTAP	30	264	1
NMTAP	30	288	7
NMTAP	30	312	1
NMTAP	30	336	7
NMTAP	30	360	1
NMTAP	31	0	5
NMTAP	31	24	1
NMTAP	31	48	5
NMTAP	31	72	1
NMTAP	31	96	3
NMTAP	31	120	1
NMTAP	31	144	3
NMTAP	31	168	1
NMTAP	31	192	2
NMTAP	31	216	1
NMTAP	31	240	2
NMTAP	31	264	1
NMTAP	31	288	0
NMTAP	31	312	1
NMTAP	31	336	0
NMTAP	31	360	1
NMSTR	32	0	6
NMSCL	32	0	6	96	48	3
NMTAP	32	24	7
NMTAP	32	72	7
NMTAP	32	96	6
NMTAP	32	144	0
NMHLD	32	192	1	48
NMHLD	32	240	3	48
NMTAP	32	288	2
NMTAP	32	336	2
NMTAP	33	0	3
NMTAP	33	0	5
NMTAP	33	48	3
NMTAP	33	48	5
NMSTR	33	96	2
NMSV_	33	96	2	96	48	0
NMSTR	33	96	6
NMSV_	33	96	6	96	48	0
NMSTR	33	192	2
NMSCR	33	192	2	96	48	4
NMSTR	33	192	6
NMSCL	33	192	6	96	48	4
NMTAP	33	288	2
NMTAP	33	288	6
BRHLD	34	0	1	96
BRTAP	34	0	7
NMTAP	34	96	3
NMTAP	34	120	1
NMTAP	34	144	3
NMTAP	34	168	2
NMTAP	34	192	3
EXTAP	34	240	3
EXTAP	34	240	4
NMTAP	34	288	5
NMTAP	34	312	4
NMTAP	34	336	6
NMTAP	34	360	4
NMTAP	35	0	6
EXTAP	35	48	3
EXTAP	35	48	7
NMTAP	35	96	6
NMTAP	35	120	4
NMTAP	35	144	6
NMTAP	35	168	4
NMTAP	35	192	5
NMTAP	35	216	3
NMTAP	35	240	5
NMTAP	35	264	3
NMTAP	35	288	4
NMTAP	35	312	3
NMTAP	35	336	5
NMTAP	35	360	4
NMSTR	36	0	6
NMSCL	36	0	6	96	48	3
NMTAP	36	24	7
NMTAP	36	72	7
NMTAP	36	96	6
NMTAP	36	144	0
NMHLD	36	192	1	48
NMHLD	36	240	3	48
NMTAP	36	288	2
NMTAP	36	336	3
NMTAP	36	336	4
NMSTR	37	0	5
NMSCR	37	0	5	96	48	0
NMTAP	37	24	4
NMTAP	37	72	4
NMTAP	37	96	5
NMTAP	37	144	2
EXSTR	37	192	0
NMSI_	37	192	0	96	48	4
NMTAP	37	192	1
NMTAP	37	240	2
NMTAP	37	240	7
NMTAP	37	288	0
NMTAP	37	288	1
BRHLD	38	0	1	96
BRTAP	38	0	7
NMTAP	38	96	3
NMTAP	38	120	1
NMTAP	38	144	3
NMTAP	38	168	2
NMTAP	38	192	3
EXTAP	38	240	3
EXTAP	38	240	4
NMTAP	38	288	5
NMTAP	38	312	4
NMTAP	38	336	6
NMTAP	38	360	4
NMTAP	39	0	6
EXTAP	39	48	3
EXTAP	39	48	7
NMTAP	39	96	6
NMTAP	39	120	4
NMTAP	39	144	6
NMTAP	39	168	4
NMTAP	39	192	5
NMTAP	39	216	3
NMTAP	39	240	5
NMTAP	39	264	3
NMTAP	39	288	4
EXTAP	39	336	4
EXTAP	39	336	5
NMSTR	40	0	6
NMSCL	40	0	6	96	48	3
NMTAP	40	24	7
NMTAP	40	72	7
NMTAP	40	96	6
NMTAP	40	144	2
NMHLD	40	192	1	72
EXTAP	40	192	3
NMTAP	40	264	0
EXTAP	40	336	0
NMTAP	40	336	7
NMSTR	41	0	0
NMSI_	41	0	0	96	48	2
EXSTR	41	0	7
NMSI_	41	0	7	96	48	5
NMSTR	41	96	0
NMSI_	41	96	0	96	48	4
NMSTR	41	96	7
NMSI_	41	96	7	96	48	3
NMSTR	41	192	0
NMSCR	41	192	0	96	48	3
NMSTR	41	192	7
NMSCL	41	192	7	96	48	4
NMTAP	41	288	0
NMTAP	41	288	7
BRTAP	42	0	1
BRSTR	42	0	6
NMSI_	42	0	6	96	48	3
NMHLD	42	96	0	24
NMHLD	42	144	0	24
NMTAP	42	192	0
NMSTR	42	192	1
NMSI_	42	192	1	96	48	4
NMHLD	42	288	7	24
NMHLD	42	336	7	24
NMSTR	43	0	6
NMSCL	43	0	6	96	48	3
NMTAP	43	0	7
NMHLD	43	96	0	24
NMHLD	43	144	0	24
NMHLD	43	192	1	24
NMHLD	43	240	1	24
NMHLD	43	288	2	24
NMHLD	43	336	2	24
NMSTR	44	0	2
NMSI_	44	0	2	96	48	7
NMTAP	44	0	3
NMTAP	44	96	4
NMTAP	44	144	4
NMTAP	44	192	4
NMSTR	44	192	5
NMSI_	44	192	5	96	48	0
NMTAP	44	288	3
NMTAP	44	336	3
NMTAP	45	0	2
NMTAP	45	0	6
NMTAP	45	48	2
NMTAP	45	48	6
NMTAP	45	96	1
NMTAP	45	96	5
NMTAP	45	144	1
NMTAP	45	144	5
EXSTR	45	192	0
NMSI_	45	192	0	96	48	3
EXSTR	45	192	4
NMSI_	45	192	4	96	48	7
EXTAP	45	224	0
EXTAP	45	224	4
EXTAP	45	256	0
EXTAP	45	256	4
BRTAP	46	0	2
BRHLD	46	0	6	96
NMTAP	46	96	4
NMTAP	46	120	6
NMTAP	46	144	4
NMTAP	46	168	6
NMTAP	46	192	5
NMTAP	46	216	6
NMTAP	46	240	5
NMTAP	46	264	6
NMTAP	46	288	7
NMTAP	46	312	6
NMTAP	46	336	7
NMTAP	46	360	6
NMTAP	47	0	7
NMTAP	47	24	6
NMTAP	47	48	7
NMTAP	47	72	6
NMTAP	47	96	5
NMTAP	47	120	6
NMTAP	47	144	5
NMTAP	47	168	6
NMTAP	47	192	0
NMTAP	47	216	6
NMTAP	47	240	0
NMTAP	47	264	6
NMTAP	47	288	4
NMTAP	47	312	6
NMTAP	47	336	4
NMTAP	47	360	6
NMTAP	48	0	5
NMTAP	48	48	4
NMTAP	48	48	6
NMTAP	48	96	3
NMTAP	48	144	2
NMTAP	48	144	4
NMTAP	48	192	1
NMTAP	48	216	0
NMTAP	48	240	2
NMTAP	48	264	7
NMTAP	48	288	3
NMTAP	48	312	6
NMTAP	48	336	4
NMTAP	48	360	5
NMSTR	49	0	3
NMSI_	49	0	3	96	48	7
NMTAP	49	48	2
NMSTR	49	96	1
NMSI_	49	96	1	96	48	5
NMTAP	49	192	1
EXSTR	49	192	7
NMSI_	49	192	7	96	48	3
NMSTR	49	288	7
NMSF_	49	288	7	96	48	3
BRSTR	50	0	7
NMSCL	50	0	7	96	672	0
NMTTP	50	12	0	C	1	M1
NMTTP	52	0	0	E	0	M1
NMTTP	52	96	0	C	0	M1
NMTTP	52	192	4	E	0	M1
NMTTP	52	288	0	C	0	M1
NMTTP	53	0	0	E	0	M1
NMTTP	53	0	1	E	0	M1
NMTTP	53	96	0	C	0	M1
NMTTP	53	96	2	E	0	M1
NMTTP	53	192	3	E	0	M1
NMTTP	53	192	4	E	0	M1
NMTTP	53	192	5	E	0	M1
EXTAP	53	288	7
NMSTR	54	0	6
NMSLL	54	0	6	96	192	2
EXTAP	54	192	0
NMTAP	54	288	1
NMSTR	55	0	2
NMSLL	55	0	2	96	192	6
EXTAP	55	192	4
NMTAP	55	288	5
NMSTR	56	0	6
NMSLL	56	0	6	96	192	1
EXTAP	56	192	7
NMTAP	56	288	0
NMSTR	57	0	1
NMSI_	57	0	1	96	96	5
EXTAP	57	192	7
NMHLD	57	288	3	24
NMHLD	57	288	4	24
NMHLD	58	0	2	72
NMHLD	58	72	4	72
NMTAP	58	144	3
NMHLD	58	192	5	72
NMHLD	58	264	3	72
NMTAP	58	336	4
NMHLD	59	0	1	72
NMHLD	59	72	3	72
NMTAP	59	144	2
NMHLD	59	192	6	72
NMHLD	59	264	4	72
NMTAP	59	336	5
NMHLD	60	0	1	72
NMHLD	60	72	2	72
NMTAP	60	144	3
NMHLD	60	192	6	72
NMHLD	60	264	5	72
NMTAP	60	336	4
NMHLD	61	0	0	72
NMHLD	61	72	2	72
NMTAP	61	144	3
NMHLD	61	192	7	72
NMHLD	61	264	5	72
NMTAP	61	336	4
NMTAP	62	0	3
NMTAP	62	24	4
NMTAP	62	48	3
NMTAP	62	72	4
NMTAP	62	96	3
NMTAP	62	120	4
NMTAP	62	144	3
NMTAP	62	168	4
NMTAP	62	192	2
NMTAP	62	216	5
NMTAP	62	240	2
NMTAP	62	264	5
NMTAP	62	288	2
NMTAP	62	312	5
NMTAP	62	336	2
NMTAP	62	360	5
NMTAP	63	0	3
NMTAP	63	24	5
NMTAP	63	48	3
NMTAP	63	72	5
NMTAP	63	96	3
NMTAP	63	120	5
NMTAP	63	144	3
NMTAP	63	168	5
NMTAP	63	192	2
NMTAP	63	216	4
NMTAP	63	240	2
NMTAP	63	264	4
NMTAP	63	288	2
NMTAP	63	312	4
NMTAP	63	336	2
NMTAP	63	360	4
NMTAP	64	0	2
NMTAP	64	24	3
NMTAP	64	48	2
NMTAP	64	72	3
NMTAP	64	96	1
NMTAP	64	120	4
NMTAP	64	144	1
NMTAP	64	168	4
NMTAP	64	192	0
NMTAP	64	216	5
NMTAP	64	240	0
NMTAP	64	264	5
NMTAP	64	288	0
NMTAP	64	300	1
NMTAP	64	312	2
NMTAP	64	324	3
NMTAP	64	336	4
NMTAP	64	348	5
NMTAP	64	360	6
NMTAP	64	372	7
NMHLD	65	0	0	192
NMSTR	65	192	7
NMSF_	65	192	7	96	48	3
NMTAP	65	240	0
NMTAP	65	240	6
NMTAP	65	288	7
BRSTR	66	0	1
NMSI_	66	0	1	96	48	4
BRTAP	66	0	5
NMTAP	66	48	0
NMTAP	66	72	7
NMTAP	66	96	1
NMTAP	66	144	5
NMTAP	66	168	5
EXTAP	66	192	4
NMTAP	66	216	6
NMTAP	66	240	1
NMTAP	66	264	7
NMTAP	66	288	0
NMTAP	66	336	1
NMTAP	66	336	5
NMTAP	67	0	2
NMSTR	67	0	6
NMSI_	67	0	6	96	48	3
NMTAP	67	48	7
NMTAP	67	72	0
NMTAP	67	96	6
NMTAP	67	144	2
NMTAP	67	168	2
EXTAP	67	192	3
NMTAP	67	216	1
NMTAP	67	240	4
NMTAP	67	264	2
NMSTR	67	288	7
NMSI_	67	288	7	96	48	3
NMTAP	67	336	0
NMTAP	67	336	6
NMSTR	68	0	7
NMSI_	68	0	7	96	48	2
NMTAP	68	48	2
NMTAP	68	72	2
NMSTR	68	96	7
NMSI_	68	96	7	96	48	4
NMTAP	68	144	4
NMTAP	68	168	4
NMSTR	68	192	7
NMSI_	68	192	7	96	48	3
NMTAP	68	240	2
NMTAP	68	264	2
NMTAP	68	288	7
NMTAP	68	336	0
NMTAP	69	0	1
NMTAP	69	24	3
NMTAP	69	48	2
NMTAP	69	72	4
NMTAP	69	96	3
NMTAP	69	120	5
NMTAP	69	144	4
NMTAP	69	168	6
NMTAP	69	192	7
NMTAP	69	216	6
NMTAP	69	240	7
NMTAP	69	264	6
BRTAP	69	288	0
BRTAP	69	288	5
NMTAP	69	336	3
BRTAP	70	0	2
BRSTR	70	0	6
NMSI_	70	0	6	96	48	3
NMTAP	70	48	7
NMTAP	70	72	0
NMTAP	70	96	6
NMTAP	70	144	2
NMTAP	70	168	2
EXTAP	70	192	3
NMTAP	70	216	1
NMTAP	70	240	4
NMTAP	70	264	2
NMTAP	70	288	7
NMTAP	70	336	0
NMTAP	70	336	6
NMSTR	71	0	1
NMSI_	71	0	1	96	48	4
NMTAP	71	0	5
NMTAP	71	48	0
NMTAP	71	72	7
NMTAP	71	96	1
NMTAP	71	144	5
NMTAP	71	168	5
EXTAP	71	192	4
NMTAP	71	216	6
NMTAP	71	240	3
NMTAP	71	264	5
NMSTR	71	288	0
NMSI_	71	288	0	96	48	4
NMTAP	71	336	1
NMTAP	71	336	7
NMSTR	72	0	0
NMSI_	72	0	0	96	48	5
NMTAP	72	48	5
NMTAP	72	72	5
NMSTR	72	96	0
NMSI_	72	96	0	96	48	3
NMTAP	72	144	3
NMTAP	72	168	3
NMSTR	72	192	0
NMSI_	72	192	0	96	48	4
NMTAP	72	240	5
NMTAP	72	264	5
NMSTR	72	288	0
NMSCR	72	288	0	96	96	3
NMTAP	72	336	6
EXTAP	73	0	0
CNSUR	73	96	3	0	96	5
NMTAP	73	192	7
NMTAP	73	240	7
BRTAP	73	288	1
BRTAP	73	288	5
BRTAP	74	0	2
BRTAP	74	0	4
BRTAP	74	48	0
NMTAP	74	72	3
NMTAP	74	96	2
NMTAP	74	120	3
BRTAP	74	144	1
NMTAP	74	168	5
NMTAP	74	192	4
NMTAP	74	216	5
BRTAP	74	240	0
NMTAP	74	264	3
NMTAP	74	288	2
NMTAP	74	312	3
BRTAP	74	336	1
NMTAP	74	360	4
NMTAP	75	0	3
NMTAP	75	24	4
BRTAP	75	48	0
NMTAP	75	72	5
NMTAP	75	96	4
NMTAP	75	120	5
BRTAP	75	144	7
NMTAP	75	168	3
NMTAP	75	192	2
NMTAP	75	216	3
BRTAP	75	240	0
NMTAP	75	264	4
NMTAP	75	288	3
NMTAP	75	312	4
BRTAP	75	336	7
BRTAP	76	0	1
BRTAP	76	0	5
BRTAP	76	48	7
NMTAP	76	72	4
NMTAP	76	96	5
NMTAP	76	120	4
BRTAP	76	144	6
NMTAP	76	168	2
NMTAP	76	192	3
NMTAP	76	216	2
BRTAP	76	240	7
NMTAP	76	264	4
NMTAP	76	288	5
NMTAP	76	312	4
BRTAP	76	336	6
NMTAP	76	360	3
NMTAP	77	0	4
NMTAP	77	24	3
BRTAP	77	48	7
NMTAP	77	72	2
NMTAP	77	96	3
NMTAP	77	120	2
BRTAP	77	144	0
NMTAP	77	168	4
NMTAP	77	192	5
NMTAP	77	216	4
BRTAP	77	240	7
NMSTR	77	288	1
BRSI_	77	288	1	96	48	6
NMSTR	77	288	5
BRSI_	77	288	5	96	48	2
BRTAP	78	0	1
BRTAP	78	0	5
NMTAP	78	96	0
NMTAP	78	96	4
NMTAP	78	144	1
NMTAP	78	168	3
NMTAP	78	192	2
NMTAP	78	216	4
NMTAP	78	240	3
NMTAP	78	264	5
NMSTR	78	288	4
NMSI_	78	288	4	96	48	1
NMSI_	78	288	4	96	48	7
NMTAP	78	336	3
NMTAP	78	336	5
BRTAP	79	0	4
NMTAP	79	96	2
NMTAP	79	96	6
NMTAP	79	144	5
NMTAP	79	168	3
NMTAP	79	192	4
NMTAP	79	216	2
NMTAP	79	240	3
NMTAP	79	264	1
NMTAP	79	288	2
NMTAP	79	336	0
NMTAP	79	336	1
NMSTR	80	0	7
NMSI_	80	0	7	96	48	3
NMSTR	80	48	1
NMSI_	80	48	1	96	48	5
NMTAP	80	96	7
NMTAP	80	144	1
NMHLD	80	192	0	48
NMHLD	80	264	1	48
NMHLD	80	264	7	48
NMTAP	80	336	2
NMTAP	80	336	6
NMTAP	81	0	5
NMTAP	81	24	3
NMTAP	81	48	5
NMTAP	81	72	3
NMTAP	81	96	4
NMTAP	81	120	4
NMTAP	81	144	4
NMTAP	81	168	4
NMSTR	81	192	5
BRSI_	81	192	5	96	48	1
NMTAP	81	216	3
NMTAP	81	240	5
NMTAP	81	264	3
NMTAP	81	288	5
BRTAP	82	0	3
BRTAP	82	0	7
NMSTR	82	96	2
NMSXR	82	96	2	96	144	7
NMTAP	82	144	3
NMTAP	82	192	4
NMTAP	82	216	4
NMTAP	82	264	5
NMTAP	82	288	5
NMTAP	82	336	6
EXTAP	83	0	0
EXTAP	83	0	6
NMTAP	83	48	0
NMTAP	83	48	6
NMSTR	83	96	5
NMSXL	83	96	5	96	144	0
NMTAP	83	144	4
NMTAP	83	192	3
NMTAP	83	216	3
NMTAP	83	264	2
NMTAP	83	288	2
NMTAP	83	336	1
EXTAP	84	0	1
EXTAP	84	0	7
NMTAP	84	48	1
NMTAP	84	48	7
NMSTR	84	96	2
NMSXR	84	96	2	96	144	7
NMTAP	84	144	3
NMTAP	84	192	4
NMTAP	84	216	4
NMTAP	84	264	5
NMTAP	84	288	5
NMTAP	84	336	6
EXTAP	85	0	4
EXTAP	85	0	6
NMTAP	85	48	6
NMTAP	85	72	4
NMTAP	85	96	5
NMTAP	85	120	3
NMTAP	85	144	4
NMTAP	85	168	2
EXHLD	85	192	3	96
EXTAP	85	288	0
BRTAP	86	0	2
BRTAP	86	0	4
NMTAP	86	48	5
NMTAP	86	72	4
NMSTR	86	96	6
NMSI_	86	96	6	96	48	3
NMTAP	86	144	6
NMTAP	86	192	0
NMTAP	86	216	0
CNSCR	86	240	3	0	24	4
NMTAP	86	264	1
CNSI_	86	264	4	0	72	0
NMTAP	86	288	1
NMTAP	86	336	2
EXTAP	87	0	0
EXTAP	87	0	1
NMTAP	87	48	2
NMTAP	87	72	3
NMSTR	87	96	1
NMSI_	87	96	1	96	48	4
NMTAP	87	144	1
NMTAP	87	192	7
NMTAP	87	216	7
NMTAP	87	264	5
NMTAP	87	288	5
BRTAP	87	336	1
BRTAP	87	336	7
NMTAP	88	0	2
NMTAP	88	0	6
NMTAP	88	48	5
NMTAP	88	72	4
NMSTR	88	96	6
NMSI_	88	96	6	96	48	3
NMTAP	88	144	6
NMTAP	88	192	0
NMTAP	88	216	0
CNSCR	88	240	3	0	24	4
NMTAP	88	264	1
CNSI_	88	264	4	0	72	0
NMTAP	88	288	1
NMTAP	88	336	2
NMTAP	89	0	7
NMTAP	89	48	7
NMTAP	89	72	0
NMTAP	89	72	6
NMSTR	89	96	1
NMSXR	89	96	1	96	48	7
NMSTR	89	96	5
NMSXL	89	96	5	96	48	7
NMSTR	89	192	1
NMSCR	89	192	1	96	48	3
NMSTR	89	192	5
NMSCL	89	192	5	96	48	3
NMTAP	89	288	1
NMTAP	89	288	5
BRTAP	90	0	1
BRTAP	90	0	5
NMTAP	90	48	0
NMTAP	90	72	3
EXTAP	90	96	2
NMTAP	90	120	3
NMTAP	90	144	1
BRTAP	90	192	2
BRTAP	90	192	6
NMTAP	90	240	7
NMTAP	90	264	4
EXTAP	90	288	5
NMTAP	90	312	4
NMTAP	90	336	6
BRTAP	91	0	1
BRTAP	91	0	5
NMTAP	91	48	2
NMTAP	91	72	4
EXTAP	91	96	1
NMTAP	91	120	5
NMTAP	91	144	2
NMTAP	91	168	4
NMSTR	91	192	3
NMSF_	91	192	3	96	48	7
NMTAP	91	216	3
NMTAP	91	240	3
NMTAP	91	264	3
NMSTR	92	0	1
NMSI_	92	0	1	96	48	4
NMSTR	92	0	5
NMSI_	92	0	5	96	48	0
NMTAP	92	48	4
NMTAP	92	96	1
NMTAP	92	96	5
NMSTR	92	192	2
NMSI_	92	192	2	96	48	7
NMSTR	92	192	6
NMSI_	92	192	6	96	48	3
NMTAP	92	240	3
NMTAP	92	288	2
NMTAP	92	288	6
NMSTR	93	0	0
NMSI_	93	0	0	96	48	6
NMSTR	93	0	4
NMSI_	93	0	4	96	48	2
NMTAP	93	48	1
NMTAP	93	48	5
NMSTR	93	96	0
NMSCR	93	96	0	96	48	3
NMSTR	93	96	4
NMSCR	93	96	4	96	48	7
NMSTR	93	192	0
NMSV_	93	192	0	96	48	3
NMSV_	93	192	0	96	48	5
NMTAP	93	192	4
BRTAP	93	288	0
BXTAP	94	0	3
BXHLD	94	0	5	96
NMTAP	94	96	3
NMTAP	94	120	4
NMTAP	94	144	4
NMTAP	94	168	4
NMTAP	94	192	3
NMTAP	94	216	4
NMTAP	94	240	4
NMTAP	94	264	4
NMTAP	94	288	2
NMTAP	94	312	4
NMTAP	94	336	4
NMTAP	94	360	4
NMTAP	95	0	1
NMTAP	95	24	4
NMTAP	95	48	4
NMTAP	95	72	4
NMTAP	95	96	7
NMTAP	95	120	4
NMTAP	95	144	4
NMTAP	95	168	4
NMTAP	95	192	0
NMTAP	95	216	4
NMTAP	95	240	4
NMTAP	95	264	4
NMTAP	95	288	7
NMTAP	95	312	4
NMTAP	95	336	4
NMTAP	95	360	4
EXTAP	96	0	3
EXTAP	96	0	5
NMTAP	96	48	2
NMTAP	96	48	6
NMTAP	96	96	1
NMTAP	96	96	7
NMTAP	96	144	1
NMTAP	96	144	7
NMTAP	96	192	0
NMTAP	96	216	0
NMTAP	96	240	0
NMTAP	96	264	0
NMTAP	96	288	1
NMTAP	96	288	7
NMTAP	96	312	1
NMTAP	96	312	7
NMTAP	96	336	1
NMTAP	96	336	7
NMTAP	96	360	1
NMTAP	96	360	7
NMSTR	97	0	2
NMSI_	97	0	2	96	48	7
NMSTR	97	0	6
NMSI_	97	0	6	96	48	3
NMSTR	97	96	2
NMSCR	97	96	2	96	48	5
NMSTR	97	96	6
NMSCR	97	96	6	96	48	1
NMSTR	97	192	2
BRSI_	97	192	2	96	48	6
NMSTR	97	192	6
BRSI_	97	192	6	96	48	2
BRTAP	97	288	2
BRTAP	97	288	6
NMTTP	98	0	0	B	0	M1
NMTTP	98	0	0	C	1	M1
NMTTP	98	0	1	B	0	M1
NMTTP	98	0	1	A	0	M1
NMTTP	98	0	3	B	0	M1
NMTTP	98	0	3	A	0	M1
NMTTP	98	0	4	B	0	M1
NMTTP	98	0	5	B	0	M1
NMTTP	98	0	5	A	0	M1
NMTTP	98	0	7	B	0	M1
NMTTP	98	0	7	A	0	M1

T_REC_TAP	692
T_REC_BRK	53
T_REC_XTP	56
T_REC_BXX	1
T_REC_HLD	63
T_REC_XHO	1
T_REC_BHO	5
T_REC_BXH	1
T_REC_STR	83
T_REC_BST	4
T_REC_XST	5
T_REC_XBS	0
T_REC_TTP	23
T_REC_THO	0
T_REC_SLD	89
T_REC_BSL	6
T_REC_ALL	1082
T_NUM_TAP	859
T_NUM_BRK	70
T_NUM_HLD	64
T_NUM_SLD	89
T_NUM_ALL	1082
T_JUDGE_TAP	917
T_JUDGE_HLD	129
T_JUDGE_SLD	95
T_JUDGE_ALL	1141
TTM_EACHPAIRS	165
TTM_SCR_TAP	429500
TTM_SCR_BRK	182000
TTM_SCR_HLD	64000
TTM_SCR_SLD	133500
TTM_SCR_ALL	809000
TTM_SCR_S	777950
TTM_SCR_SS	802000
TTM_RAT_ACV	10087

