VERSION	0.00.00	1.04.00
FES_MODE	0
BPM_DEF	163.000	163.000	163.000	163.000
MET_DEF	4	4
RESOLUTION	384
CLK_DEF	384
COMPATIBLE_CODE	MA2

BPM	0	0	163.000
MET	0	0	4	4

NMHLD	2	0	2	576
NMTAP	2	0	4
NMTAP	2	96	4
NMTAP	2	192	3
NMTAP	2	288	3
NMTAP	3	0	4
NMTAP	3	96	4
NMTAP	3	192	3
NMTAP	3	288	2
NMTAP	3	288	4
NMTAP	4	0	3
NMHLD	4	0	5	576
NMTAP	4	96	3
NMTAP	4	192	4
NMTAP	4	288	4
NMTAP	5	0	3
NMTAP	5	96	3
NMTAP	5	192	4
NMTAP	5	288	3
NMTAP	5	288	4
NMTAP	6	0	2
NMHLD	6	0	3	576
NMTAP	6	96	2
NMTAP	6	192	4
NMTAP	6	288	4
NMTAP	7	0	2
NMTAP	7	96	2
NMTAP	7	192	4
NMTAP	7	288	3
NMTAP	7	288	4
NMHLD	8	0	4	480
NMTAP	8	0	5
NMTAP	8	96	5
NMTAP	8	192	3
NMTAP	8	288	3
NMTAP	9	0	5
NMTAP	9	96	5
NMTAP	9	192	4
NMTAP	9	192	5
NMTTP	9	288	6	B	0	M1
NMTTP	9	288	6	A	0	M1
NMTTP	9	288	7	B	0	M1
NMTTP	9	288	7	E	0	M1
NMTTP	9	288	7	A	0	M1
NMTTP	9	288	7	D	1	M1
BXTAP	10	0	0
NMHLD	10	0	1	576
NMTAP	10	96	0
NMTAP	10	192	2
NMTAP	10	288	2
NMTAP	11	0	3
NMTAP	11	96	3
NMTAP	11	192	2
NMTAP	11	288	3
NMTAP	11	288	4
NMTAP	12	0	4
NMHLD	12	0	6	576
NMTAP	12	96	4
NMTAP	12	192	5
NMTAP	12	288	5
NMTAP	13	0	7
NMTAP	13	96	7
NMTAP	13	192	0
NMTAP	13	288	1
NMTAP	13	288	7
NMTAP	14	0	0
NMHLD	14	0	2	576
NMTAP	14	96	0
NMTAP	14	192	1
NMTAP	14	288	1
NMTAP	15	0	3
NMTAP	15	96	3
NMTAP	15	192	4
NMTAP	15	288	3
NMTAP	15	288	5
NMHLD	16	0	4	384
NMTAP	16	0	6
NMTAP	16	96	6
NMTAP	16	192	3
NMSTR	16	288	3
NMSXL	16	288	3	96	192	6
NMTTP	17	288	0	A	0	M1
NMTTP	17	288	0	D	1	M1
NMTTP	17	288	1	D	0	M1
NMTTP	17	288	7	A	0	M1
NMTTP	17	288	7	D	0	M1
NMTAP	18	0	2
NMTAP	18	0	3
NMTAP	18	96	1
NMTAP	18	96	4
NMTAP	18	192	2
NMTAP	18	240	2
NMTAP	18	288	3
NMTAP	19	0	4
NMTAP	19	96	3
NMTAP	19	96	5
NMTAP	19	192	6
NMTAP	19	240	6
NMTAP	19	288	4
NMTAP	20	0	5
NMTAP	20	96	4
NMTAP	20	96	5
NMTAP	20	192	3
NMTAP	20	240	3
NMTAP	20	288	2
NMTAP	20	288	4
NMTAP	21	0	1
NMTAP	21	96	1
NMTAP	21	96	3
NMTAP	21	192	0
NMTAP	21	240	0
NMTAP	21	288	0
NMTAP	21	288	7
NMSTR	22	0	1
NMSI_	22	0	1	96	48	3
NMTAP	22	96	0
NMSTR	22	192	6
NMSI_	22	192	6	96	48	4
NMTAP	22	288	7
NMSTR	23	0	2
NMSI_	23	0	2	96	48	0
NMTAP	23	96	3
NMSTR	23	192	5
NMSI_	23	192	5	96	48	7
NMTAP	23	288	4
NMTAP	24	0	1
NMTAP	24	48	1
NMTAP	24	96	3
NMTAP	24	144	3
NMTAP	24	192	4
NMTAP	24	240	4
NMTAP	24	288	6
NMTAP	24	336	6
NMSTR	25	0	0
NMSUL	25	0	0	96	96	4
NMSUR	25	0	0	96	96	4
NMTAP	25	288	3
NMTAP	25	288	5
BXTAP	26	0	3
BXTAP	26	0	4
NMTAP	26	96	2
NMTAP	26	120	3
NMTAP	26	144	2
NMTAP	26	192	1
NMTAP	26	240	1
NMTAP	26	288	0
NMTAP	26	288	7
NMTAP	26	336	0
NMTAP	26	336	7
NMTAP	27	0	6
NMTAP	27	48	6
NMTAP	27	96	4
NMTAP	27	96	5
NMTAP	27	192	5
NMTAP	27	216	4
NMTAP	27	240	5
NMTAP	27	288	3
NMTAP	27	288	6
NMSTR	28	0	7
NMSI_	28	0	7	96	48	3
NMTAP	28	96	2
NMSTR	28	192	0
NMSI_	28	192	0	96	48	4
NMTAP	28	288	5
NMHLD	29	0	6	96
NMHLD	29	96	4	96
NMSTR	29	192	3
NMSI_	29	192	3	96	48	7
BRTAP	30	0	0
BRTAP	30	0	6
NMTAP	30	96	5
NMTAP	30	120	4
NMTAP	30	144	5
NMTAP	30	192	6
NMTAP	30	240	6
NMTAP	30	288	0
NMTAP	30	288	7
NMTAP	30	336	0
NMTAP	30	336	7
NMTAP	31	0	1
NMTAP	31	48	1
NMTAP	31	96	2
NMTAP	31	96	3
NMTAP	31	192	2
NMTAP	31	216	3
NMTAP	31	240	2
NMTAP	31	288	1
NMTAP	31	288	4
NMSTR	32	0	0
NMSI_	32	0	0	96	48	4
NMTAP	32	96	5
NMSTR	32	192	7
NMSI_	32	192	7	96	48	3
NMTAP	32	288	2
NMTAP	33	0	1
NMTAP	33	48	1
NMTAP	33	96	0
NMSTR	33	192	2
BRSI_	33	192	2	96	48	0
NMSTR	33	192	7
BRSI_	33	192	7	96	48	3
BXTAP	34	0	1
BXTAP	34	0	5
NMTAP	34	96	2
NMTAP	34	120	3
NMTAP	34	144	2
NMTAP	34	192	1
NMTAP	34	192	4
NMTAP	34	288	5
NMTAP	34	312	4
NMTAP	34	336	5
NMTAP	35	0	3
NMTAP	35	0	6
NMTAP	35	96	1
NMTAP	35	120	0
NMTAP	35	144	1
NMTAP	35	192	2
NMTAP	35	216	3
NMTAP	35	240	2
NMTAP	35	288	1
NMTAP	35	288	4
EXSTR	36	0	2
NMSI_	36	0	2	96	48	7
NMTAP	36	96	4
EXSTR	36	192	6
NMSI_	36	192	6	96	48	3
NMTAP	36	288	0
NMTAP	37	0	1
NMTAP	37	48	1
NMTAP	37	96	3
NMTAP	37	144	3
NMTAP	37	192	4
NMTAP	37	240	4
NMTAP	37	288	6
BRTAP	38	0	3
BRTAP	38	0	4
NMTAP	38	96	6
NMTAP	38	120	7
NMTAP	38	144	6
NMTAP	38	192	0
NMTAP	38	192	5
NMTAP	38	288	1
NMTAP	38	312	0
NMTAP	38	336	1
NMTAP	39	0	2
NMTAP	39	0	7
NMTAP	39	96	6
NMTAP	39	120	7
NMTAP	39	144	6
NMTAP	39	192	5
NMTAP	39	216	4
NMTAP	39	240	5
NMTAP	39	288	3
NMTAP	39	288	6
NMSTR	40	0	7
NMSI_	40	0	7	96	48	3
NMTAP	40	96	2
EXHLD	40	192	1	72
EXHLD	40	264	2	72
EXTAP	40	336	3
NMSTR	41	0	3
BRSCL	41	0	3	96	192	4
NMSTR	42	0	2
NMSI_	42	0	2	96	48	7
NMTAP	42	0	3
NMTAP	42	192	4
NMSTR	42	192	5
NMSI_	42	192	5	96	48	0
EXSTR	43	0	1
NMSI_	43	0	1	96	48	6
EXSTR	43	96	5
NMSI_	43	96	5	96	48	2
EXTAP	43	192	0
BRTAP	43	288	0
BRTAP	43	288	4
NMTAP	44	0	2
NMTAP	44	48	2
NMTAP	44	96	1
NMTAP	44	96	3
NMTAP	44	192	5
NMTAP	44	240	5
NMTAP	44	288	4
NMTAP	44	288	6
NMTAP	45	0	3
NMTAP	45	0	4
NMTAP	45	96	1
NMTAP	45	96	3
EXTAP	45	192	0
EXTAP	45	224	7
EXTAP	45	256	0
EXTAP	45	288	7
NMTAP	46	0	1
NMTAP	46	48	1
NMTAP	46	96	3
NMTAP	46	144	3
NMTAP	46	192	4
NMTAP	46	240	4
NMTAP	46	288	6
NMTAP	46	336	6
NMTAP	47	0	0
NMTAP	47	48	0
NMTAP	47	96	2
NMTAP	47	144	2
NMTAP	47	192	4
NMTAP	47	240	4
NMTAP	47	288	6
NMTAP	47	336	6
NMTAP	48	0	6
NMTAP	48	0	7
NMTAP	48	48	5
NMTAP	48	96	3
NMTAP	48	96	4
NMTAP	48	144	2
NMTAP	48	192	0
NMTAP	48	192	1
NMTAP	48	240	2
NMTAP	48	288	3
NMTAP	48	288	4
NMHLD	49	0	4	48
NMHLD	49	0	6	48
NMHLD	49	96	1	48
NMHLD	49	96	3	48
NMHLD	49	192	0	48
NMHLD	49	192	7	48
NMHLD	49	288	3	48
NMHLD	49	288	4	48
NMTTP	50	0	0	C	1	M1
NMTTP	50	0	1	B	0	M1
NMTTP	50	0	2	E	0	M1
NMTTP	50	0	5	B	0	M1
NMTTP	50	0	6	E	0	M1
NMHLD	52	0	2	192
NMTTP	52	192	4	E	0	M1
NMTAP	53	0	1
NMHLD	53	96	1	96
NMTTP	53	192	3	B	0	M1
NMTTP	53	192	3	E	0	M1
NMTTP	53	288	0	E	1	M1
NMTTP	53	288	0	D	0	M1
NMHLD	54	0	5	192
NMTTP	54	192	4	E	0	M1
NMTAP	55	0	6
NMHLD	55	96	6	96
NMTTP	55	192	4	B	0	M1
NMTTP	55	192	5	E	0	M1
NMHLD	56	0	7	192
NMTTP	56	192	0	C	0	M1
NMTAP	57	0	0
NMTAP	57	0	7
NMTAP	57	96	1
NMTAP	57	96	6
EXTAP	57	192	2
EXTAP	57	192	5
BXTAP	57	288	3
BXTAP	57	288	4
NMHLD	58	0	2	288
NMSTR	58	0	6
NMSUL	58	0	6	96	192	3
NMHLD	59	0	1	288
NMSTR	59	0	4
NMSXL	59	0	4	96	192	7
NMSTR	60	0	0
NMSXL	60	0	0	96	192	5
NMHLD	60	0	6	288
NMSTR	61	0	4
BRSXR	61	0	4	96	192	0
NMHLD	61	0	7	288
NMHLD	62	0	1	96
NMHLD	62	96	3	96
NMHLD	62	192	4	96
NMHLD	62	288	6	96
NMHLD	63	0	0	96
NMHLD	63	96	2	96
NMHLD	63	192	4	96
NMTAP	63	288	6
NMTAP	64	0	1
NMTAP	64	48	1
NMTAP	64	96	3
NMTAP	64	144	3
NMTAP	64	192	5
NMTAP	64	240	5
NMTAP	64	288	7
NMTAP	64	336	7
NMSTR	65	0	1
NMSCR	65	0	1	96	96	6
NMTAP	65	288	0
NMTAP	65	288	7
NMTAP	66	0	1
NMTAP	66	24	0
NMTAP	66	48	1
NMTAP	66	96	6
NMTAP	66	120	7
NMTAP	66	144	6
NMTAP	66	192	0
NMTAP	66	192	5
NMTAP	66	240	0
NMTAP	66	240	5
NMTAP	66	288	1
NMTAP	66	288	4
NMTAP	67	0	2
NMTAP	67	24	3
NMTAP	67	48	2
NMTAP	67	96	5
NMTAP	67	120	4
NMTAP	67	144	5
NMTAP	67	192	3
NMTAP	67	192	6
NMTAP	67	240	3
NMTAP	67	240	6
NMTAP	67	288	2
NMTAP	67	288	7
NMTAP	68	0	1
NMTAP	68	24	0
NMTAP	68	48	1
NMTAP	68	96	6
NMTAP	68	120	7
NMTAP	68	144	6
NMTAP	68	192	0
NMTAP	68	192	5
NMTAP	68	240	0
NMTAP	68	240	5
NMTAP	68	288	1
NMTAP	68	288	4
NMTAP	69	0	2
NMTAP	69	24	3
NMTAP	69	48	2
NMSTR	69	96	1
NMSI_	69	96	1	96	48	3
NMSTR	69	96	4
NMSI_	69	96	4	96	48	0
EXTAP	69	288	2
EXTAP	69	288	6
BXTAP	70	0	5
NMTAP	70	24	4
NMTAP	70	48	5
NMTAP	70	96	6
NMTAP	70	120	7
NMTAP	70	144	6
NMTAP	70	192	0
NMTAP	70	192	5
NMTAP	70	240	0
NMTAP	70	240	5
NMTAP	70	288	1
NMTAP	70	288	4
NMTAP	71	0	2
NMTAP	71	24	3
NMTAP	71	48	2
NMTAP	71	96	1
NMTAP	71	120	0
NMTAP	71	144	1
NMTAP	71	192	2
NMTAP	71	192	7
NMTAP	71	240	2
NMTAP	71	240	7
NMTAP	71	288	3
NMTAP	71	288	6
NMTAP	72	0	5
NMTAP	72	24	4
NMTAP	72	48	5
NMTAP	72	96	6
NMTAP	72	120	7
NMTAP	72	144	6
NMTAP	72	192	0
NMTAP	72	192	5
NMTAP	72	240	0
NMTAP	72	240	5
NMTAP	72	288	1
NMTAP	72	288	4
NMTAP	73	0	2
NMSTR	73	0	3
NMSF_	73	0	3	96	96	7
NMTAP	73	288	1
NMTAP	73	288	5
NMSTR	74	0	1
NMSI_	74	0	1	96	48	4
NMSTR	74	96	0
NMSI_	74	96	0	96	48	5
NMTAP	74	192	3
NMTAP	74	288	4
NMTAP	74	288	6
NMTAP	75	0	5
NMTAP	75	24	4
NMTAP	75	48	5
NMTAP	75	72	4
BXTAP	75	96	6
NMTAP	75	192	2
NMTAP	75	216	3
NMTAP	75	240	2
NMTAP	75	264	3
BXTAP	75	288	1
NMSTR	76	0	6
NMSI_	76	0	6	96	48	3
NMSTR	76	96	7
NMSI_	76	96	7	96	48	2
NMTAP	76	192	4
EXTAP	76	288	1
EXTAP	76	288	3
NMTAP	77	0	2
NMTAP	77	24	3
NMTAP	77	48	2
NMTAP	77	72	3
BXTAP	77	96	1
NMTAP	77	192	5
NMTAP	77	216	4
NMTAP	77	240	5
NMTAP	77	264	4
BXTAP	77	288	6
NMTAP	78	0	2
NMTAP	78	24	3
NMTAP	78	48	2
NMTAP	78	72	3
NMTAP	78	96	1
NMTAP	78	120	3
NMTAP	78	144	1
NMTAP	78	168	3
NMTAP	78	192	0
NMTAP	78	216	3
NMTAP	78	240	0
NMTAP	78	264	3
BRTAP	78	288	0
NMTAP	79	0	5
NMTAP	79	24	4
NMTAP	79	48	5
NMTAP	79	72	4
NMTAP	79	96	6
NMTAP	79	120	4
NMTAP	79	144	6
NMTAP	79	168	4
NMTAP	79	192	7
NMTAP	79	216	4
NMTAP	79	240	7
NMTAP	79	264	4
BRTAP	79	288	7
NMTAP	80	0	1
NMTAP	80	24	0
NMTAP	80	48	1
NMTAP	80	72	0
NMTAP	80	96	2
NMTAP	80	192	6
NMTAP	80	216	7
NMTAP	80	240	6
NMTAP	80	264	7
NMTAP	80	288	5
NMSTR	81	0	0
NMSXL	81	0	0	96	192	3
NMSTR	81	0	4
NMSXL	81	0	4	96	192	7
NMTAP	82	0	5
NMTAP	82	24	4
NMTAP	82	48	5
NMTAP	82	72	4
NMTAP	82	96	5
EXTAP	82	192	6
EXTAP	82	192	7
EXTAP	82	264	0
EXTAP	82	264	7
EXTAP	82	336	0
EXTAP	82	336	1
NMTAP	83	0	2
NMTAP	83	24	3
NMTAP	83	48	2
NMTAP	83	72	3
NMTAP	83	96	2
EXTAP	83	192	0
EXTAP	83	192	1
EXTAP	83	264	0
EXTAP	83	264	7
EXTAP	83	336	6
EXTAP	83	336	7
NMTAP	84	0	5
NMTAP	84	24	4
NMTAP	84	48	5
NMTAP	84	72	4
NMTAP	84	96	5
EXTAP	84	192	3
EXTAP	84	192	6
EXTAP	84	264	2
EXTAP	84	264	5
EXTAP	84	336	1
EXTAP	84	336	4
NMTAP	85	0	2
NMTAP	85	24	3
NMTAP	85	48	2
NMTAP	85	72	3
NMTAP	85	96	2
BRSTR	85	192	2
BRSI_	85	192	2	96	48	7
BRSTR	85	192	3
BRSI_	85	192	3	96	48	7
EXTAP	86	0	1
NMTAP	86	24	0
NMTAP	86	48	1
NMTAP	86	72	0
NMTAP	86	96	1
NMTAP	86	192	0
NMTAP	86	192	1
NMTAP	86	264	2
NMTAP	86	264	3
NMTAP	86	336	4
NMTAP	86	336	5
NMTAP	87	0	6
NMTAP	87	24	7
NMTAP	87	48	6
NMTAP	87	72	7
NMTAP	87	96	6
NMTAP	87	192	6
NMTAP	87	192	7
NMTAP	87	264	4
NMTAP	87	264	5
NMTAP	87	336	2
NMTAP	87	336	3
NMTAP	88	0	1
NMTAP	88	24	0
NMTAP	88	48	1
NMTAP	88	72	0
NMTAP	88	96	1
NMTAP	88	192	0
NMTAP	88	192	1
NMTAP	88	264	2
NMTAP	88	264	3
NMTAP	88	336	4
NMTAP	88	336	5
NMTAP	89	0	4
NMHLD	89	0	5	288
NMTTP	89	96	3	E	0	M1
NMTTP	89	192	5	E	0	M1
NMTTP	89	288	0	C	0	M1
NMSTR	90	0	0
NMSI_	90	0	0	96	48	5
NMSTR	90	0	1
NMSI_	90	0	1	96	48	4
NMSTR	90	192	6
NMSI_	90	192	6	96	48	3
NMSTR	90	192	7
NMSI_	90	192	7	96	48	2
NMSTR	91	0	0
NMSI_	91	0	0	96	48	4
NMSTR	91	0	1
NMSI_	91	0	1	96	48	4
NMTAP	91	192	6
NMTAP	91	192	7
EXTAP	91	288	4
EXTAP	91	288	5
NMSTR	92	0	2
NMSI_	92	0	2	96	48	7
NMSTR	92	0	3
NMSI_	92	0	3	96	48	7
NMSTR	92	192	4
NMSI_	92	192	4	96	48	0
NMSTR	92	192	5
NMSI_	92	192	5	96	48	0
NMSTR	93	0	2
NMSI_	93	0	2	96	48	7
NMSTR	93	0	3
NMSI_	93	0	3	96	48	7
NMTAP	93	192	4
NMTAP	93	192	5
BXHLD	93	288	2	96
BXTAP	93	288	3
EXTAP	94	0	7
NMTAP	94	96	0
NMTAP	94	96	1
NMTAP	94	144	2
NMTAP	94	192	3
NMTAP	94	192	4
NMTAP	94	240	5
NMTAP	94	288	6
NMTAP	94	288	7
NMTAP	94	336	5
NMTAP	95	0	3
NMTAP	95	0	4
NMTAP	95	48	2
NMTAP	95	96	0
NMTAP	95	96	1
NMTAP	95	144	2
NMTAP	95	192	3
NMTAP	95	192	4
NMTAP	95	240	3
NMTAP	95	240	4
NMTAP	95	288	2
NMTAP	95	288	5
EXTAP	96	0	0
EXTAP	96	48	0
EXTAP	96	96	7
EXTAP	96	144	7
NMTAP	96	192	1
NMTAP	96	216	2
NMTAP	96	240	3
NMTAP	96	264	4
NMTAP	96	288	5
NMTAP	96	312	6
NMTAP	96	336	7
NMTAP	96	360	0
EXSTR	97	0	1
NMSI_	97	0	1	96	48	5
NMSTR	97	96	6
NMSI_	97	96	6	96	48	2
NMSTR	97	192	0
BRSF_	97	192	0	96	48	4
BRTAP	98	0	2
BRTAP	98	0	6

T_REC_TAP	469
T_REC_BRK	10
T_REC_XTP	38
T_REC_BXX	13
T_REC_HLD	35
T_REC_XHO	2
T_REC_BHO	0
T_REC_BXH	1
T_REC_STR	45
T_REC_BST	2
T_REC_XST	5
T_REC_XBS	0
T_REC_TTP	28
T_REC_THO	0
T_REC_SLD	46
T_REC_BSL	7
T_REC_ALL	701
T_NUM_TAP	585
T_NUM_BRK	33
T_NUM_HLD	37
T_NUM_SLD	46
T_NUM_ALL	701
T_JUDGE_TAP	610
T_JUDGE_HLD	168
T_JUDGE_SLD	53
T_JUDGE_ALL	831
TTM_EACHPAIRS	130
TTM_SCR_TAP	292500
TTM_SCR_BRK	85800
TTM_SCR_HLD	37000
TTM_SCR_SLD	69000
TTM_SCR_ALL	484300
TTM_SCR_S	466600
TTM_SCR_SS	481000
TTM_RAT_ACV	10068

