VERSION	0.00.00	1.04.00
FES_MODE	0
BPM_DEF	125.000	125.000	190.000	 65.000
MET_DEF	4	4
RESOLUTION	384
CLK_DEF	384
COMPATIBLE_CODE	MA2

BPM	0	0	125.000
BPM	41	0	130.000
BPM	42	0	135.000
BPM	43	0	140.000
BPM	44	0	145.000
BPM	45	0	150.000
BPM	46	0	155.000
BPM	47	0	160.000
BPM	48	0	165.000
BPM	49	0	170.000
BPM	50	0	175.000
BPM	51	0	180.000
BPM	52	0	185.000
BPM	53	0	190.000
BPM	55	0	 95.000
BPM	76	0	 65.000
BPM	76	48	 95.000
MET	0	0	4	4
MET	63	0	4	4

NMTTP	1	0	0	E	0	M1
NMTTP	1	192	0	C	0	M1
NMTTP	2	0	4	E	0	M1
NMTTP	2	192	4	D	0	M1
NMSTR	3	0	3
NMSCL	3	0	3	96	576	4
NMTAP	3	0	4
NMTTP	3	288	5	E	0	M1
NMTTP	3	336	4	E	0	M1
NMTTP	4	0	3	E	0	M1
NMTTP	4	192	0	E	0	M1
NMSTR	5	0	4
NMSCR	5	0	4	96	576	3
NMTTP	5	288	3	E	0	M1
NMTTP	5	336	4	E	0	M1
NMTTP	6	0	5	E	0	M1
NMTTP	6	192	0	E	0	M1
NMSTR	7	0	3
NMSCL	7	0	3	96	576	4
NMTAP	7	288	4
NMTAP	7	336	4
NMTAP	8	0	4
NMTAP	8	192	3
BXTAP	9	0	0
BXTAP	9	0	7
BXTAP	9	8	1
BXTAP	9	8	6
BXTAP	9	16	2
BXTAP	9	16	5
BXSTR	9	24	3
BRSI_	9	24	3	96	72	5
BXSTR	9	24	4
BRSI_	9	24	4	96	72	2
CNSI_	9	192	2	0	84	6
CNSI_	9	192	5	0	84	1
CNSI_	9	276	1	0	72	7
CNSI_	9	276	6	0	72	0
CNSI_	9	348	0	0	60	6
CNSI_	9	348	7	0	60	1
CNSI_	10	24	1	0	120	5
CNSI_	10	24	6	0	120	2
CNSI_	10	144	2	0	144	4
CNSI_	10	144	5	0	144	3
BRSTR	11	0	1
NMSI_	11	0	1	96	48	3
BRTAP	11	0	5
NMTAP	11	48	0
NMTAP	11	48	6
NMTAP	11	96	1
NMTAP	11	96	7
NMTAP	11	144	6
NMTAP	11	168	6
NMSTR	11	192	4
NMSI_	11	192	4	96	48	2
NMTAP	11	216	5
NMTAP	11	240	3
NMHLD	11	288	1	48
NMTAP	11	288	4
NMSTR	12	0	1
NMSV_	12	0	1	96	48	4
NMTAP	12	0	4
NMTAP	12	48	2
NMTAP	12	48	3
NMTAP	12	96	1
NMTAP	12	96	5
NMTAP	12	144	6
NMTAP	12	168	6
NMSTR	12	192	4
NMSUR	12	192	4	96	48	0
NMTAP	12	216	5
NMTAP	12	240	3
NMTAP	12	288	2
NMTAP	12	288	4
BRTAP	13	0	2
BRSTR	13	0	6
NMSI_	13	0	6	96	48	4
NMTAP	13	48	1
NMTAP	13	48	7
NMTAP	13	96	0
NMTAP	13	96	6
NMTAP	13	144	1
NMTAP	13	168	1
NMSTR	13	192	3
NMSI_	13	192	3	96	48	6
NMTAP	13	216	2
NMTAP	13	240	4
NMTAP	13	288	3
NMHLD	13	288	7	48
NMSTR	14	0	1
NMSI_	14	0	1	96	48	4
NMTAP	14	24	0
NMTAP	14	48	2
NMTAP	14	96	1
NMSTR	14	96	7
NMSI_	14	96	7	96	48	1
NMSTR	14	144	6
NMSI_	14	144	6	96	48	2
NMSTR	14	192	7
NMSI_	14	192	7	96	48	3
NMSTR	14	240	6
NMSI_	14	240	6	96	48	4
NMTAP	14	288	7
NMTAP	14	336	6
BRSTR	15	0	0
NMSI_	15	0	0	96	48	4
NMTAP	15	48	1
NMTAP	15	48	3
NMTAP	15	96	0
NMTAP	15	96	4
NMTAP	15	144	5
NMTAP	15	168	5
NMSTR	15	192	7
NMSUL	15	192	7	96	48	3
NMTAP	15	216	6
NMTAP	15	240	0
NMTAP	15	288	1
NMTAP	15	288	7
NMTAP	15	336	2
NMTAP	16	0	0
NMSTR	16	0	1
NMSI_	16	0	1	96	48	6
NMTAP	16	48	6
NMTAP	16	48	7
NMTAP	16	96	1
NMHLD	16	96	4	48
NMTAP	16	192	6
NMSTR	16	192	7
NMSCL	16	192	7	96	48	4
NMTAP	16	216	0
NMTAP	16	240	1
NMTAP	16	288	0
NMTAP	16	288	7
NMTAP	17	0	2
NMSTR	17	0	3
NMSCR	17	0	3	96	48	6
NMTAP	17	48	0
NMTAP	17	48	1
NMTAP	17	96	2
NMTAP	17	96	3
NMTAP	17	144	1
NMTAP	17	168	1
NMSTR	17	192	7
NMSI_	17	192	7	96	48	3
NMTAP	17	216	0
NMTAP	17	240	6
NMHLD	17	288	5	48
NMTAP	17	288	7
NMSTR	18	0	1
NMSCL	18	0	1	96	48	6
NMTAP	18	0	4
NMTAP	18	48	2
NMTAP	18	48	3
NMTAP	18	96	1
NMTAP	18	96	4
NMTAP	18	144	5
NMTAP	18	168	5
NMTAP	18	192	4
NMTAP	18	216	4
NMTAP	18	240	3
NMTAP	18	240	6
NMTAP	18	288	2
NMSTR	18	288	7
NMSI_	18	288	7	96	24	3
NMTAP	18	320	1
NMTAP	18	320	6
NMTAP	18	352	0
NMTAP	18	352	5
BRTAP	19	0	4
BRSTR	19	0	7
NMSXR	19	0	7	96	264	1
NMTTP	19	1	0	C	1	M1
NMHLD	20	0	2	288
NMTTP	20	72	3	E	0	M1
NMTTP	20	84	4	E	0	M1
NMTTP	20	96	5	E	0	M1
NMTAP	20	264	3
NMTAP	20	276	4
NMSTR	20	288	5
NMSXL	20	288	5	96	288	2
NMHLD	21	0	5	480
NMHLD	22	0	3	96
NMTAP	22	144	2
NMTAP	22	144	4
NMSTR	22	192	1
NMSI_	22	192	1	96	48	3
NMTAP	22	288	3
CNSV_	22	336	3	0	48	0
NMTAP	22	336	4
BXHLD	23	0	5	480
NMHLD	23	192	1	48
NMHLD	23	288	2	48
NMHLD	24	0	3	48
NMHLD	24	96	4	48
NMTAP	24	192	3
NMTAP	24	216	3
NMTAP	24	240	4
NMTAP	24	264	4
NMTAP	24	288	2
NMTAP	24	312	2
NMTAP	24	336	5
NMTAP	24	360	5
NMTAP	25	0	3
NMTAP	25	24	3
NMTAP	25	48	3
NMTAP	25	72	3
NMTAP	25	96	3
NMTTP	25	96	5	E	0	M1
NMTAP	25	120	3
NMTAP	25	144	3
NMTTP	25	144	6	E	0	M1
NMTAP	25	192	7
NMTAP	25	216	7
NMTAP	25	240	7
NMTAP	25	264	7
NMTTP	25	288	3	E	0	M1
NMTAP	25	288	7
NMTAP	25	312	7
NMTTP	25	336	2	E	0	M1
NMTAP	25	336	7
EXTAP	26	0	1
NMTAP	26	12	7
NMTAP	26	24	1
NMTAP	26	36	7
NMTAP	26	48	1
NMTAP	26	60	7
NMTAP	26	72	1
NMTAP	26	84	7
NMSTR	26	96	0
NMSI_	26	96	0	96	48	4
NMTAP	26	108	6
NMTAP	26	120	0
NMTAP	26	132	6
NMTAP	26	144	0
NMTAP	26	156	6
NMTAP	26	168	0
NMTAP	26	180	6
BRSTR	26	192	0
BRSF_	26	192	0	96	48	4
CNSI_	26	240	4	0	48	0
BRTAP	27	0	2
BRTAP	27	0	6
NMSTR	27	24	5
NMSI_	27	24	5	96	24	3
NMTAP	27	48	3
BRTAP	27	72	2
BRTAP	27	72	6
NMTAP	27	120	0
NMTAP	27	144	0
BRTAP	27	192	1
BRTAP	27	192	5
NMTAP	27	216	2
NMTAP	27	240	4
BRHLD	27	264	1	48
BRTAP	27	264	5
NMTAP	27	312	7
NMTAP	27	336	0
NMTAP	27	360	7
BRTAP	28	0	2
BRTAP	28	0	6
NMSTR	28	24	3
NMSI_	28	24	3	96	24	5
NMTAP	28	48	5
BRTAP	28	72	2
BRTAP	28	72	6
NMTAP	28	120	7
NMTAP	28	144	7
BRTAP	28	192	2
BRTAP	28	192	6
NMTAP	28	216	7
NMTAP	28	240	1
BRTAP	28	264	2
BRHLD	28	264	6	48
NMTAP	28	312	7
NMTAP	28	336	0
NMTAP	28	360	1
BRTAP	29	0	2
BRTAP	29	0	6
NMSTR	29	24	5
NMSI_	29	24	5	96	24	2
NMTAP	29	48	3
BRTAP	29	72	2
BRTAP	29	72	6
NMTAP	29	120	1
NMTAP	29	144	1
BRTAP	29	192	0
BRTAP	29	192	4
NMSTR	29	216	1
NMSI_	29	216	1	96	24	4
NMTAP	29	240	3
BRTAP	29	264	0
BRTAP	29	264	4
NMTAP	29	312	6
NMTAP	29	336	6
NMHLD	30	0	5	24
NMHLD	30	0	7	12
NMHLD	30	48	2	12
NMHLD	30	48	4	24
NMTAP	30	96	1
NMTAP	30	112	3
NMTAP	30	128	1
NMTAP	30	144	3
NMTAP	30	160	1
NMTAP	30	176	3
NMHLD	30	192	0	96
NMTTP	30	276	4	E	0	M1
NMTTP	30	288	3	E	0	M1
NMTAP	31	0	6
NMTAP	31	12	7
NMTAP	31	24	6
NMTAP	31	48	1
NMTAP	31	60	0
NMTAP	31	72	1
NMTAP	31	96	2
NMTAP	31	96	3
NMTAP	31	144	1
NMTAP	31	156	0
NMTAP	31	168	1
NMTAP	31	180	0
NMSTR	31	192	1
NMSI_	31	192	1	96	24	5
NMTAP	31	240	2
NMSTR	31	240	7
NMSCR	31	240	7	96	24	2
NMTAP	31	288	1
NMTAP	31	288	5
CNSI_	31	312	5	0	24	7
EXTAP	32	0	5
NMTAP	32	12	4
NMTAP	32	24	5
NMTAP	32	48	2
NMTAP	32	60	3
NMTAP	32	72	2
NMTAP	32	96	0
NMTAP	32	96	1
NMTAP	32	144	6
NMTAP	32	156	7
NMTAP	32	168	6
NMTAP	32	180	7
NMSTR	32	192	6
NMSI_	32	192	6	96	24	2
NMSTR	32	240	0
NMSCL	32	240	0	96	24	5
NMTAP	32	240	5
NMTAP	32	288	2
NMTAP	32	288	6
CNSI_	32	312	2	0	24	0
NMTAP	33	0	1
EXTAP	33	0	4
NMTAP	33	24	2
NMTAP	33	36	3
NMTAP	33	48	2
NMSTR	33	96	1
NMSCR	33	96	1	96	24	4
NMTAP	33	96	4
NMTAP	33	144	7
NMTAP	33	168	0
NMTAP	33	168	6
NMSTR	33	192	1
NMSI_	33	192	1	96	24	6
NMSTR	33	192	5
NMSI_	33	192	5	96	24	2
NMTAP	33	240	7
BRTAP	33	288	1
BRTAP	33	288	5
NMTAP	34	0	0
NMTAP	34	0	4
NMTAP	34	24	1
NMTAP	34	36	3
NMTAP	34	48	2
NMTAP	34	72	6
NMTAP	34	84	4
NMSTR	34	96	5
NMSLR	34	96	5	96	48	2
NMSTR	34	144	2
NMSLR	34	144	2	96	48	0
NMTAP	34	144	6
NMTAP	34	192	0
NMTAP	34	192	5
NMTAP	35	0	1
NMTAP	35	0	4
NMTAP	35	24	2
NMTAP	35	36	3
NMTAP	35	48	2
NMTAP	35	72	1
NMTAP	35	96	3
NMTAP	35	96	6
NMTAP	35	120	5
NMTAP	35	132	4
NMTAP	35	144	5
NMTAP	35	168	6
NMTAP	35	192	1
NMSTR	35	192	4
NMSLR	35	192	4	96	48	2
NMTAP	35	216	2
NMTAP	35	228	3
NMSTR	35	240	2
NMSI_	35	240	2	96	24	7
NMTAP	35	264	1
NMTAP	35	288	3
NMTAP	36	0	3
NMTAP	36	0	6
NMTAP	36	24	5
NMTAP	36	36	4
NMTAP	36	48	5
NMTAP	36	72	6
NMTAP	36	96	1
NMTAP	36	96	4
NMTAP	36	120	2
NMTAP	36	132	3
NMTAP	36	144	2
NMTAP	36	168	1
NMSTR	36	192	3
NMSLL	36	192	3	96	48	5
NMTAP	36	192	6
NMTAP	36	216	5
NMTAP	36	228	4
NMSTR	36	240	5
NMSI_	36	240	5	96	24	0
NMTAP	36	264	6
NMTAP	36	288	4
NMTAP	37	0	6
NMTAP	37	24	6
NMTAP	37	48	3
NMTAP	37	48	5
NMTAP	37	72	3
NMTAP	37	96	2
NMTAP	37	96	4
NMTAP	37	120	4
NMTAP	37	144	1
NMTAP	37	144	3
NMTAP	37	168	1
NMTAP	37	192	0
NMTAP	37	192	4
NMTAP	37	216	4
NMTAP	37	240	1
NMTAP	37	240	5
NMTAP	37	264	1
NMTAP	37	288	2
NMTAP	37	288	6
NMTAP	37	312	6
NMTAP	37	336	3
NMTAP	37	336	7
NMTAP	38	0	1
NMTAP	38	12	0
NMTAP	38	24	1
NMTAP	38	36	0
NMTAP	38	48	1
NMTAP	38	60	0
NMTAP	38	72	1
NMTAP	38	84	0
NMTAP	38	96	2
NMTAP	38	108	7
NMTAP	38	120	2
NMTAP	38	132	7
NMTAP	38	144	2
NMTAP	38	156	7
NMTAP	38	168	2
NMTAP	38	180	7
NMTAP	38	192	2
NMTAP	38	204	3
NMTAP	38	216	4
NMTAP	38	228	5
NMTAP	38	240	1
NMTAP	38	252	2
NMTAP	38	264	3
NMTAP	38	276	4
NMTAP	38	288	0
NMTAP	38	300	1
NMTAP	38	312	2
NMTAP	38	324	3
NMTAP	38	336	4
NMTAP	38	348	5
NMTAP	38	360	6
NMTAP	38	372	7
BRTAP	39	0	0
NMTTP	39	0	0	C	1	M1
NMTAP	40	336	4
NMTAP	40	360	3
NMTAP	41	0	5
NMTAP	41	24	4
NMTAP	41	48	3
NMHLD	41	72	2	216
NMTTP	41	288	3	E	0	M1
NMTTP	41	336	4	E	0	M1
NMHLD	42	0	3	336
NMTTP	42	0	5	E	0	M1
NMTTP	42	192	5	B	0	M1
NMTTP	42	192	6	E	0	M1
NMTAP	42	336	4
NMTAP	42	360	3
NMTAP	43	0	5
NMTAP	43	24	4
NMTAP	43	48	3
NMHLD	43	72	2	216
NMTTP	43	288	3	E	0	M1
NMTTP	43	336	4	E	0	M1
NMHLD	44	0	3	96
NMTTP	44	0	5	E	0	M1
NMHLD	44	192	3	96
NMTTP	44	192	5	B	0	M1
NMTTP	44	192	6	E	0	M1
NMSTR	44	288	6
BRSI_	44	288	6	96	96	4
BRHLD	45	0	4	576
CNSV_	45	96	4	0	96	3
CNSI_	45	192	3	0	96	1
CNSI_	45	288	1	0	96	3
CNSV_	46	0	3	0	96	4
CNSI_	46	96	4	0	96	6
BRSTR	47	0	3
NMSCL	47	0	3	96	768	3
NMTTP	47	192	0	C	0	M1
BRSTR	48	0	7
NMSCL	48	0	7	96	384	3
NMTTP	48	192	0	C	0	M1
BRSTR	49	0	3
NMSCL	49	0	3	96	768	3
NMTTP	49	192	0	C	0	M1
BRSTR	50	0	7
NMSCL	50	0	7	96	384	3
NMTTP	50	192	0	C	0	M1
BRSTR	51	0	3
NMSCL	51	0	3	96	192	7
NMSTR	51	192	7
NMSCL	51	192	7	96	192	3
BRSTR	52	0	3
NMSCL	52	0	3	96	96	0
NMSTR	52	96	0
NMSCL	52	96	0	96	96	5
NMSTR	52	192	5
NMSCL	52	192	5	96	96	2
NMTAP	52	288	2
BRTAP	53	0	0
NMTAP	53	48	0
NMTAP	53	96	1
NMTAP	53	96	7
NMTAP	53	144	1
NMTAP	53	144	7
NMTAP	53	192	2
NMTAP	53	216	6
NMTAP	53	240	3
NMTAP	53	264	5
NMTAP	53	288	2
NMTAP	53	312	4
NMTAP	53	336	2
NMTAP	53	360	4
NMHLD	54	0	1	96
NMTTP	54	0	5	B	0	M1
NMTTP	54	0	6	B	0	M1
NMTTP	54	0	6	E	0	M1
NMTTP	54	96	1	B	0	M1
NMTTP	54	96	2	B	0	M1
NMTTP	54	96	2	E	0	M1
NMTTP	54	192	3	B	0	M1
NMTTP	54	192	4	B	0	M1
NMTTP	54	192	4	E	0	M1
NMHLD	54	192	7	96
NMTTP	54	288	0	C	0	M1
BXSTR	55	0	1
NMSCR	55	0	1	96	24	3
BXSTR	55	0	6
NMSCL	55	0	6	96	24	4
NMTAP	55	24	0
NMTAP	55	32	7
NMTAP	55	40	0
NMTAP	55	48	7
EXTAP	55	96	1
EXTAP	55	96	6
NMHLD	55	144	3	8
NMTAP	55	144	5
NMHLD	55	160	3	8
NMHLD	55	176	3	8
NMSTR	55	192	4
NMSI_	55	192	4	96	32	0
NMHLD	55	208	4	4
NMHLD	55	224	4	4
NMHLD	55	240	5	4
NMHLD	55	256	5	4
NMHLD	55	272	5	4
NMSTR	55	288	4
NMSI_	55	288	4	96	32	7
NMTAP	55	288	6
NMTAP	55	336	7
NMTAP	55	352	6
NMTAP	55	368	5
BRSTR	56	0	2
BRSXL	56	0	2	96	96	5
NMTAP	56	0	4
NMTAP	56	48	1
NMTAP	56	64	1
NMTAP	56	64	7
NMTAP	56	80	0
NMTAP	56	96	0
NMTAP	56	96	2
NMTAP	56	192	7
NMTAP	56	216	7
NMTAP	56	228	6
NMTAP	56	240	4
NMTAP	56	240	5
NMTAP	56	264	2
NMTAP	56	276	3
NMTAP	56	288	4
NMSTR	56	288	5
NMSCL	56	288	5	96	48	1
NMTAP	56	336	6
NMTAP	56	336	7
NMTAP	56	360	6
NMTAP	56	360	7
NMTAP	57	0	0
NMTAP	57	0	5
CNSCR	57	48	1	0	48	5
NMTTP	57	96	0	E	0	M1
NMTTP	57	96	7	B	0	M1
NMTTP	57	96	7	E	0	M1
NMHLD	57	144	3	8
NMSTR	57	144	5
NMSLR	57	144	5	96	48	1
NMHLD	57	160	3	8
NMHLD	57	176	3	8
NMHLD	57	192	4	4
NMHLD	57	208	4	4
NMHLD	57	224	4	4
NMHLD	57	240	3	4
NMTAP	57	240	5
NMHLD	57	256	3	4
NMHLD	57	272	3	4
NMTAP	57	288	3
EXTAP	57	336	2
EXTAP	57	336	4
NMTAP	58	0	3
NMTAP	58	12	3
NMTAP	58	24	4
NMTAP	58	36	4
NMTAP	58	48	3
NMTAP	58	60	3
NMTAP	58	72	2
NMTAP	58	84	2
NMSTR	58	96	3
NMSI_	58	96	3	96	24	7
NMTAP	58	108	3
NMTAP	58	120	4
NMTAP	58	132	4
NMTAP	58	144	3
NMTAP	58	156	3
NMTAP	58	168	2
BRHLD	58	192	3	144
NMTTP	58	204	0	C	1	M1
NMTAP	58	336	7
BRTAP	59	0	0
BRTAP	59	0	1
NMTAP	59	24	6
NMTAP	59	32	7
NMTAP	59	40	6
NMTAP	59	48	7
NMTAP	59	72	4
EXTAP	59	96	3
EXTAP	59	96	5
NMTAP	59	144	2
NMHLD	59	144	4	8
NMHLD	59	160	4	8
NMHLD	59	176	4	8
NMSTR	59	192	3
NMSI_	59	192	3	96	24	7
NMHLD	59	208	3	4
NMHLD	59	224	3	4
NMHLD	59	240	2	4
NMHLD	59	256	2	4
NMHLD	59	272	2	4
NMTAP	59	288	1
NMSTR	59	288	3
NMSI_	59	288	3	96	32	0
NMTAP	59	336	0
NMTAP	59	352	1
NMTAP	59	368	2
NMTAP	60	0	3
BRSTR	60	0	5
BRSXR	60	0	5	96	96	2
NMTAP	60	48	6
NMTAP	60	64	0
NMTAP	60	64	6
NMTAP	60	80	7
NMTAP	60	96	5
NMTAP	60	96	7
NMTAP	60	192	0
NMTAP	60	216	0
NMTAP	60	228	1
NMSTR	60	240	2
NMSI_	60	240	2	96	24	7
NMTAP	60	240	3
NMTAP	60	264	5
NMTAP	60	276	4
NMTAP	60	288	2
NMTAP	60	288	3
NMTAP	60	312	1
NMTAP	60	336	0
NMTAP	60	336	2
NMTAP	61	0	6
NMTAP	61	12	5
NMTAP	61	24	0
NMTAP	61	36	1
NMTAP	61	48	6
NMTAP	61	60	5
NMTAP	61	72	0
NMTAP	61	84	1
NMTAP	61	96	6
NMTAP	61	104	5
NMTAP	61	112	4
NMTAP	61	120	0
NMTAP	61	128	1
NMTAP	61	136	2
NMTAP	61	144	6
NMTAP	61	152	5
NMTAP	61	160	4
NMTAP	61	168	0
NMTAP	61	176	1
NMTAP	61	184	2
NMTAP	61	192	7
NMTAP	61	200	6
NMTAP	61	208	5
NMTAP	61	216	1
NMTAP	61	224	2
NMTAP	61	232	3
NMTAP	61	240	7
NMTAP	61	248	6
NMTAP	61	256	5
NMTAP	61	264	1
NMTAP	61	272	2
NMTAP	61	280	3
NMTAP	61	288	0
NMTAP	61	296	7
NMTAP	61	304	6
NMTAP	61	312	2
NMTAP	61	320	3
NMTAP	61	328	4
NMTAP	61	336	1
NMTAP	61	342	0
NMTAP	61	348	7
NMTAP	61	354	6
NMTAP	61	360	2
NMTAP	61	366	3
NMTAP	61	372	4
NMTAP	61	378	5
NMTTP	62	0	0	C	1	M1
NMTAP	62	288	5
NMTAP	62	312	4
NMTAP	62	336	3
NMTAP	62	360	2
NMTAP	63	0	3
NMTAP	63	24	4
NMTAP	63	48	5
NMTAP	63	72	4
NMTAP	63	96	3
NMTAP	63	120	2
NMTAP	63	144	3
NMTAP	63	168	4
NMTAP	63	192	5
NMTAP	63	216	4
NMTAP	63	240	3
NMTAP	63	264	4
NMSTR	63	288	2
NMSCL	63	288	2	96	192	5
NMTAP	63	312	1
NMTAP	63	336	2
NMTAP	63	360	3
NMHLD	64	0	4	192
NMSTR	64	288	3
BRSI_	64	288	3	96	48	1
BRSI_	64	288	3	96	48	7
NMTAP	64	288	4
NMTAP	64	336	1
NMTAP	64	336	6
BRTAP	65	0	3
CNSCL	65	48	7	0	24	6
CNSI_	65	72	6	0	24	4
BRTAP	65	96	0
NMTAP	65	144	1
NMTAP	65	160	3
NMTAP	65	176	2
NMTAP	65	192	6
NMTAP	65	208	4
NMTAP	65	224	5
NMTAP	65	240	3
NMTAP	65	248	4
NMTAP	65	256	3
NMTAP	65	264	4
NMTAP	65	272	3
NMTAP	65	280	4
BRTAP	65	288	2
BRTAP	65	288	5
NMSTR	66	0	0
BRSI_	66	0	0	96	24	4
NMTAP	66	12	6
NMTAP	66	24	0
NMSTR	66	36	6
BRSI_	66	36	6	96	24	2
NMTAP	66	48	1
NMTAP	66	60	7
NMTAP	66	72	1
NMTAP	66	84	7
CNSI_	66	120	4	0	24	0
CNSI_	66	156	2	0	24	6
NMSTR	66	192	1
NMSI_	66	192	1	96	24	5
NMTAP	66	204	7
NMSTR	66	216	3
NMSI_	66	216	3	96	24	7
NMTAP	66	228	5
NMTAP	66	240	0
NMTAP	66	252	6
NMTAP	66	264	2
NMTAP	66	276	4
NMTAP	66	288	1
BRTAP	66	312	3
NMTAP	67	0	2
NMTAP	67	0	6
NMTAP	67	24	6
NMTAP	67	36	5
NMTAP	67	48	0
NMTAP	67	48	4
NMTAP	67	72	1
NMTAP	67	84	2
NMTAP	67	96	3
NMSTR	67	96	7
NMSCL	67	96	7	96	24	4
NMSCR	67	96	7	96	24	2
NMSTR	67	144	7
NMSF_	67	144	7	96	24	3
NMTAP	67	156	7
NMTAP	67	168	7
NMTAP	67	180	7
BRTAP	67	192	7
BRTAP	67	240	7
NMSTR	67	288	0
BRSCR	67	288	0	96	24	3
NMTAP	67	300	5
NMTAP	67	312	7
NMTAP	67	324	6
NMTAP	67	336	0
NMTAP	67	348	5
NMTAP	67	360	7
NMTAP	67	372	6
NMTAP	68	0	0
NMTAP	68	48	1
NMTAP	68	48	5
BRSTR	68	96	2
BRSI_	68	96	2	96	24	7
BRTAP	68	96	4
NMTAP	68	120	0
NMSTR	68	120	6
NMSV_	68	120	6	96	24	3
NMSTR	68	144	3
NMSLR	68	144	3	96	48	0
NMTAP	68	144	5
NMTAP	68	168	1
NMTAP	68	168	7
BRTAP	68	192	2
NMTAP	68	192	4
NMTAP	68	216	6
NMTAP	68	264	1
BRTAP	68	288	1
NMTAP	68	336	2
NMTAP	68	336	6
NMSTR	69	0	7
BRSCL	69	0	7	96	24	4
NMTAP	69	12	2
NMTAP	69	24	0
NMTAP	69	36	1
NMTAP	69	48	7
NMTAP	69	60	2
NMTAP	69	72	0
NMTAP	69	84	1
BRTAP	69	96	7
NMTAP	69	144	2
NMTAP	69	144	3
NMTAP	69	192	1
BRSTR	69	192	4
BRSI_	69	192	4	96	24	0
NMTAP	69	216	2
NMTAP	69	224	3
NMSTR	69	232	2
NMSV_	69	232	2	96	40	7
NMTAP	69	240	3
NMTAP	69	264	5
NMTAP	69	272	4
NMTAP	69	280	5
BRTAP	69	288	4
CNSI_	69	312	0	0	16	2
EXTAP	69	336	6
NMTAP	70	0	5
NMTAP	70	16	5
NMTAP	70	32	5
NMTAP	70	48	7
NMTAP	70	64	7
NMTAP	70	80	7
NMSTR	70	96	0
NMSI_	70	96	0	96	24	4
NMTAP	70	112	0
NMTAP	70	128	0
NMSTR	70	144	2
NMSI_	70	144	2	96	24	5
NMSI_	70	144	2	96	24	7
NMTAP	70	160	2
NMTAP	70	176	2
NMSTR	70	192	2
NMSCL	70	192	2	96	48	3
BRSTR	71	0	1
NMSI_	71	0	1	96	24	3
NMTAP	71	8	0
NMTAP	71	16	1
NMSTR	71	24	0
NMSI_	71	24	0	96	24	4
NMTAP	71	32	1
NMTAP	71	40	0
NMSTR	71	48	1
NMSI_	71	48	1	96	24	5
BRTAP	71	96	1
NMTAP	71	120	0
NMTAP	71	144	1
BRSTR	71	192	6
BRSI_	71	192	6	96	32	3
NMSTR	71	200	7
BRSI_	71	200	7	96	24	2
NMTAP	71	208	6
NMTAP	71	216	7
NMTAP	71	224	6
NMTAP	71	232	7
NMTAP	71	240	6
BRTAP	71	288	6
BRTAP	71	288	7
BRSTR	72	0	2
NMSCR	72	0	2	96	24	5
NMTAP	72	24	1
NMTAP	72	48	1
NMTTP	72	48	4	E	0	M1
NMTAP	72	72	1
NMTAP	72	96	2
BRSTR	72	96	7
NMSUL	72	96	7	96	24	3
NMTAP	72	120	6
NMTTP	72	144	0	C	0	M1
NMTAP	72	144	6
NMTAP	72	168	6
BRSTR	72	192	1
NMSCR	72	192	1	96	24	4
NMTAP	72	192	7
NMTAP	72	216	0
BRTAP	72	240	0
NMTTP	72	240	2	B	0	M1
NMTTP	72	240	3	B	0	M1
NMTAP	72	264	0
NMTAP	72	288	1
BRSTR	72	288	6
NMSF_	72	288	6	96	24	2
NMTAP	72	312	5
NMTTP	72	336	0	B	0	M1
NMTTP	72	336	0	E	0	M1
BRTAP	72	336	5
NMTAP	72	360	5
NMSTR	73	0	6
NMSCL	73	0	6	96	192	6
NMSCR	73	0	6	96	192	6
NMTTP	73	12	0	C	1	M1
NMTAP	74	0	0
NMTAP	74	12	1
NMTAP	74	24	2
NMTAP	74	36	3
NMTAP	74	48	0
NMTAP	74	60	1
NMTAP	74	72	2
NMTAP	74	84	3
NMSTR	74	96	7
NMSCL	74	96	7	96	48	3
NMSTR	74	108	6
NMSCL	74	108	6	96	48	2
NMSTR	74	120	5
NMSCL	74	120	5	96	48	1
NMSTR	74	132	4
NMSCL	74	132	4	96	48	0
NMTAP	74	144	7
NMTAP	74	156	6
NMTAP	74	168	5
NMTAP	74	180	4
NMTTP	74	192	7	A	0	M1
NMTTP	74	204	6	A	0	M1
NMTTP	74	216	5	A	0	M1
NMTTP	74	228	4	A	0	M1
CNSCL	74	240	3	0	60	6
NMTTP	74	240	3	A	0	M1
CNSCL	74	252	2	0	60	5
NMTTP	74	252	2	A	0	M1
CNSCL	74	264	1	0	60	4
NMTTP	74	264	1	A	0	M1
CNSCL	74	276	0	0	60	3
NMTTP	74	276	0	A	0	M1
NMTTP	74	288	7	A	0	M1
NMTTP	74	300	6	A	0	M1
NMTTP	74	312	5	A	0	M1
NMTTP	74	324	4	A	0	M1
NMTTP	74	336	3	A	0	M1
NMTAP	75	0	2
NMTAP	75	8	3
NMTAP	75	16	2
NMTAP	75	24	3
NMTAP	75	32	2
NMTAP	75	40	3
NMHLD	75	48	1	8
NMHLD	75	64	1	8
NMHLD	75	80	1	8
NMTAP	75	96	5
NMTAP	75	104	4
NMTAP	75	112	5
NMTAP	75	120	4
NMTAP	75	128	5
NMTAP	75	136	4
NMHLD	75	144	6	8
NMHLD	75	160	6	8
NMHLD	75	176	6	8
NMTAP	75	192	1
NMTAP	75	200	7
NMTAP	75	208	1
NMTAP	75	216	7
NMTAP	75	224	1
NMTAP	75	232	7
NMTAP	75	240	0
NMTAP	75	248	6
NMTAP	75	256	0
NMTAP	75	264	6
NMTAP	75	272	0
NMTAP	75	280	6
NMTAP	75	288	0
NMTAP	75	294	1
NMTAP	75	300	2
NMTAP	75	306	3
NMTAP	75	312	4
NMTAP	75	318	5
NMTAP	75	324	6
NMTAP	75	330	7
NMTAP	75	336	0
NMTAP	75	342	7
NMTAP	75	348	6
NMTAP	75	354	5
NMTAP	75	360	4
NMTAP	75	366	3
NMTAP	75	372	2
NMTAP	75	378	1
BRTAP	76	0	0
NMTTP	76	0	6	B	1	M1
NMTTP	76	3	0	C	0	M1
NMTTP	76	6	2	B	0	M1
NMTTP	76	9	2	A	0	M1
NMTAP	76	48	1
NMTAP	76	60	7
NMTAP	76	72	1
NMTAP	76	84	7
NMTAP	76	96	1
NMTAP	76	108	7
NMTAP	76	120	2
NMTAP	76	132	6
NMTAP	76	144	2
NMTAP	76	156	6
NMTAP	76	168	2
NMTAP	76	180	6
NMTAP	76	192	3
NMTAP	76	204	5
NMTAP	76	216	3
NMTAP	76	228	5
NMTAP	76	240	3
NMTAP	76	252	5
NMTAP	76	264	2
NMTAP	76	276	4
NMTAP	76	288	2
NMTAP	76	300	4
NMTAP	76	312	2
NMTAP	76	324	4
BRTAP	76	336	3
BRTAP	76	360	3
BRSTR	77	0	3
NMSF_	77	0	3	96	24	7
BRTAP	77	32	3
BRTAP	77	64	3
BRTAP	77	96	3
NMTTP	77	108	0	B	0	M1
NMTTP	77	108	0	C	1	M1
NMTTP	77	108	1	B	0	M1
NMTTP	77	108	5	B	0	M1
NMTTP	77	108	6	B	0	M1
NMTTP	77	108	7	B	0	M1

T_REC_TAP	640
T_REC_BRK	54
T_REC_XTP	10
T_REC_BXX	6
T_REC_HLD	55
T_REC_XHO	0
T_REC_BHO	4
T_REC_BXH	1
T_REC_STR	75
T_REC_BST	22
T_REC_XST	0
T_REC_XBS	4
T_REC_TTP	82
T_REC_THO	0
T_REC_SLD	89
T_REC_BSL	16
T_REC_ALL	1058
T_NUM_TAP	807
T_NUM_BRK	107
T_NUM_HLD	55
T_NUM_SLD	89
T_NUM_ALL	1058
T_JUDGE_TAP	893
T_JUDGE_HLD	126
T_JUDGE_SLD	105
T_JUDGE_ALL	1124
TTM_EACHPAIRS	126
TTM_SCR_TAP	403500
TTM_SCR_BRK	278200
TTM_SCR_HLD	55000
TTM_SCR_SLD	133500
TTM_SCR_ALL	870200
TTM_SCR_S	833750
TTM_SCR_SS	859500
TTM_RAT_ACV	10124

