VERSION	0.00.00	1.04.00
FES_MODE	0
BPM_DEF	125.000	125.000	190.000	 65.000
MET_DEF	4	4
RESOLUTION	384
CLK_DEF	384
COMPATIBLE_CODE	MA2

BPM	0	0	125.000
BPM	41	0	130.000
BPM	42	0	135.000
BPM	43	0	140.000
BPM	44	0	145.000
BPM	45	0	150.000
BPM	46	0	155.000
BPM	47	0	160.000
BPM	48	0	165.000
BPM	49	0	170.000
BPM	50	0	175.000
BPM	51	0	180.000
BPM	52	0	185.000
BPM	53	0	190.000
BPM	55	0	 95.000
BPM	76	0	 65.000
BPM	76	48	 95.000
MET	0	0	4	4
MET	63	0	4	4

NMTAP	1	0	3
NMTAP	1	192	3
NMTAP	2	0	3
NMTAP	2	192	3
NMHLD	3	0	4	768
NMTTP	3	288	5	E	0	M1
NMTTP	3	336	4	E	0	M1
NMTTP	4	0	3	E	0	M1
NMTTP	4	192	4	E	0	M1
NMHLD	5	0	2	768
NMTTP	5	288	3	D	0	M1
NMTTP	5	336	4	D	0	M1
NMTTP	6	0	5	D	0	M1
NMTTP	6	192	0	C	0	M1
NMHLD	7	0	6	672
NMTTP	7	288	5	A	0	M1
NMTTP	7	336	4	D	0	M1
NMTTP	8	0	2	A	0	M1
NMHLD	8	192	1	96
NMTHO	9	0	0	384	C	1	M1
NMTTP	9	0	2	B	0	M1
NMTTP	9	0	3	B	0	M1
NMTTP	9	0	4	B	0	M1
NMTTP	9	0	4	E	1	M1
NMTTP	9	0	5	B	0	M1
EXTAP	10	0	0
EXTAP	10	12	1
EXTAP	10	24	2
EXTAP	10	36	3
EXTAP	10	48	4
EXTAP	10	60	5
EXTAP	10	72	6
EXTAP	10	84	7
EXTAP	10	96	0
EXTAP	10	108	1
EXTAP	10	120	2
EXTAP	10	132	3
EXTAP	10	144	4
EXTAP	10	156	5
EXTAP	10	168	6
EXTAP	10	180	7
EXTAP	10	192	0
EXTAP	10	204	1
EXTAP	10	216	2
EXTAP	10	228	3
EXTAP	10	240	4
EXTAP	10	252	5
EXTAP	10	264	6
EXTAP	10	276	7
EXTAP	10	288	0
EXTAP	10	300	1
EXTAP	10	312	2
EXTAP	10	324	3
EXTAP	10	336	4
EXTAP	10	348	5
EXTAP	10	360	6
EXTAP	10	372	7
BRTAP	11	0	0
EXHLD	11	96	1	192
NMTAP	11	192	3
NMTAP	11	240	4
NMHLD	11	288	5	96
NMSTR	12	0	4
NMSV_	12	0	4	96	72	7
NMSTR	12	96	6
NMSCL	12	96	6	96	72	3
NMTAP	12	192	0
NMTAP	12	240	1
NMHLD	12	288	2	96
NMSTR	13	0	3
NMSV_	13	0	3	96	72	0
NMSTR	13	96	1
NMSCR	13	96	1	96	72	4
NMTAP	13	192	7
NMTAP	13	240	6
NMHLD	13	288	5	96
NMSTR	14	0	4
NMSI_	14	0	4	96	72	0
NMTAP	14	96	7
NMTTP	14	192	1	E	0	M1
NMTTP	14	240	5	B	0	M1
NMTTP	14	240	6	E	0	M1
NMTTP	14	288	3	B	0	M1
NMTTP	14	288	3	E	0	M1
NMTTP	14	288	3	A	0	M1
NMTTP	14	336	0	E	0	M1
NMTTP	14	336	7	B	0	M1
NMTTP	14	336	7	E	0	M1
NMTTP	14	336	7	A	0	M1
NMTAP	15	0	1
NMTAP	15	48	1
NMTAP	15	96	2
NMTAP	15	96	4
NMTAP	15	144	5
NMTAP	15	192	4
NMSTR	15	192	6
NMSI_	15	192	6	96	72	3
NMTAP	15	240	7
NMTAP	16	0	1
NMTAP	16	0	2
NMTAP	16	48	3
NMTAP	16	96	4
NMSTR	16	96	5
NMSSR	16	96	5	96	96	1
NMTAP	16	144	6
EXTAP	16	288	0
NMTAP	17	0	6
NMTAP	17	48	6
NMTAP	17	96	3
NMTAP	17	96	5
NMTAP	17	144	2
NMSTR	17	192	1
NMSI_	17	192	1	96	72	4
NMTAP	17	192	3
NMTAP	17	240	0
NMTAP	18	0	5
NMTAP	18	0	6
NMTAP	18	48	4
NMSTR	18	96	2
NMSXL	18	96	2	96	96	2
NMTAP	18	96	3
NMTAP	18	144	1
NMSTR	18	192	6
NMSXL	18	192	6	96	96	6
BRHLD	19	0	3	384
NMHLD	20	0	5	192
NMTAP	20	72	7
NMTAP	20	84	0
NMHLD	20	96	1	288
NMTAP	20	264	3
NMTAP	20	276	4
NMSTR	20	288	5
NMSXR	20	288	5	96	384	2
NMTAP	22	144	0
NMHLD	22	192	0	96
NMTAP	22	288	7
NMTAP	22	336	1
NMTAP	22	336	6
BRTAP	23	0	0
BRTAP	23	0	7
EXTAP	23	8	1
EXTAP	23	8	6
EXTAP	23	16	2
EXTAP	23	16	5
EXTAP	23	24	3
EXTAP	23	24	4
NMTAP	23	192	3
NMTAP	23	240	3
NMTAP	23	288	4
NMTAP	23	336	4
NMTAP	24	0	2
NMTAP	24	0	3
NMTAP	24	48	1
NMTAP	24	96	4
NMTAP	24	96	5
NMTAP	24	144	6
NMTAP	24	192	2
NMTAP	24	192	3
NMTAP	24	240	0
NMTAP	24	288	4
NMTAP	24	288	5
NMTAP	24	336	7
NMTAP	25	0	2
NMTAP	25	24	2
NMTAP	25	48	3
NMTAP	25	72	3
NMTAP	25	96	1
NMTAP	25	120	1
NMTAP	25	144	7
NMTAP	25	168	7
NMTAP	25	192	0
NMTAP	25	216	0
NMTAP	25	240	6
NMTAP	25	264	6
NMTAP	25	288	4
NMTAP	25	312	4
NMTAP	25	336	5
NMTAP	25	360	5
NMTAP	26	0	3
NMTAP	26	24	2
NMTAP	26	48	1
NMTAP	26	72	0
NMTAP	26	96	7
NMTAP	26	120	6
NMTAP	26	144	5
NMTAP	26	168	4
BXSTR	26	192	3
NMSF_	26	192	3	96	24	7
EXTAP	27	0	1
EXTAP	27	0	5
NMTAP	27	24	1
NMTAP	27	24	5
NMTAP	27	72	6
EXTAP	27	72	7
NMTAP	27	120	1
NMTAP	27	120	3
EXTAP	27	144	1
NMTAP	27	144	3
EXTAP	27	192	2
EXTAP	27	192	6
NMTAP	27	216	2
NMTAP	27	216	6
EXTAP	27	264	0
NMTAP	27	264	1
NMTAP	27	312	5
EXTAP	27	336	5
NMTAP	27	360	4
EXTAP	28	0	6
NMTAP	28	24	6
EXTAP	28	72	2
NMTAP	28	72	3
NMTAP	28	120	1
NMTAP	28	120	7
NMTAP	28	144	1
EXTAP	28	144	7
EXTAP	28	192	0
EXTAP	28	192	6
NMTAP	28	216	0
NMTAP	28	216	6
NMTAP	28	264	4
EXTAP	28	264	5
NMTAP	28	312	1
EXTAP	28	336	1
NMTAP	28	360	3
EXTAP	29	0	2
NMTAP	29	24	2
EXTAP	29	72	4
NMTAP	29	72	6
NMTAP	29	120	0
NMTAP	29	120	7
EXTAP	29	144	0
EXTAP	29	144	7
EXTAP	29	192	5
NMTAP	29	216	5
NMTAP	29	264	1
EXTAP	29	264	3
NMTAP	29	312	0
NMTAP	29	312	7
EXTAP	29	336	0
EXTAP	29	336	7
BRTAP	30	0	1
EXTAP	30	12	2
EXTAP	30	24	3
BRTAP	30	48	6
EXTAP	30	60	5
EXTAP	30	72	4
BRSTR	30	96	0
NMSCR	30	96	0	96	144	7
EXTAP	30	108	1
EXTAP	30	120	2
BRTAP	30	144	7
EXTAP	30	156	6
EXTAP	30	168	5
EXTAP	31	0	0
EXTAP	31	0	1
NMTAP	31	48	2
NMTAP	31	96	0
NMTAP	31	96	1
NMTAP	31	144	7
NMHLD	31	192	6	72
NMHLD	31	264	5	72
NMTAP	31	336	4
NMHLD	32	0	1	72
NMHLD	32	72	2	72
NMTAP	32	144	3
NMSTR	32	192	7
NMSCL	32	192	7	96	48	4
NMSTR	32	240	3
NMSCL	32	240	3	96	48	0
NMHLD	33	0	6	96
NMTAP	33	96	7
NMTAP	33	144	1
NMTAP	33	168	0
NMTAP	33	192	1
NMTAP	33	240	6
NMTAP	33	264	4
NMTAP	33	312	4
NMTAP	33	336	3
NMTAP	34	0	3
NMTAP	34	24	1
NMTAP	34	72	1
NMSTR	34	96	3
NMSUR	34	96	3	96	144	4
NMTAP	34	144	3
EXTAP	35	0	6
EXTAP	35	0	7
NMTAP	35	48	5
NMTAP	35	96	6
NMTAP	35	96	7
NMTAP	35	144	0
NMHLD	35	192	1	72
NMHLD	35	264	2	72
NMTAP	35	336	3
NMHLD	36	0	6	72
NMHLD	36	72	5	72
NMTAP	36	144	4
NMSTR	36	192	1
NMSI_	36	192	1	96	48	5
NMTAP	36	240	5
NMTAP	37	0	6
NMTAP	37	24	7
NMTAP	37	48	6
NMTAP	37	72	1
NMTAP	37	96	0
NMTAP	37	120	1
NMTAP	37	144	5
NMTAP	37	168	4
NMTAP	37	192	5
NMTAP	37	216	2
NMTAP	37	240	3
NMTAP	37	264	2
NMTAP	37	288	7
NMTAP	37	312	7
NMTAP	37	336	1
NMTAP	37	360	1
NMTAP	38	0	5
NMTAP	38	24	5
NMTAP	38	48	4
NMTAP	38	72	6
NMTAP	38	96	2
NMTAP	38	120	2
NMTAP	38	144	3
NMTAP	38	168	1
NMTAP	38	192	6
NMTAP	38	216	6
NMTAP	38	240	7
NMTAP	38	264	5
NMTAP	38	288	1
NMTAP	38	312	1
NMTAP	38	336	0
NMTAP	38	360	2
BRHLD	39	0	3	384
BRHLD	39	0	7	384
NMTTP	40	192	0	E	0	M1
NMHLD	41	0	1	768
NMTTP	41	288	2	A	0	M1
NMTTP	41	336	4	E	0	M1
NMTTP	42	0	5	A	0	M1
NMTTP	42	192	0	C	0	M1
NMHLD	43	0	5	672
NMTTP	43	288	5	E	0	M1
NMTTP	43	336	4	E	0	M1
NMTTP	44	0	3	E	0	M1
NMHLD	44	192	2	96
BRSTR	45	0	3
NMSCL	45	0	3	96	96	2
BRSTR	45	0	4
NMSCR	45	0	4	96	96	5
CNSUL	45	192	2	0	192	1
CNSUR	45	192	5	0	192	6
CNSCL	46	0	1	0	96	0
CNSCR	46	0	6	0	96	7
CNSUL	46	96	0	0	192	3
CNSUR	46	96	7	0	192	4
NMHLD	47	0	2	96
NMHLD	47	96	3	96
NMHLD	47	192	4	96
NMTAP	47	288	5
NMSTR	47	336	5
NMSI_	47	336	5	96	48	3
NMHLD	48	48	1	96
NMHLD	48	144	2	96
NMTAP	48	240	3
NMTAP	48	288	3
NMHLD	49	0	5	96
NMHLD	49	96	4	96
NMHLD	49	192	3	96
NMTAP	49	288	2
NMSTR	49	336	2
NMSI_	49	336	2	96	48	4
NMHLD	50	48	6	96
NMHLD	50	144	5	96
NMTAP	50	240	4
NMTAP	50	288	4
NMHLD	51	0	1	96
NMHLD	51	96	2	96
NMHLD	51	192	3	96
NMTAP	51	288	4
NMTAP	51	336	3
NMTAP	51	336	5
NMHLD	52	48	6	96
NMHLD	52	144	4	96
NMTAP	52	240	3
NMTAP	52	288	2
NMTAP	52	288	4
NMTAP	53	0	1
NMTAP	53	48	1
NMTAP	53	96	6
NMTAP	53	144	6
NMTAP	53	192	0
NMTAP	53	216	7
NMTAP	53	240	0
NMTAP	53	264	7
NMTAP	53	288	0
NMTAP	53	312	7
NMTAP	53	336	0
NMTAP	53	360	7
BXSTR	54	0	0
NMSCR	54	0	0	96	48	3
BXSTR	54	96	7
NMSCL	54	96	7	96	48	4
BXSTR	54	192	1
NMSI_	54	192	1	96	48	5
BXTAP	54	288	7
BRHLD	55	0	2	48
BRHLD	55	0	6	48
NMTTP	55	96	3	A	0	M1
NMTTP	55	96	4	E	0	M1
NMTTP	55	96	5	E	0	M1
NMTTP	55	96	5	A	0	M1
EXHLD	55	144	0	96
NMSTR	55	192	7
NMSCR	55	192	7	96	24	2
NMTAP	55	216	6
NMTAP	55	240	5
NMTAP	55	264	4
NMHLD	55	336	4	32
NMHLD	55	336	5	32
EXTAP	56	0	3
NMTAP	56	0	6
NMHLD	56	48	0	32
NMHLD	56	48	1	32
NMTAP	56	96	2
EXTAP	56	96	7
NMTAP	56	144	3
NMTAP	56	144	4
NMTTP	56	192	2	E	0	M1
NMTTP	56	192	6	E	0	M1
NMTAP	56	240	7
NMTAP	56	264	7
NMSTR	56	288	0
BRSCR	56	288	0	96	96	6
NMTAP	56	336	6
NMTAP	57	0	7
NMTTP	57	96	0	C	0	M1
EXHLD	57	144	7	144
NMTAP	57	192	0
NMTAP	57	216	1
NMSTR	57	240	2
NMSUR	57	240	2	96	48	4
NMTAP	57	264	3
BRHLD	58	0	6	192
EXTAP	58	48	4
NMHLD	58	96	2	96
NMTTP	58	204	0	C	1	M1
NMTTP	58	204	1	B	0	M1
NMTTP	58	204	1	A	0	M1
NMTTP	58	204	5	B	0	M1
NMTTP	58	204	5	A	0	M1
NMTAP	58	336	7
NMTAP	58	360	6
EXHLD	59	0	1	48
EXHLD	59	0	5	48
NMTTP	59	96	2	A	0	M1
NMTTP	59	96	3	E	0	M1
NMTTP	59	96	4	E	0	M1
NMTTP	59	96	4	A	0	M1
EXHLD	59	144	7	96
NMSTR	59	192	0
NMSCL	59	192	0	96	24	5
NMTAP	59	216	1
NMTAP	59	240	2
NMTAP	59	264	3
NMHLD	59	336	2	32
NMHLD	59	336	3	32
NMTAP	60	0	1
EXTAP	60	0	4
NMHLD	60	48	6	32
NMHLD	60	48	7	32
EXTAP	60	96	0
NMTAP	60	96	5
NMTAP	60	144	3
NMTAP	60	144	4
NMTTP	60	192	2	E	0	M1
NMTTP	60	192	6	E	0	M1
NMTAP	60	240	0
NMTAP	60	264	0
EXSTR	60	288	7
BRSCL	60	288	7	96	96	1
EXTAP	60	336	0
EXSTR	61	0	1
BRSLL	61	0	1	96	48	5
CNSLL	61	144	5	0	48	1
CNSCL	61	192	1	0	96	4
CNSLL	61	288	4	0	48	0
CNSLL	61	336	0	0	48	4
NMTTP	62	0	0	B	0	M1
NMTTP	62	0	0	C	1	M1
NMTTP	62	0	1	B	0	M1
NMTTP	62	0	6	B	0	M1
NMTTP	62	0	7	B	0	M1
NMHLD	64	0	1	192
NMHLD	64	192	3	96
NMHLD	64	288	4	96
NMSTR	65	0	6
BRSI_	65	0	6	96	24	2
NMSTR	65	48	1
NMSI_	65	48	1	96	48	5
CNSCL	65	192	5	0	48	2
CNSI_	65	240	2	0	48	6
CNSCR	65	288	6	0	48	1
NMHLD	66	0	0	12
NMHLD	66	0	6	12
NMHLD	66	24	0	12
NMHLD	66	24	6	12
NMHLD	66	48	0	12
NMHLD	66	48	6	12
NMHLD	66	72	0	12
NMHLD	66	72	6	12
NMTTP	66	96	1	D	0	M1
NMTTP	66	108	2	D	0	M1
NMTTP	66	120	3	D	0	M1
NMTTP	66	132	4	D	0	M1
NMTTP	66	144	5	D	0	M1
NMHLD	66	192	1	12
NMHLD	66	192	7	12
NMHLD	66	216	1	12
NMHLD	66	216	7	12
NMHLD	66	240	1	12
NMHLD	66	240	7	12
NMHLD	66	264	1	12
NMHLD	66	264	7	12
NMTTP	66	288	7	D	0	M1
NMTTP	66	300	6	D	0	M1
NMTTP	66	312	5	D	0	M1
NMTTP	66	324	4	D	0	M1
NMTTP	66	336	3	D	0	M1
NMTAP	67	0	0
NMTAP	67	0	1
NMTAP	67	48	6
NMTAP	67	48	7
NMTAP	67	96	4
NMSTR	67	96	5
NMSI_	67	96	5	96	24	1
NMSTR	67	144	2
NMSI_	67	144	2	96	24	6
NMTAP	67	144	3
BRTAP	67	288	0
BRTAP	67	288	7
NMSTR	68	0	1
NMSI_	68	0	1	96	36	4
NMSTR	68	48	3
NMSI_	68	48	3	96	36	6
BXSTR	68	192	3
NMSI_	68	192	3	96	36	6
NMSTR	68	240	5
NMSI_	68	240	5	96	36	0
NMSTR	69	0	5
NMSI_	69	0	5	96	36	0
NMSTR	69	48	7
NMSI_	69	48	7	96	36	2
NMSTR	69	192	7
NMSI_	69	192	7	96	36	2
NMSTR	69	240	1
NMSI_	69	240	1	96	36	4
EXHLD	70	0	7	96
EXSTR	70	96	5
NMSCL	70	96	5	96	96	0
EXSTR	70	192	0
NMSCL	70	192	0	96	96	3
EXSTR	70	288	3
NMSCL	70	288	3	96	96	6
EXSTR	71	0	6
NMSCL	71	0	6	96	96	1
EXSTR	71	96	1
NMSCL	71	96	1	96	96	4
EXTAP	71	192	4
EXTAP	71	288	0
NMTHO	72	0	0	384	C	1	M1
NMTTP	72	0	2	B	0	M1
NMTTP	72	0	2	A	0	M1
NMTTP	72	0	6	B	0	M1
NMTTP	72	0	6	A	1	M1
NMTTP	72	96	0	B	0	M1
NMTTP	72	96	0	A	0	M1
NMTTP	72	96	1	B	0	M1
NMTTP	72	96	1	E	1	M1
NMTTP	72	96	1	A	0	M1
NMTTP	72	192	6	B	0	M1
NMTTP	72	192	6	A	0	M1
NMTTP	72	192	7	B	0	M1
NMTTP	72	192	7	E	1	M1
NMTTP	72	192	7	A	0	M1
NMTTP	72	288	3	B	0	M1
NMTTP	72	288	3	A	1	M1
NMTTP	72	288	4	B	0	M1
NMTTP	72	288	4	E	0	M1
NMTTP	72	288	4	A	0	M1
NMTAP	74	0	7
NMTAP	74	16	7
NMTAP	74	32	0
NMHLD	74	48	6	48
NMTAP	74	96	4
NMTAP	74	144	3
NMTAP	74	144	5
NMTAP	74	192	0
NMTAP	74	208	0
NMTAP	74	224	7
NMHLD	74	240	1	48
NMTAP	74	288	3
NMTAP	74	336	2
NMTAP	74	336	4
NMTAP	75	0	6
NMTAP	75	16	4
NMTAP	75	32	5
NMTAP	75	48	2
NMTAP	75	64	3
NMTAP	75	80	1
NMTAP	75	96	6
NMTAP	75	112	7
NMTAP	75	128	6
NMTAP	75	144	1
NMTAP	75	160	0
NMTAP	75	176	1
NMHLD	75	192	2	12
NMHLD	75	192	3	12
NMHLD	75	216	4	12
NMHLD	75	216	5	12
NMHLD	75	240	6	12
NMHLD	75	240	7	12
NMHLD	75	264	0	12
NMHLD	75	264	1	12
NMTTP	75	288	3	D	0	M1
NMTTP	75	294	3	A	0	M1
NMTTP	75	300	4	D	0	M1
NMTTP	75	306	4	A	0	M1
NMTTP	75	312	5	D	0	M1
NMTTP	75	318	5	A	0	M1
NMTTP	75	324	6	D	0	M1
NMTTP	75	330	6	A	0	M1
NMTTP	75	336	7	D	0	M1
NMTTP	75	342	7	A	0	M1
NMTTP	75	348	0	D	0	M1
NMTTP	75	354	0	A	0	M1
NMTTP	75	360	1	D	0	M1
NMTTP	75	366	1	A	0	M1
NMTTP	75	372	2	D	0	M1
NMTTP	75	378	2	A	0	M1
BRTAP	76	0	7
NMTAP	76	48	0
NMTAP	76	60	1
NMTAP	76	72	2
NMTAP	76	84	7
NMTAP	76	96	6
NMTAP	76	108	5
NMTAP	76	120	0
NMTAP	76	132	1
NMTAP	76	144	2
NMTAP	76	156	6
NMTAP	76	168	5
NMTAP	76	180	4
NMTAP	76	192	1
NMTAP	76	204	2
NMTAP	76	216	3
NMTAP	76	228	6
NMTAP	76	240	5
NMTAP	76	252	4
NMTAP	76	264	2
NMTAP	76	276	3
NMTAP	76	288	4
NMTAP	76	300	5
NMTAP	76	312	4
NMTAP	76	324	3
NMTAP	76	336	2
NMTAP	76	360	0
NMSTR	77	0	6
BRSI_	77	0	6	96	24	2
NMTAP	77	24	4
NMTTP	77	96	1	A	0	M1
NMTTP	77	100	1	B	0	M1
NMTTP	77	104	0	C	1	M1
NMTTP	77	108	5	B	0	M1
NMTTP	77	114	5	A	0	M1

T_REC_TAP	275
T_REC_BRK	9
T_REC_XTP	82
T_REC_BXX	1
T_REC_HLD	75
T_REC_XHO	7
T_REC_BHO	6
T_REC_BXH	0
T_REC_STR	33
T_REC_BST	3
T_REC_XST	7
T_REC_XBS	5
T_REC_TTP	107
T_REC_THO	2
T_REC_SLD	43
T_REC_BSL	5
T_REC_ALL	660
T_NUM_TAP	504
T_NUM_BRK	29
T_NUM_HLD	84
T_NUM_SLD	43
T_NUM_ALL	660
T_JUDGE_TAP	522
T_JUDGE_HLD	296
T_JUDGE_SLD	48
T_JUDGE_ALL	866
TTM_EACHPAIRS	76
TTM_SCR_TAP	252000
TTM_SCR_BRK	75400
TTM_SCR_HLD	84000
TTM_SCR_SLD	64500
TTM_SCR_ALL	475900
TTM_SCR_S	458850
TTM_SCR_SS	473000
TTM_RAT_ACV	10061

